BluRayCD Forum

 找回密码
 立即注册【分享大片】
查看: 30|回复: 2
收起左侧

[动作战争] 人肉炸弹/自相残杀 Triggered 2020 1080p BluRaycd x264-GUACAMOLE 10.47GB

[复制链接]

1万

主题

386

回帖

10万

积分

Post Share

金币
969 枚
体力
27977 点

卓越贡献勋章VIP蓝光勋章诚信会员勋章

mvods 发表于 2023-1-30 05:10:24 | 显示全部楼层 |阅读模式

( }! g: U4 h$ b/ A. P6 W/ |) F2 l. k* N$ h# k$ e  c
◎译  名 人肉炸弹/自相残杀
! h4 e$ B& m/ v  m* n◎片  名 Triggered / Жилет( n% q" w2 K3 T- T$ X- ~0 g- p9 _' t
◎年  代 2020
- y0 X3 r. U# O" E! ]◎产  地 南非) |% \5 U/ B' w% u
◎类  别 惊悚/动作/喜剧/恐怖
' T& z' C+ ^# A& J. l% V# O◎语  言 英语
; e4 m6 c! y! @+ C  K◎上映日期 2020-08-28(英国)/2021-01-10(南非)0 _0 e( D  [* ]- b5 v! f% W2 b
◎IMDb评分  4.8/10 from 8,068 users- G: t/ Y1 a+ h) v- {' n
◎IMDb链接  https://www.imdb.com/title/tt9419976/
" Z0 f5 h. e9 O0 t◎豆瓣评分 4.2/10 from 464 users: I$ W+ {: d9 G9 {3 C
◎豆瓣链接 https://movie.douban.com/subject/35224652/$ w% g! E" t/ B; ^# h& J' R
◎片  长 1 h 34 min& g0 a6 J1 w5 j( ~
◎导  演 Alastair Orr! |( a' l$ y' k0 b" ?* e2 o, w  F
◎编  剧 David D. Jones" o% y% A+ M9 Z& k( j
◎主  演 莉斯尔·阿勒斯 Liesl Ahlers: z1 u$ O8 L2 f' I- |( n6 Y
       蕾内·斯沃特 Reine Swart3 E7 ]* D( {' i- u' T4 `
       肖恩·卡梅伦·迈克尔 Sean Cameron Michael' D+ B9 X& ^' k  K- Z  C

7 s7 z9 W/ `( }/ J8 ^* Z7 M. h" ~◎标  签 惊悚 | 南非电影
' l' X' U9 F" A8 b. \
% `. r7 V1 j% J8 L. U( ^◎简  介   
( r+ m. \. d; y: D0 q" @6 K8 }' X& G+ L3 \
  九个朋友,去森林露营过程中他们经历了一个疯狂的夺命之夜。派对醒来时,九个人胸前绑着自杀式炸弹,倒计时钟上都有不同的时间。当他们发现可以通过杀死对方来“占用”对方的时间时,自相残杀开始了。! |* E: n; c6 S  J

9 L4 v% i, [  A4 {& j  Nine high school friends have a five-year reunion camping in a forest. They all have secrets. Their old science teacher straps a time bomb to each of them. Killing another gives one their time. Last one lives.# U. W8 ?! x! G5 G. @! j! W* q
Video
: h) ^& F* m. j) q9 xID                                       : 1: D1 P1 F. j0 [/ t0 Z7 _, y
Format                                   : AVC  v; I; E. P8 {' @' E" @
Format/Info                              : Advanced Video Codec. E& s. ?. B5 D, U/ u
Format profile                           : [email protected]6 M  n' H0 U/ z) A( E! h: y8 \. r; L
Format settings                          : CABAC / 4 Ref Frames9 e4 S. q& O6 O+ j' T
Format settings, CABAC                   : Yes
& w; y! s0 W3 f2 W5 kFormat settings, Reference frames        : 4 frames" f& |( f) f% D% Z
Codec ID                                 : V_MPEG4/ISO/AVC
; f9 X; V- h" |+ oDuration                                 : 1 h 34 min
, T0 `' E- a1 ~Bit rate mode                            : Constant2 j+ Z$ @; }; g5 j1 N
Bit rate                                 : 9 503 kb/s5 }6 V$ A) P) e9 o7 A3 q( a+ [
Nominal bit rate                         : 10 000 kb/s
) x( @0 R" x9 xWidth                                    : 1 920 pixels
6 [' Q6 y: C. O- k% THeight                                   : 816 pixels7 n: h$ I; B4 h
Display aspect ratio                     : 2.35:12 f4 ?( s  I  ]+ v
Frame rate mode                          : Constant
" q* B0 c% Y/ j4 OFrame rate                               : 23.976 (24000/1001/189150) FPS: ]; U7 G& d/ L" H: ^
Color space                              : YUV
6 y9 ]# |- w( ]3 I* }3 FChroma subsampling                       : 4:2:0
1 Q/ O& P( z  D( aBit depth                                : 8 bits
. j& y* C* c' K) U2 R: c" UScan type                                : Progressive, }- o) G, ?" U, u# i5 ^( L
Bits/(Pixel*Frame)                       : 0.253$ x9 o5 b7 _! c8 L0 A/ }
Stream size                              : 6.26 GiB (94%)
2 B/ {" x6 j9 Z" `8 o9 U9 ^' P1 RDefault                                  : Yes
' d! y" ~; q) x. E& O8 b0 `Forced                                   : No' `/ n# z: \# w; A8 ]
Color range                              : Limited: x9 u8 t5 S2 Z6 W
Color primaries                          : BT.7091 U/ Q# y* R! j" y1 ]" R
Transfer characteristics                 : BT.709
  A4 b) T* W# r& ~7 m& j7 _Matrix coefficients                      : BT.709
. u5 A1 A+ V4 t9 z+ x& u# L* ]3 v$ L4 i! N3 c+ K) p
Audio0 [$ [) D- `2 B. I. X+ k0 s) u: e5 P
ID                                       : 2
; K  d8 s$ I/ [1 RFormat                                   : E-AC-3& }& X5 ^7 h8 V# j4 u( e  R
Format/Info                              : Enhanced AC-3* |) I* y% e! x6 O' u, R6 D/ T& N
Commercial name                          : Dolby Digital Plus
1 d1 Z$ o' G7 R5 jCodec ID                                 : A_EAC37 ~! B% ?& n! u; k0 n) o
Duration                                 : 1 h 34 min
5 A; V, z3 e1 T' ?7 x" dBit rate mode                            : Constant
% F8 i  q6 M* K) u& aBit rate                                 : 640 kb/s
# x8 S7 ~, u4 ~. @6 aChannel(s)                               : 6 channels* B" P: C' K. q4 S
Channel layout                           : L R C LFE Ls Rs1 V3 o8 s- E, ?6 X, @; N
Sampling rate                            : 48.0 kHz
7 O& B  Q. G/ M6 {0 VFrame rate                               : 31.250 FPS (1536 SPF)5 q9 @$ x* A. M% R  }( `. G6 r3 K
Compression mode                         : Lossy
6 ^8 h/ f  ?' H5 P) m! M/ z/ DStream size                              : 431 MiB (6%)
; P! ~/ d# W4 j; [Language                                 : English9 J: K3 d& B, P, z% C1 [
Service kind                             : Complete Main
8 ]/ I# ^, G( S! `( e% V' @Default                                  : Yes" b& V- S9 Z7 e) v, N( c3 G$ v
Forced                                   : No/ j  f8 R8 R/ O( J0 _! @. E- y

$ _) l3 f! q6 ]% T/ zText( c) I* p( L- C# |( q
ID                                       : 36 J. ]( x. |* z; I* {) k; U
Format                                   : UTF-8& _; x1 B; Z% s4 \; d1 ?/ Z* B
Codec ID                                 : S_TEXT/UTF8
' _" o/ D  i  H. Z6 n, Z& }Codec ID/Info                            : UTF-8 Plain Text
& c' K7 B4 e) c; Y2 y& nDuration                                 : 1 h 29 min
8 v9 s7 Y" N6 v! S8 \5 }" D2 s$ lBit rate                                 : 88 b/s
9 \. V6 x: {0 `0 kCount of elements                        : 2025
7 R* B$ l& I8 y  h& L5 |3 QStream size                              : 58.0 KiB (0%)
+ I2 H# w& Y1 B' J. N, F; N7 PTitle                                    : SDH
" |8 t( w* M! G# p. q6 vLanguage                                 : English2 S4 B6 Z8 i% |5 M
Default                                  : No
4 s* O1 ?9 Z, j9 T5 oForced                                   : No
" ^" A+ Y5 d7 m7 |) ?
6 D0 N* g8 i7 {2 qENJOY THiS NiCE PRE WiTH TORTiLLAS AND.... i; x+ n6 \, g. c  o5 y5 D# w: e, R
1 O% H4 C8 ?/ s7 I# s  X
..............Triggered.2020.1080p.BluRayCD.x264-GUACAMOLE 10.47 GB1 o3 o0 x2 }6 F4 {
" l3 C4 d( Q/ d4 |4 ?
......... pre: 29.01.2023
7 Z! n7 T( b/ q........ size: 10,5 Gb (75x150mb)
# f- p* z. p, O% s; Z; q) ?( a..... runtime: 94min
/ n9 b/ ^+ n9 z( U. E) i* b* D8 o/ ]! ^' }1 ^' v
........ imdb: https://www.imdb.com/title/tt9419976/6 o9 j9 e1 |& Z' x( |% Z
...... rating: 4,8/10 from 8068 users
" U: z4 a) N( o5 \4 b' W....... genre: Action, Kom die, Horror
6 O# \  k1 X. i( A3 R6 y
5 Q  [. M  o& A/ l....... video: X264 crf 17 @ 14,0 Mbps (Source 28,0Mbps)8 F1 E8 W+ Q4 C" T8 R
........ reso: 1920 x 816 @ 2,35:13 V  T. g0 W% _3 B( T
......... fps: 23,976. Y% V; `: q2 ]5 E- o! k8 h

# A( ?9 q8 o1 h0 s0 U....... audio: english 6ch dts @ 1871kbps* y! _! C' j# T! [% L7 z
0 R( R; b+ `9 d2 F
.....greetins: OLDHAM
5 I' {9 I7 `6 T; b& ]9 f  [
$ M8 B4 _5 T. D" H& p5 e.............. dip it!

, j2 o9 S* z0 A5 t# I2 N
游客,查看本帖隐藏内容请回复 | 加入VIP可免积分免回复 了解详情 | 还不是会员:点击获取邀请码 Invitation Code

0

主题

1278

回帖

5053

积分

Sponsor

金币
339 枚
体力
2195 点
zzk980220 发表于 2023-1-30 15:24:06 | 显示全部楼层
啥也不说了,楼主就是给力!
" H# H* T4 G% z7 j' n4 d$ nThe decisive Replies sink is I get the sinking feeling great sense of accomplishment!) V" B. }7 V, f; a; D$ P

0

主题

584

回帖

2489

积分

Sponsor

金币
47 枚
体力
1314 点
luyife 发表于 2023-2-5 12:43:39 | 显示全部楼层
谢谢楼主的分享

本版积分规则

小黑屋|手机版|Archiver|4K蓝光论坛

GMT+8, 2023-3-27 11:45

Copyright © 2001-2021, Gadaddy Cloud.

快速回复 返回顶部 返回列表