BluRayCD Forum

 找回密码
 立即注册【分享大片】
查看: 17|回复: 2
收起左侧

[科幻恐怖] 分身小绿妖 [加长版] Munchies 1987 EXTENDED 1080p BluRaycd x264-FREEMAN 12.58GB & 8.37GB

[复制链接]

1万

主题

387

回帖

13万

积分

Post Share

金币
4116 枚
体力
32636 点

卓越贡献勋章VIP蓝光勋章诚信会员勋章

mvods 发表于 2023-2-5 02:09:58 | 显示全部楼层 |阅读模式
2 L. i" Q& m% ~  K) |# R
1 b) l5 o$ W8 K) _( R" e
◎译  名 分身小绿妖/普罗兹德利夫奇/ d8 {. c+ n( M- a3 N
◎片  名 Munchies
8 n9 Y3 K! B% [◎年  代 1987
) u. j4 X0 ^" `3 M5 ?7 Q6 @7 l◎产  地 美国
3 f" D! [- I2 O, X7 p8 {◎类  别 喜剧/科幻/恐怖/奇幻
3 l  `( W# `# g. V9 ]◎语  言 英语; f# B5 v+ z- f5 i! X, Z
◎上映日期 1987-03(美国)0 U  G& w. O$ g( N9 j+ q# q5 x
◎IMDb评分  3.9/10 from 1,730 users, |7 w, N2 ?1 i5 Q) `, s
◎IMDb链接  https://www.imdb.com/title/tt0093582/
% e5 c- ^. i& Y, m$ l6 T6 i◎豆瓣评分 0/10 from 0 users7 W# N1 F0 w; v8 k) g) {
◎豆瓣链接 https://movie.douban.com/subject/3622604/( q" a8 s9 \. C5 _) I
◎片  长 1 h 32 min+ G/ m4 I' W; A6 i; P0 d- B" N
◎导  演 蒂娜·赫希 Tina Hirsch
7 P2 k! ~# n( G1 I◎编  剧 Lance Smith
5 C4 R2 P7 b* L, Q- f' a4 V◎主  演 哈维·科曼 Harvey Korman
: v6 I$ g# N& V) N# ]       Nadine Van der Velde) C7 G6 D# U2 I" Q
       查理·斯垂顿 Charlie Stratton% ]( H; y; p5 W6 z% G2 x
       Hardy Rawls
7 ?& Y% G1 Y3 |4 G9 r' L8 n       罗伯特·皮卡多 Robert Picardo
! d' C' L5 M% F* _3 e       艾琳·艾比迪尼 Ellen Albertini Dow+ a) r: v+ U1 k6 P
$ L  K, D) P% U
◎简  介   " h. X8 W3 w# `- y1 @' j0 l

  D5 m; m9 C+ x- y  太空探险家赛门意外发现外星生物,这个叫「阿诺」的可爱小毛怪,长的可爱又友善,但是赛门的邪恶兄弟丝丝却把它绑架了,但麻烦的还不只于此,受到攻击与威胁的「阿诺」会自动分裂,一个变两个,两个变四个,长的又快又邪恶,转眼间平静小镇斥充邪恶小怪物,赛门与「阿诺」要如何拯救小镇?...( k5 F3 H. r& L. h+ ]8 Z

3 I( k) v: _. W* a/ n+ t* n  Simon Watterman, a space archaeologist, discovers the "Munchies" in a cave in Peru. Cecil Watterman, Simon's evil twin brother and snack food entrepreneur, kidnaps the creature. What Cecil does not know is that the creature, when chopped up, regenerates into many new creatures -- and are they mean!6 V- t  q+ @9 p8 I$ E
Munchies.1987.1080p.BluRayCD.x264.DTS-FGT 8.37 GB
! a# K/ b3 n# p% f, n. Z! }. M9 R( @- j" ?; f9 J5 s& a2 B/ M
Video. e$ B5 h. V3 n/ c6 f$ O
ID : 19 ?- p# s! q3 r& g! y7 O, o
Format : AVC; [5 r6 k6 v, q9 F, W* c
Format/Info : Advanced Video Codec9 G- X! H4 T) P! k: f" q7 u% r6 ^
Format profile : [email protected]5 U/ p8 D( T$ i0 i
Format settings : CABAC / 4 Ref Frames5 d- l; i! A* b/ x8 \# A+ l
Format settings, CABAC : Yes0 o( d: e0 }: |; l" h9 T
Format settings, ReFrames : 4 frames
3 C# S" F. X0 {% U3 @) C# XCodec ID : V_MPEG4/ISO/AVC
/ d3 u! O0 P' W$ f. S# nDuration : 1 h 32 min& y5 A- t) X) c& U2 E5 n
Bit rate : 11.5 Mb/s
$ q& K5 ~& j6 a: ^2 Y$ GWidth : 1 920 pixels- r+ P6 H: y, [  K
Height : 1 040 pixels1 o5 ], J3 U! Q! `6 @
Display aspect ratio : 1.85:1" |0 l  d8 q5 L$ \3 p; e
Frame rate mode : Constant
" @% W. A# P7 rFrame rate : 23.976 (24000/1001) FPS0 J! ~( K* ^! }: i4 P4 ]
Color space : YUV
& ]! [( Z; g$ B$ y3 {2 g6 P+ DChroma subsampling : 4:2:0
  O; u" h. n7 b: m8 ~, eBit depth : 8 bits
* l7 J0 a  U" [/ F3 |: N. M. nScan type : Progressive3 j# h! W) G! ]6 f$ g
Bits/(Pixel*Frame) : 0.240% ?7 t# \" a; {5 M- r
Stream size : 7.40 GiB (88%): X1 S5 `# q  u: P  W" h5 m
Title : Munchies.1987.1080p.BluRaycd.x264.DTS-FGT
" Y/ c6 T) [( XWriting library : x264 core 148 r2795M aaa9aa8. t, n! m: ?4 U% r
Encoding settings : cabac=1 / ref=4 / deblock=1:-2:-2 / analyse=0x3:0x113 / me=umh / subme=9 / psy=1 / psy_rd=1.00:0.15 / mixed_ref=1 / me_range=16 / chroma_me=1 / trellis=2 / 8x8dct=1 / cqm=0 / deadzone=21,11 / fast_pskip=1 / chroma_qp_offset=-3 / threads=24 / lookahead_threads=3 / sliced_threads=0 / nr=0 / decimate=1 / interlaced=0 / bluray_compat=0 / constrained_intra=0 / bframes=3 / b_pyramid=2 / b_adapt=1 / b_bias=0 / direct=3 / weightb=1 / open_gop=0 / weightp=2 / keyint=250 / keyint_min=25 / scenecut=40 / intra_refresh=0 / rc_lookahead=50 / rc=2pass / mbtree=1 / bitrate=11500 / ratetol=1.0 / qcomp=0.60 / qpmin=0 / qpmax=69 / qpstep=4 / cplxblur=20.0 / qblur=0.5 / vbv_maxrate=31250 / vbv_bufsize=31250 / nal_hrd=none / filler=0 / ip_ratio=1.40 / aq=1:1.00: I$ f0 E+ J% [$ d
Language : English
& E. ?( H, ~1 r: j! P7 m8 MDefault : Yes6 c% X1 y8 x/ s+ m
Forced : No! [6 J/ C! n7 X  b

' ^; \% l) J; [& m5 u  s% C  W. gAudio
4 g& _3 n  ^- LID : 2
9 R4 z8 k$ N  P$ J1 c2 N' x0 GFormat : DTS& z4 d8 ]9 w0 U9 y& U1 q; o
Format/Info : Digital Theater Systems$ P9 o: r1 _% d- p
Codec ID : A_DTS, y2 E& M0 j/ s% J7 }- Y
Duration : 1 h 32 min
! ~* K/ I; q# m* }5 S) YBit rate mode : Constant! F* P6 K: Y! P
Bit rate : 1 509 kb/s5 u& S5 _% ?3 {  p7 T8 @! Y/ b
Channel(s) : 2 channels
# E6 E& t$ z; j) j2 S. pChannel layout : L R; X8 F: \# Z* C' y0 b7 b
Sampling rate : 48.0 kHz$ J/ z, I/ R4 H( S2 ~
Frame rate : 93.750 FPS (512 SPF)
  r- y$ k  N* V& R# s; `Bit depth : 24 bits3 Y9 N2 C5 F; P; M- c) l
Compression mode : Lossy' i+ v* \7 ?* i1 \  z. k
Stream size : 995 MiB (12%)' z7 v" v% n0 H( r- K' D4 c
Title : Munchies.1987.1080p.BluRaycd.x264.DTS-FGT
2 ~5 Y! s) H% a0 R) ]2 XLanguage : English/ m  w9 H; q* x) n. k
Default : No
, q) C" J6 x; l" D1 OForced : No, x$ i1 p) {* T9 u3 L0 M
7 o2 [( R9 W5 G  z% D% c) X
Text #1
' C. S  l* q: q! _ID : 3
" A6 p, L6 e: JFormat : UTF-8
& ]# _# ^% ^7 I: M, G* Z  wCodec ID : S_TEXT/UTF8
+ ?* g7 O5 a, U6 V' @7 P; p1 ?8 J; TCodec ID/Info : UTF-8 Plain Text9 F8 |4 [5 g- v0 [$ ^7 z
Duration : 1 h 31 min
+ O2 d2 _& t; `Bit rate : 62 b/s
4 C% E1 _3 Z4 x. ECount of elements : 1735+ r3 K7 T  O6 p' V( p3 ?1 F
Stream size : 42.0 KiB (0%)
2 {* i( r/ [3 d3 P" JLanguage : English- V' ]9 G! W, u6 x. z* w
Default : Yes
" l5 c8 Y3 b% _0 p* eForced : No; ]& r4 J' u* m7 x# y4 P

( Z2 L: i6 p! aText #2
8 x* u" R6 c- S$ G- BID : 4
' z( A1 N% a( M4 F5 b2 }& l% MFormat : UTF-88 \6 F) |* j; X+ z3 X( [$ T7 O
Codec ID : S_TEXT/UTF8
/ `2 ~1 P$ s! z+ d5 j8 lCodec ID/Info : UTF-8 Plain Text
. Y3 K" m( ~% |' ODuration : 1 h 31 min
; h: s/ z( B) I# _8 X) hBit rate : 66 b/s7 b9 \# T! |2 R0 h
Count of elements : 18678 c6 L: n- J' T& \7 Z: D* K
Stream size : 44.6 KiB (0%)
5 a, l! O. r# c' R7 UTitle : SDH# A$ H4 I4 V% @% i  m8 h' v
Language : English, i/ w' t5 |; ?7 _6 E2 d# `
Default : No8 [2 N2 d2 X3 z$ I  v# [+ e) [
Forced : No9 @) t3 V" A8 w9 q2 F

$ T7 `( p+ j( [" {9 G3 \Menu
3 P4 s' T6 Q% t, Z. {+ O$ p00:00:00.000 : en:Chapter 01
( F: \7 }' a# M- X00:07:24.527 : en:Chapter 02
2 W4 ?5 C5 z# Z1 H& L6 E/ E1 ^5 K2 I00:15:10.117 : en:Chapter 035 _( D; @/ i1 s: n- k( a9 \+ O
00:22:32.934 : en:Chapter 04
' x0 @' N6 M) L& |( d00:30:18.733 : en:Chapter 054 D* _# F* Z9 l# ]! R- m  P
00:36:33.441 : en:Chapter 06
# H, v. O& V1 Y' S! ]3 D- \00:42:33.050 : en:Chapter 074 h, @' I4 i% F; A; q* m3 d$ p
00:49:45.983 : en:Chapter 08
7 t9 S( p; E1 E* w! _' j& [00:58:01.352 : en:Chapter 09! A" V! O6 U" q
01:06:40.371 : en:Chapter 10
6 b- b; h% V) i% a, Z, t01:13:34.451 : en:Chapter 11
' D- E- R' z- s/ }- {- G3 u01:20:02.255 : en:Chapter 12: i1 l1 z7 D+ M2 ?, C; [( E+ y
01:32:09.857 : en:Chapter 13
Munchies.1987.EXTENDED.1080p.BluRaycd.x264-FREEMAN 12.58 GB
) s  o; }, p( H. H7 c
- j  X. B6 h1 d5 P8 S% WRELEASE DATE.....: 02-02-2023" ^* y9 W5 T7 W+ |! k5 e4 P
SiZE.............: 12,6 GiB
, w3 J- k0 r# g+ t6 W* j( u  ], c$ }ViDEO............: 1920x1036 - 19,2Mbps (crf23)
$ P' l) k* d. n$ SSOURCE...........: 32,2 Mbps1 `# `! G  W  w" `& |' _/ a
AUDiO1...........: English AC3 2.0 - 384 kbps
3 B3 a. s: i0 ~' R/ t: sAUDiO2...........: -) b1 v% B3 G* y
SUBS.............: -
9 {7 T" s& h& Q6 i
1 [% f. d- R2 a- Uhttps://www.imdb.com/title/tt0093582/
( V, f! t9 z) p8 Q, p6 F% i  l
游客,查看本帖隐藏内容请回复 | 加入VIP可免积分免回复 了解详情 | 还不是会员:点击获取邀请码 Invitation Code

0

主题

891

回帖

4534

积分

Sponsor

金币
111 枚
体力
2668 点
QQ
一见哈哈笑 发表于 2023-2-6 16:30:31 | 显示全部楼层
感谢楼主,感谢!

0

主题

1933

回帖

7920

积分

Sponsor

金币
668 枚
体力
3455 点
zzk980220 发表于 2023-2-6 17:33:03 | 显示全部楼层
啥也不说了,楼主就是给力!
0 E) t3 o  c+ F2 |, Zbluraycd forum, a lot of Blu-ray movies!' A( P. A! _% V

本版积分规则

小黑屋|手机版|Archiver|4K蓝光论坛

GMT+8, 2024-4-15 13:40

Copyright © 2001-2021, Gadaddy Cloud.

快速回复 返回顶部 返回列表