BluRayCD Forum

 找回密码
 立即注册【分享大片】
查看: 9|回复: 0
收起左侧

[剧情悬疑] 塔尔/Tár塔爾/她 Tar 2022 720p BluRaycd x264-PiGNUS 4.78GB & 7.74GB

[复制链接]

1万

主题

387

回帖

12万

积分

Post Share

金币
3947 枚
体力
32369 点

卓越贡献勋章VIP蓝光勋章诚信会员勋章

mvods 发表于 2023-4-13 08:25:19 | 显示全部楼层 |阅读模式
8 m( e8 N7 R- c' L9 X6 A; J& Z  y
- o) z2 E: D# ]$ H) t
◎译  名 塔尔/Tár塔爾(台)/她
2 Z- S9 d2 o2 ]( V◎片  名 Tár / Тар
: L& B$ {* v$ a' H" v! K, e& v◎年  代 2022
# c- j1 F( B1 Y; v& u, U. z' j◎产  地 美国
: _% N6 {: h1 o9 @! @. W3 S( c◎类  别 剧情/音乐
/ ?' ~- p: x* ^' p) r6 ~) y◎语  言 英语/德语/菲律宾语/法语
! y; c  X( |4 g◎上映日期 2022-09-01(威尼斯电影节)/2022-10-07(美国)5 U0 v* S0 ^' W5 |/ a& b7 d
◎IMDb评分  7.5/10 from 66,674 users
, V' C1 h% Y4 v2 q4 N3 {◎IMDb链接  https://www.imdb.com/title/tt14444726/4 v2 l8 L0 h0 n- [
◎豆瓣评分 7.4/10 from 22,313 users
0 b  x3 l$ ^) |9 G2 e◎豆瓣链接 https://movie.douban.com/subject/35430833/" G% r/ V1 w$ S4 ?
◎片  长 2 h 37 min
0 [- \* M/ U! Z' u◎导  演 托德·菲尔德 Todd Field2 h1 s# f! g& @9 V) \4 k
◎编  剧 托德·菲尔德 Todd Field
& [9 a* Q3 X9 ?# A3 N& r3 P◎演  员 凯特·布兰切特 Cate Blanchett
8 h; d8 W5 g9 ~' d       诺米·梅兰特 Noémie Merlant9 e4 m9 F) U# [* b! C* h; x/ K# M
       尼娜·霍斯 Nina Hoss' a/ I4 l/ f. U6 E4 }
       马克·斯特朗 Mark Strong
6 E, K. b) J- g# l' C' E       苏菲·考尔 Sophie Kauer, g" W8 S5 q  _7 Z( P
       朱利安·格洛弗 Julian Glover4 M% h8 y5 F9 Q; d' Z  S
       阿兰·柯德勒 Allan Corduner9 |2 b5 d7 t; j
       西尔维娅·弗洛特 Sylvia Flote
( s( o) w+ c+ s$ q8 h& e! E3 F9 |       亚当·戈普尼克 Adam Gopnik) e" u8 m  Z/ t, ~. z! a' Z
       米拉·博戈耶维奇 Mila Bogojevic& Z6 |- a: m2 @
       泽斯潘·D·史密斯-格尼斯特 Zethphan D. Smith-Gneist" V# {2 l1 S* L6 B
       西德妮·莱蒙 Sydney Lemmon
( v7 X( B4 ]1 V: _' W7 s. I$ Q6 A       玛丽·卢·塞勒姆 Marie-Lou Sellem
0 ?3 o* p! h+ X) R. k) U1 ~       亚历克·鲍德温 Alec Baldwin
7 j! x; R0 Z* L. ~6 J% Y       杰西卡·汉森 Jessica Hansen. Z% H( ?. D+ J: @. O' U
       亚特乔姆·吉尔茨 Artjom Gilz* F6 t+ w* u' {. ]
       蒂亚·克拉奇伍利 Tilla Kratochwil
: _' h$ {6 D: U% O' w       李·R·塞拉斯 Lee R. Sellars
( e3 v& I# l9 H       阿尔玛·洛尔 Alma Löhr
1 p# Q; q& t5 F; R8 |       基蒂·沃森 Kitty Watson
, t6 t; s4 O& P# s- Z4 m       André Röhner
* ?$ L1 C4 s5 [1 _7 r& G# ?       Frank Röth . v) d  S  R7 e! B$ M! k
       约翰·冯·比罗 Johann von Bülow6 r  l- V  g9 }6 N
       仙妮娅·阿森察 Xenia Assenza+ D- x* t! y. \/ s% _
       山姆·道格拉斯 Sam Douglas
- d/ C  _* Y+ k9 @1 `, F, w3 l       穆拉利·佩鲁马尔 Murali Perumal
: t- v' R+ Y" J1 B* [3 ^       埃德·怀特 Ed White$ u8 q% U" Y  H( s1 \
       文森特·里奥特 Vincent Riotta
. A# w$ ?: W7 ^% H, B+ w8 J% ?       Vivian Full
1 B3 |" U+ X2 k; [+ z       露西·波尔 Lucie Pohl
4 V2 R. X1 k" N+ I, b  ~: h       迪安娜·比伦特 Diana Birenyte  D; R) M' M" Q
       法比安·蒂尔 Fabian Dirr2 ?  m! ~) }1 u  ^! G9 J
       凯特·布兰切特 Cate Blanchett  G" v. D& l9 a9 g% b" a! d$ _
       托德·菲尔德 Todd Field* F9 E% n, Y# W; }% K
       希尔迪·居兹纳多蒂尔 Hildur Guðnadóttir. Y: N9 S! n7 p) d2 U+ X6 ?
       弗洛里安·霍夫梅斯特尔 Florian Hoffmeister/ C7 l* W- u- ^7 ^0 t5 r5 x
       Minka Farthing-Kohl
# |1 w; A( w- f5 n% g7 T( B       佩纳·戴格勒 Bina Daigeler
8 u& P* A; _3 ~1 p3 X. N% f
2 D/ u; ~, S9 B2 S' s8 Y, L" v◎简  介   
2 Q: l1 M" {5 N" W. V3 j5 X0 X) M4 |6 d' [8 v2 C
  影片故事设定在古典音乐的世界,主人公莉迪亚·塔尔(凯特·布兰切特 饰)被视为现今在世最伟大的作曲家、指挥家之一,是EGOT大满贯得主,柏林爱乐乐团第一任女指挥。 她是乐界传奇,无时无刻不追求完美与掌控力,在专业上拥有偏执的精神,耀眼的光环下亦充斥着对欲望与权力的追逐。 距离一次重要交响乐录制仅有几天的时间,这将使她达到职业生涯的顶峰……
6 k  n/ R. r( B# x2 ]1 ^
0 S2 m5 {. k& z2 g  Set in the international world of Western classical music, the film centers on Lydia Tár, widely considered one of the greatest living composer-conductors and the very first female director of a major German orchestra.
2 m) ]3 o: K. O: z1 Q* Y& P3 ~8 a
Tar.2022.720p.BluRayCD.x264.DTS-FGT 7.74 GB1 z  [" V% M) d  Y9 s% ~) l: _

. N5 A0 Y& R6 R3 B1 x6 GVideo% z/ y2 V7 e6 p
ID                                       : 1' @6 C5 ]' G4 H
Format                                   : AVC+ s9 g, s! C" b
Format/Info                              : Advanced Video Codec; U% q1 L# c( t
Format profile                           : High@L4.1
/ v! y, @( }# V* a! K& W& b; BFormat settings                          : CABAC / 4 Ref Frames5 u& P- S4 q  b$ V: d. ]) S
Format settings, CABAC                   : Yes
4 H5 z) s- I( i1 V3 X* mFormat settings, Reference frames        : 4 frames9 U/ h8 A% f; p# q3 ]
Codec ID                                 : V_MPEG4/ISO/AVC$ @: h" {( z; q  S& @. X' m
Duration                                 : 2 h 37 min
  _6 O4 h. ^9 ?7 Y' y/ ]4 \1 }& UBit rate                                 : 5 500 kb/s; t+ h. P* `$ c) A: L
Width                                    : 1 280 pixels
# N3 _4 Q! B: yHeight                                   : 536 pixels
4 {  \" K" H& y* X  o* l/ xDisplay aspect ratio                     : 2.40:1
! \6 {  E3 b& C) ^  IFrame rate mode                          : Constant
3 {: C$ q: d3 P$ |9 KFrame rate                               : 23.976 (24000/1001) FPS! R8 C0 j/ i, h& \" P0 z& B
Color space                              : YUV
& ]5 ?: q, W, m; t5 Q% oChroma subsampling                       : 4:2:0
% ?( \4 ^' l1 |9 Z/ O, {4 pBit depth                                : 8 bits3 ~2 g9 m) T2 I' R  {& S7 O
Scan type                                : Progressive5 K2 q& _: O' i6 p/ Y6 o
Bits/(Pixel*Frame)                       : 0.334
9 d* w7 F$ `. p, u3 k3 X# hStream size                              : 6.07 GiB (78%)- S" k: }" G' c0 ], {+ [. ]" b
Writing library                          : x264 core 148 r2795M aaa9aa8; U& m1 o/ _( m
Encoding settings                        : cabac=1 / ref=4 / deblock=1:-2:-2 / analyse=0x3:0x113 / me=umh / subme=9 / psy=1 / psy_rd=1.00:0.15 / mixed_ref=1 / me_range=16 / chroma_me=1 / trellis=2 / 8x8dct=1 / cqm=0 / deadzone=21,11 / fast_pskip=1 / chroma_qp_offset=-3 / threads=72 / lookahead_threads=3 / sliced_threads=0 / nr=0 / decimate=1 / interlaced=0 / bluray_compat=0 / constrained_intra=0 / bframes=3 / b_pyramid=2 / b_adapt=1 / b_bias=0 / direct=3 / weightb=1 / open_gop=0 / weightp=2 / keyint=250 / keyint_min=25 / scenecut=40 / intra_refresh=0 / rc_lookahead=50 / rc=2pass / mbtree=1 / bitrate=5500 / ratetol=1.0 / qcomp=0.60 / qpmin=0 / qpmax=69 / qpstep=4 / cplxblur=20.0 / qblur=0.5 / vbv_maxrate=31250 / vbv_bufsize=31250 / nal_hrd=none / filler=0 / ip_ratio=1.40 / aq=1:1.00
7 L/ K* c9 i5 W& _& x/ @* oLanguage                                 : English2 J! R3 J$ e# W) H' a. W& E3 d
Default                                  : Yes3 b4 m$ G+ l8 @+ W+ H
Forced                                   : No
1 \: H" n& |" [- N5 x( I% \: z: x6 y8 x# s+ g: b
Audio# A& \% u. ]! p5 r7 Q
ID                                       : 2
) m# t# N5 k+ M$ c6 J, PFormat                                   : DTS
( v. q  Q- j$ E- NFormat/Info                              : Digital Theater Systems
$ B/ f6 @8 b5 s3 TCodec ID                                 : A_DTS
5 x( o! v; [% MDuration                                 : 2 h 37 min& R; n9 l+ |1 _8 B
Bit rate mode                            : Constant
9 y5 {4 z& u' |5 `/ S/ ^Bit rate                                 : 1 509 kb/s
. W& s0 k- b. f! d. h" v, |Channel(s)                               : 6 channels3 g/ M; _% A, K5 S) |- ~; p9 u! E
Channel layout                           : C L R Ls Rs LFE- I( q# K; q6 {2 e" U
Sampling rate                            : 48.0 kHz) b* N  H% _7 I7 K  V
Frame rate                               : 93.750 FPS (512 SPF)& U, V( j: R" W: c
Bit depth                                : 24 bits
  I& j* |, t7 A. w( ?Compression mode                         : Lossy# z9 g, h- x. L4 w% _( f8 k' T, Y0 P
Stream size                              : 1.67 GiB (22%)
" x2 g& g  }. I4 v2 QTitle                                    : DTS 5.1
2 z$ Q# k# C$ v: h$ N5 z* `Language                                 : English8 w8 M  A, S+ Y5 U
Default                                  : No3 T$ A! h0 t" z  `8 `
Forced                                   : No
" j9 E+ c1 t! J: W% b$ C  D
+ ]/ g" i) C" X8 D8 pText #1- r! i' F% a) J" }5 P1 W# N$ R5 j- v
ID                                       : 3
4 u2 K! o* {. ]- `4 l: @" Q/ CFormat                                   : UTF-80 u& O* m! A( w) d2 M& D
Codec ID                                 : S_TEXT/UTF8
' H0 O7 X7 s% t6 s7 ~& O$ ~Codec ID/Info                            : UTF-8 Plain Text
. V8 {) |4 n2 N6 aDuration                                 : 2 h 33 min, Q3 ~' N; W+ N& @7 T8 F! K
Bit rate                                 : 53 b/s
" k( L7 T5 ?4 G( m; v5 v+ W% CFrame rate                               : 0.187 FPS
' ^! L9 U3 Z% v6 L- S( A5 CCount of elements                        : 1723
5 J7 H7 q+ n9 [4 mStream size                              : 60.7 KiB (0%); f& T% |/ F5 f) |; D% D
Language                                 : English
6 {! D$ c" I$ Z0 v4 pDefault                                  : Yes
) Y) G) f) H, Y8 z' x- L& oForced                                   : No
/ d& z9 L$ k4 k2 b6 l6 J) a5 x- ^, d% t& |3 U: P6 ~+ ^
Text #2
  ~4 ?3 f% z# C  O9 ]9 q0 T% {6 \; ^ID                                       : 45 M/ Q& `; |5 x+ P! _7 _+ L$ J
Format                                   : UTF-8$ N( \0 y5 B% K
Codec ID                                 : S_TEXT/UTF8
3 o- c2 n$ o: a. oCodec ID/Info                            : UTF-8 Plain Text" \4 F0 p. v! ?8 O
Duration                                 : 2 h 33 min
: i- j6 ^& ]: F* lBit rate                                 : 61 b/s
* l; E0 c7 G) v5 TFrame rate                               : 0.224 FPS1 G# P! b9 U. {7 ^
Count of elements                        : 2064
* d1 s* P8 P/ K( R- u, cStream size                              : 68.8 KiB (0%). k- `, p; S5 G
Title                                    : SDH. p4 R/ n) X% T( M
Language                                 : English
" Y- h2 d9 E; ]7 j# p( U: f& GDefault                                  : No
4 u) w- H" z% @. j8 E4 Q& V4 E4 @Forced                                   : No- d8 c" ~8 w. b6 W: F7 M# N. n/ \

, _1 `! {" S: IMenu
0 x( w: l6 c4 i2 u+ X& l00:00:00.000                             : en:Chapter 01
/ k# c0 N7 g5 E3 Y0 B: ^. \% ^00:07:29.782                             : en:Chapter 02
8 }+ \" C( z5 J3 d4 x9 d# C$ E00:17:07.151                             : en:Chapter 03
5 h3 [! ?2 @* C* F- P$ \# H5 F- B00:25:12.302                             : en:Chapter 04
! Y7 F) |0 P1 A. {00:35:37.677                             : en:Chapter 056 U+ {8 S5 m1 V
00:42:15.407                             : en:Chapter 06$ m5 Z0 d4 V6 V+ ]. D# ?% U$ w7 f
00:49:55.867                             : en:Chapter 07
0 X/ g$ \4 m) {* N, T: c7 D6 m00:58:05.440                             : en:Chapter 08
+ I  W! {3 U/ \. h1 N$ P- Q01:06:35.074                             : en:Chapter 09" j& K" |& F0 _+ }4 d
01:14:31.800                             : en:Chapter 104 g/ [+ D0 Y$ {4 Z7 P
01:22:07.714                             : en:Chapter 113 B( G6 }! {% T2 ]: p" K9 W' }
01:32:25.581                             : en:Chapter 12
, P+ h/ O% X6 ?) S4 u01:39:26.085                             : en:Chapter 13
6 l0 p2 V; D& v9 g' u; w01:48:11.067                             : en:Chapter 14  }! L" A, [) O9 J  d3 y& S) e
01:56:48.334                             : en:Chapter 15' \0 Q. d: w: e- M1 ?1 U, {
02:05:49.124                             : en:Chapter 167 P3 t8 G2 u1 n+ G( M  U, w
02:11:24.334                             : en:Chapter 17$ H7 o1 z, u3 o  g9 f4 W5 g) a2 P5 e
02:19:23.772                             : en:Chapter 18
8 m: i0 T/ |$ t4 H" R" W1 e02:27:28.130                             : en:Chapter 194 b: l) y, G! |* E
02:34:42.356                             : en:Chapter 20
Video1 ~2 L; I$ }& M1 z  Q
ID                                       : 1
* Y0 G& z2 \$ x) c7 ~: N8 sFormat                                   : AVC8 B! z4 t" Z; D) k3 Z; _% {
Format/Info                              : Advanced Video Codec
. Y. N0 F- a& hFormat profile                           : High@L4.1& C% ~* E- E% s% ~+ {( S4 H$ Z
Format settings                          : CABAC / 8 Ref Frames
; C% Z# r& @, ]7 g8 [+ s: _1 gFormat settings, CABAC                   : Yes3 a( {0 K8 T' _+ E$ D; X: N
Format settings, Reference frames        : 8 frames
/ }, R. [5 A! j1 r3 n7 yCodec ID                                 : V_MPEG4/ISO/AVC
. T4 D2 I3 y8 W; f3 RDuration                                 : 2 h 37 min2 E1 |0 g/ \$ z& z6 t" @
Bit rate                                 : 3 635 kb/s0 i4 t, i! L8 f
Width                                    : 1 280 pixels& l' F# ~" s* S& e. P* u
Height                                   : 536 pixels
, ~+ M. v7 f: BDisplay aspect ratio                     : 2.40:1; j0 m" ~5 C( x- S* b- G
Frame rate mode                          : Constant% h- q1 Z5 K2 X
Frame rate                               : 23.976 (24000/1001) FPS
" R* ?. L& K$ o3 ^, I* h% NColor space                              : YUV1 M6 D7 n( ?6 D- w+ A( |
Chroma subsampling                       : 4:2:0) l$ f2 I- X5 r% K# q" C# c
Bit depth                                : 8 bits
7 C! P" O5 }9 I5 q8 i+ TScan type                                : Progressive
" D6 h. U) n5 L/ e( A( o5 Z9 XBits/(Pixel*Frame)                       : 0.2213 e* W8 N; T) z; l5 k* l, b
Stream size                              : 4.01 GiB (84%)( K  G9 Q  ^& Y1 B. c( u# `
Writing library                          : x264 core 164 r3103 941cae6
/ P% q" f5 V4 a# S, z( K# j" bEncoding settings                        : cabac=1 / ref=8 / deblock=1:-3:-3 / analyse=0x3:0x133 / me=umh / subme=9 / psy=1 / psy_rd=1.00:0.00 / mixed_ref=1 / me_range=16 / chroma_me=1 / trellis=2 / 8x8dct=1 / cqm=0 / deadzone=21,11 / fast_pskip=1 / chroma_qp_offset=-2 / threads=17 / lookahead_threads=1 / sliced_threads=0 / nr=0 / decimate=1 / interlaced=0 / bluray_compat=0 / constrained_intra=0 / bframes=3 / b_pyramid=2 / b_adapt=2 / b_bias=0 / direct=3 / weightb=1 / open_gop=0 / weightp=2 / keyint=250 / keyint_min=23 / scenecut=40 / intra_refresh=0 / rc_lookahead=60 / rc=crf / mbtree=1 / crf=14.0 / qcomp=0.60 / qpmin=0 / qpmax=69 / qpstep=4 / ip_ratio=1.40 / aq=1:1.00+ r; x5 r8 x3 z5 |2 Y& e
Default                                  : Yes5 ?7 q; M5 |! `1 @7 x2 Y
Forced                                   : No9 n1 i& B, _$ i/ O

0 B; U; j- \& c! N/ P9 z+ ^5 tAudio
! Z, A) ~- s1 L4 `; D8 dID                                       : 2
& a- Y3 l4 i" g7 x" f8 a; q* N* pFormat                                   : AC-3
; n7 p2 V0 Q& S; LFormat/Info                              : Audio Coding 3( ]7 h) D9 m) C  F' {$ Y! \6 J
Commercial name                          : Dolby Digital- {: N. o- d5 T7 S! z: l: d' x* a& E
Codec ID                                 : A_AC3
9 M! N3 d3 L$ ?; `5 _Duration                                 : 2 h 37 min8 d6 \' j/ S4 o5 f- G
Bit rate mode                            : Constant. B; a( T) K/ F
Bit rate                                 : 640 kb/s: |9 ^9 d+ J' D% X  J" b" D
Channel(s)                               : 6 channels
  u+ _8 d# _5 g7 vChannel layout                           : L R C LFE Ls Rs  ]  a  S$ O3 r5 K  G& T0 Y
Sampling rate                            : 48.0 kHz
5 w6 R5 H  L  n/ qFrame rate                               : 31.250 FPS (1536 SPF)
9 y% `. k( t3 E7 T& ?: aCompression mode                         : Lossy/ m: r! l. V, c/ g
Stream size                              : 723 MiB (15%). X. h. L* v( }' F; A" Z
Language                                 : English
' T2 Y4 s, `. L1 S% g4 m: [9 aService kind                             : Complete Main" C2 Q* H) `: d$ |
Default                                  : Yes9 J: |1 t+ Q$ A7 p2 V2 b; K
Forced                                   : No1 J: a8 P, d  ^- L2 ^. A
/ l% o; G) r3 `: G4 I- U2 h8 ^
Text #1/ P/ S' V; J% A1 d* ~
ID                                       : 35 X2 C+ M9 c, [: e% C2 \
Format                                   : PGS
/ s( o, i& O+ M& G* l, cMuxing mode                              : zlib
/ _0 ]% e6 g! S% z" c0 bCodec ID                                 : S_HDMV/PGS+ A. \! ?! X7 R" q
Codec ID/Info                            : Picture based subtitle format used on BDs/HD-DVDs  f3 Z6 z% q8 s8 a5 w/ P
Duration                                 : 2 h 33 min; X, }: {4 `) y2 g; P, c
Bit rate                                 : 42.7 kb/s
3 @3 H, Y. |& z! RCount of elements                        : 4152' {. r. g0 Q6 j* [& S; e8 q: f
Stream size                              : 47.0 MiB (1%)
4 w% ]6 X  S  _& vTitle                                    : English SDH
4 P8 |- e# F0 O+ ~5 ]Language                                 : English
7 u! h: X0 N1 X! VDefault                                  : No0 J& E3 Z) Z& b. K. k$ c' R5 r) i
Forced                                   : No) k- A7 j* t  q+ }
4 S2 b2 X6 r/ g% u" j' b
Text #2" K! t/ g' y9 Y5 q# w
ID                                       : 4. L0 Z7 P* h, D! M7 F1 Y/ |8 e) T
Format                                   : PGS
: p0 d; ]3 |& F4 k! T; PMuxing mode                              : zlib
2 g. @6 }7 Y! F. `6 @, MCodec ID                                 : S_HDMV/PGS
$ f; X% e  b& XCodec ID/Info                            : Picture based subtitle format used on BDs/HD-DVDs3 e# ]9 X6 X- a% ?) `
Duration                                 : 2 h 37 min
* s& p4 C: c3 y2 vBit rate                                 : 32.8 kb/s1 {0 {' F4 U; C" T' `3 I
Count of elements                        : 3192
9 a/ m5 o, b3 i9 J2 oStream size                              : 36.9 MiB (1%)8 y0 b1 G5 B- P( b. u) m! G
Title                                    : Spanish
1 }/ g% q: ~' X' T& L6 T8 cLanguage                                 : Spanish
* K6 r7 v1 r5 R. d+ y. z- XDefault                                  : No( W1 Y4 r* m6 |" f2 r
Forced                                   : No
. R6 p2 {9 V/ W6 H% @/ K
9 {' O4 r# I1 N$ XText #3
% x5 m; {& M3 _1 b9 h8 {ID                                       : 50 I# K, U# u' F) m
Format                                   : PGS
$ i9 K* {  h& M0 }0 fMuxing mode                              : zlib8 ~8 ]" }+ h9 I+ O7 N
Codec ID                                 : S_HDMV/PGS
1 T0 s! F7 E& ^" r, n( M4 `Codec ID/Info                            : Picture based subtitle format used on BDs/HD-DVDs4 J) u+ d# b& `7 u2 [2 I- d: \
Duration                                 : 2 h 37 min3 X0 w  g/ M: H5 O" N, b6 Q
Bit rate                                 : 35.6 kb/s2 Y/ U/ K* M4 f9 g
Count of elements                        : 3396& A$ a! h0 A0 |: P
Stream size                              : 40.2 MiB (1%)  J% {* P4 `$ @
Title                                    : French1 I& [  E  h1 L7 f/ i  A
Language                                 : French
8 u, p3 v( a" V7 J3 r+ ?4 H6 cDefault                                  : No: W) s: h# M! x7 J5 @
Forced                                   : No8 r' n! t+ i' {% y! z' M9 w
, q) b3 ^- P6 u) V* o% \6 B6 q
Text #4
! s$ ]9 z9 `, {) S5 @1 EID                                       : 6
1 I5 s1 z+ L+ h& EFormat                                   : PGS! A& W/ }/ `# w1 O$ s( j
Muxing mode                              : zlib9 Y" G- V! r" E$ Q% C6 G" X1 K
Codec ID                                 : S_HDMV/PGS5 J: ~, ~' {" c" r3 I
Codec ID/Info                            : Picture based subtitle format used on BDs/HD-DVDs
( O+ G2 g7 {( T' BDuration                                 : 2 h 37 min. f8 x, B5 b/ f
Bit rate                                 : 2 025 b/s
9 a9 C4 I6 N2 RCount of elements                        : 204& ^& }' V  ?& h: l2 p
Stream size                              : 2.28 MiB (0%)& U9 m9 q1 x/ B3 `9 h
Title                                    : Spanish
3 @! @6 |  y" G# ]0 B8 A, kLanguage                                 : Spanish% z. v3 `& P5 m+ m, z
Default                                  : No: a; y- z  m- F! ~
Forced                                   : No& r8 c3 H6 q% k# {: V5 k

8 D# U7 o/ t' D, BText #5
9 g. v4 n3 g1 }ID                                       : 7, l0 r6 l2 o8 @+ x0 Q$ b6 C
Format                                   : PGS% e2 w2 @' p! `3 _: p- I4 M
Muxing mode                              : zlib
% k* x- A% Z" BCodec ID                                 : S_HDMV/PGS$ R2 {) s) N( Z1 m4 l9 b- I
Codec ID/Info                            : Picture based subtitle format used on BDs/HD-DVDs
, e4 E7 h4 w) jDuration                                 : 2 h 37 min9 T4 v2 b0 [9 f, ]9 f" P
Bit rate                                 : 348 b/s
  u( F' r- w3 f" zCount of elements                        : 361 l+ r3 T$ u. b: z7 q! q0 U. N
Stream size                              : 402 KiB (0%)2 Y/ h9 _3 L! z" A7 M1 n0 H" x0 A
Title                                    : French
. E+ p9 K- h% K' Z# RLanguage                                 : French. Z$ d$ E5 E8 S8 P. ~# K
Default                                  : No6 Z7 C. ?" g3 P) `5 E( w2 B
Forced                                   : No
6 t; m8 d, C/ D3 @( a+ k. G% f
" X3 ?0 j! B7 u% MMenu
7 M  `0 f# T& B0 @, n' @# w  Z00:00:00.000                             : en:Chapter 01. U, v/ r* L, Q/ k
00:07:29.908                             : en:Chapter 02
/ \1 `: q$ E' b# O# ?8 D& I00:17:07.151                             : en:Chapter 03& N  B* J% @) `
00:25:12.302                             : en:Chapter 04; Q" \: c! Y7 K
00:35:37.677                             : en:Chapter 05- T. _$ y4 m$ S: V
00:42:15.408                             : en:Chapter 06# x( _7 z$ M2 @8 n6 u5 Y
00:49:56.202                             : en:Chapter 07# s& ]3 |0 S* q' c$ M
00:58:05.440                             : en:Chapter 08
$ I1 {, Q6 I- F, N01:06:35.074                             : en:Chapter 09
, h. L6 a$ ]: Y7 c/ R/ |01:14:31.842                             : en:Chapter 10
  t0 L. R( c7 t" Y5 e% b" f& j# ?01:22:08.006                             : en:Chapter 11, r. a6 d7 P. Y! c, z+ B: A5 n
01:32:25.915                             : en:Chapter 12( k1 R- M/ L; I/ N4 c* ]1 X- E- y, A
01:39:26.085                             : en:Chapter 13
, z: L+ V4 [5 ?0 B& W! H5 U01:48:11.068                             : en:Chapter 14
8 c  Q4 j; W/ k7 [  q' a6 _01:56:48.335                             : en:Chapter 15
# c8 u4 I- N3 r/ G. J+ s02:05:49.125                             : en:Chapter 16; w9 I. w& g5 S' \8 T/ l; y$ p
02:11:24.418                             : en:Chapter 17
& s4 G( E- a0 v  z1 c. G02:19:24.147                             : en:Chapter 183 W2 P6 }* s+ ^2 G5 E  x
02:27:28.214                             : en:Chapter 19; U, }- d  H  c% ^& {2 z$ r
02:34:42.273                             : en:Chapter 20' |# c( f1 j" @/ f0 O* ]1 @# f
02:37:59.220                             : en:Chapter 21
0 v. [# E+ N. N2 ^' B# D9 R# v7 I3 _7 ?1 v8 Y8 W! b
Name: Tar.2022.720p.BluRaycd.x264-PiGNUS 4.78 GB
! I+ m+ O, q* h* p" I1 E9 R# f% M- X/ P& k! e6 o
Release date: 23-12-2022, h& Y( _9 p; V) _; t

8 R/ `( }0 @8 X' L- L9 fIMDB link: https://www.imdb.com/title/tt14444726  Y; H. s0 r: R1 |6 Y" n+ n( A

: S3 i7 ~7 Y, Z! M0 T2 qResolution: 1280x536
3 ]2 H8 p* N9 GAudio: English AC3 6ch 640 kbps7 g% m$ [$ L! U; |* J% l( J
Video: 3635 kbps, CRF 14
: i: _9 u5 C8 Y3 g0 T4 {% ISource: 28849 kbps
- H% f. }, ]: }; u: P# b2 _) p3 m+ F, h
Subtitles: English SDH, Spanish, French

$ m  C1 }7 }- G* Q' D# }8 @% ~
游客,查看本帖隐藏内容请回复 | 加入VIP可免积分免回复 了解详情 | 还不是会员:点击获取邀请码 Invitation Code

本版积分规则

小黑屋|手机版|Archiver|4K蓝光论坛

GMT+8, 2024-3-5 06:49

Copyright © 2001-2021, Gadaddy Cloud.

快速回复 返回顶部 返回列表