BluRayCD Forum

 找回密码
 立即注册【分享大片】
查看: 138|回复: 13
收起左侧

[蓝光原盘] 伸冤人3 [REMUX无损版 自带中字] The Equalizer 3 2023 1080p BluRaycd REMUX AVC TrueHD 7.1 Atmos-Asmo 24.13GB & 25.30GB

[复制链接]

8815

主题

172

回帖

9万

积分

Post Share

金币
2475 枚
体力
27167 点

卓越贡献勋章

黄金嫖客 发表于 2023-11-23 01:54:26 | 显示全部楼层 |阅读模式
Robert McCall finds himself at home in Southern Italy but he discovers his friends are under the control of local crime bosses. As events turn deadly, McCall knows what he has to do: become his friends' protector by taking on the mafia., ?* H0 _' l* T% c

1 e+ P; `, m6 f 01.jpg
& K$ M% n" N( O0 v- u* ^0 d0 h' ^# i4 a% J# \6 q7 G- a; l
◎译  名 伸冤人3/私刑教育3(台)/叛谍裁判3:终极一战(港)
7 ^2 S. ]# t! x  x◎片  名 The Equalizer 3 , y( W8 t1 ~  _  `" M. s4 e# z% s6 t; ^
◎年  代 20239 H+ s5 R) G1 ~. x% D" v! [- h
◎产  地 美国/意大利
! d6 h, o1 X0 o# p1 P3 I/ e◎类  别 动作/惊悚/犯罪) U/ v7 E0 O6 A5 x/ t! k! Z1 C
◎语  言 英语/意大利语3 C, Z. F. A8 o" _
◎上映日期 2023-08-30(意大利)/2023-08-31(中国台湾)/2023-09-01(美国)8 L7 _- U1 R* l: |& E
◎IMDb评分  6.9/10 from 68,128 users
* r, Q6 f4 [1 ~, S6 z, S4 H; [9 b◎IMDb链接  https://www.imdb.com/title/tt17024450/  Z3 m3 b7 N5 A( s$ d$ a4 I! ]
◎豆瓣评分 7.2/10 from 30,018 users+ E4 k5 n3 ~' P9 ?; B4 U* B1 ]
◎豆瓣链接 https://movie.douban.com/subject/35736400/
1 e- S& J$ u& [+ P! B- E0 g& A◎文件格式 x264 + TrueHD 3 R  h% Q0 N1 j4 Q
◎视频尺寸 1920 x 10801 |9 c- J, K; o6 j1 N
◎文件大小 1DVD 24.13 GiB & 25.30 GiB" x* d' I5 A0 i2 \5 X
◎片  长 1 h 48 min: d; A' k4 Y; I# O" V
◎导  演 安东尼·福奎阿 Antoine Fuqua/ m% F% h& y. I2 f) \% z; |
◎编  剧 理查德·温克 Richard Wenk
/ [, h2 v& z7 V/ h0 B  [       迈克尔·斯隆 Michael Sloan
5 m0 Q4 n, Z9 i6 N9 K+ V+ J       理查德·林德海姆 Richard Lindheim
& D2 o" U  X  t5 y# W+ b+ i◎演  员 丹泽尔·华盛顿 Denzel Washington | 饰 Robert McCall$ m; E0 @0 ~& ^* M; y( Y! f4 S
       达科塔·范宁 Dakota Fanning | 饰 Emma Collins
* Q% t& k9 l, S$ g       欧吉尼奥·马斯特兰德雷亚 Eugenio Mastrandrea | 饰 Gio Bonucci
* f" |2 ~  E3 V( U* x- T! i: W1 F       大卫·丹曼 David Denman | 饰 Frank Conroy  _& D7 U& ^, R+ h8 K
       盖亚·斯考达里奥 Gaia Scodellaro | 饰 Aminah
4 H# W7 G9 N' b* j) C7 [       雷莫·吉罗内 Remo Girone | 饰 Enzo Arisio3 X* R2 ~1 [0 v5 z1 D' p
       安德烈·斯卡杜齐奥 Andrea Scarduzio | 饰 Vincent Quaranta2 ?7 f0 b/ {3 t2 O* e, K' C6 J
       安德烈埃·多德罗 Andrea Dodero | 饰 Marco Quaranta
% x" r9 {" k0 y: T1 K2 `1 r       丹尼尔·佩罗内 Daniele Perrone | 饰 Angelo; ^; d' {+ D  G$ F# ?1 ~' ~
       扎卡里亚·哈姆扎 Zakaria Hamza | 饰 Khalid/ A# I0 W: u& c. K1 i/ u
       索尼娅·阿马尔 Sonia Ammar | 饰 Chiara Bonucci5 m4 l) \& }. ~/ `
       尼可洛·森尼 Niccolò Senni | 饰 Stefano9 `! E! t& b7 l( y& i* Q
       布鲁诺·比洛塔 Bruno Bilotta | 饰 Farmer3 G/ S6 t7 I/ @* U
       萨尔瓦多·罗科 Salvatore Ruocco | 饰 Vincent's man Salvatore
& D4 U+ p  \, V, K; w       迪亚·兰扎罗 Dea Lanzaro | 饰 Gabriella Bonucci0 [0 T5 D7 c- O6 K* w
       亚历山德罗·佩斯 Alessandro Pess | 饰 Viking
/ h4 `. P+ b; L       尼科洛·法瓦 Niccolò Fava | 饰 Marco's Thug
1 E/ I9 z( V5 m$ O/ \% O! I       阿德里安·萨布里 Adriano Sabrie | 饰 Vitale's Grandson
7 I' ]1 V0 x5 b) @4 ^; Z. d2 e: B  a       亚历山德罗·泽维尔·德席尔瓦 Alessandro Xavier De Silva | 饰 Marco's Thug
) ~( V( M' e5 t; [7 |4 @* S4 r       玛塔·佐菲利 Marta Zoffoli | 饰 Teacher" w2 w7 M2 ~$ N( C, f! A8 Y+ f
       曼努埃拉·塔西奥蒂 Manuela Tasciotti | 饰 Carmela
# ?- S/ M6 K  W1 |, Q7 R, v! b, R( J; ^       约翰·特罗贝塔 Giovanni Trombetta | 饰 Hard Man at Winery
) l. n3 T" h8 x1 f       丹尼尔·奥纳泰利 Daniele Ornatelli | 饰 News Reporter
4 p0 {  c0 S2 K! c       伊莎贝拉·戴尔·莫纳奇 Isabella Delle Monache | 饰 Trattoria Server* O7 U5 F/ ]& o( Q! j' q
       瓦莱里奥·达·席尔瓦 Valerio Da Silva | 饰 Sicilian Investigator
3 R9 Z5 i* q6 s/ C$ j       詹路易吉·希拉 Gianluigi Scilla | 饰 Hard Man at Winery+ b7 l& e! ^+ X& J' f7 ^
       乔瓦尼·斯科蒂 Giovanni Scotti | 饰 Barista
- t6 O+ p; Y; e) ]) ^/ X- i       马科·朱利安尼 Marco Giuliani | 饰 Evicted Husband
$ E& c- J8 \# M       毛罗·克雷莫尼尼 Mauro Cremonini | 饰 Man in Wheelchair8 E% d1 z( D* E  E* m1 o
       阿尔坎杰罗·扬内斯 Arcangelo Iannace | 饰 Seasoned Carabiniere% H; f& A/ N5 \0 o0 u4 D
       比阿特丽斯·艾洛 Beatrice Aiello | 饰 News Reporter #2" Q4 S7 S7 |& [- a: C, H
       克里斯蒂亚诺·皮塔雷洛 Cristiano Pittarello | 饰 Vincent's Guard* i2 |+ q' J' r/ m6 h( ^! q* d+ i' `
       阿戈斯蒂诺·屈马列洛 Agostino Chiummariello | 饰 Bride's Father
3 o3 B# b9 h* E/ w( ~       玛丽亚·罗萨里亚·明吉奥内 Mariarosaria Mingione | 饰 Bride
2 U4 s* x9 f& p& U$ s  u9 ]. o8 E  P4 f/ e       马科·西卡莱丝 Marco Cicalese | 饰 Groom
6 \! b0 o0 D9 q& X       迭戈·里亚斯 Diego Riace | 饰 Monster$ E. s8 }" o5 j! g
% j$ I. L1 t  R
◎简  介 : T# r- v& L. c
! r: _6 P/ N9 s& y5 p) P- s
  退休特工兼私人侦探罗伯特·麦考尔(丹泽尔·华盛顿 饰)大杀四方为复仇之路写下最后一章。他放弃了为政府担任杀手的生活,并一直在努力调解过去所做的可怕之事,在代表被压迫者伸张正义时,他的内心找到了一种奇怪的慰藉。在意大利南部,罗伯特发现他的新朋友被犯罪头目控制了,随着事件变得致命起来,罗伯特知道自己必须与黑手党交手,以保护朋友安全。
% Z% z2 H. f, U
% `8 G$ {3 E2 [7 k% |' K4 m, x, u& i  Since giving up his life as a government assassin, Robert McCall has struggled to reconcile the horrific things he’s done in the past and finds a strange solace in serving justice on behalf of the oppressed. Finding himself surprisingly at home in Southern Italy, he discovers his new friends are under the control of local crime bosses. As events turn deadly, McCall knows what he has to do: become his friends’ protector by taking on the mafia.
. L  n, ^5 ^% r' Q% i! _) _4 g6 V" F4 X8 X0 o. T
The.Equalizer.3.2023.1080p.BluRayCD.REMUX.AVC.TrueHD.7.1.Atmos-Asmo 24.13 GB
* A$ Q  F; b. H- _% [
, d& U2 a7 G, e! s3 dVideo
! m0 \; D; w/ ?1 n7 i3 cID                                       : 14 v. ?) I' i4 q, b7 R
Format                                   : AVC2 u3 c' V8 ]' {# D+ J% c$ `
Format/Info                              : Advanced Video Codec
# O9 W4 e$ A0 |) ZFormat profile                           : High@L4.15 M4 B& U& \2 h+ O  D' d
Format settings                          : CABAC / 2 Ref Frames
% L4 Z; K% R& z( a0 B: }5 }) f# rFormat settings, CABAC                   : Yes
5 L9 T& ]7 o+ K- w5 p9 cFormat settings, Reference frames        : 2 frames
- {+ n6 V/ f, t) m" p/ ^! C2 ^Codec ID                                 : V_MPEG4/ISO/AVC
2 T% F6 U% h0 l/ J4 wDuration                                 : 1 h 48 min# d* U& u( h2 c4 K! a, k% f
Bit rate mode                            : Variable3 D( E# _! _' G8 A) X
Bit rate                                 : 27.8 Mb/s: S! _1 x" T, |# u. P2 i6 `7 C( [! D
Width                                    : 1 920 pixels
0 P' b9 O# k  E% B- s, rHeight                                   : 1 080 pixels
( k) [0 f+ h& @' }5 T1 o3 g  v/ _Display aspect ratio                     : 16:9# M2 S* F* a. I! \
Frame rate mode                          : Constant
  J5 z$ O( \. W) B- Q+ SFrame rate                               : 23.976 (24000/1001) FPS7 v/ B: }) l+ n; m2 V
Color space                              : YUV
$ I  h& L$ X& Y# ?- dChroma subsampling                       : 4:2:08 a) z& I0 Y4 X# m
Bit depth                                : 8 bits
' h+ V0 _2 ?0 O( o$ f! H$ KScan type                                : Progressive
0 U  @, W) N7 I9 ]Bits/(Pixel*Frame)                       : 0.559% ?: F( y" ^, {7 S3 S% i' C
Stream size                              : 21.2 GiB (88%)1 n. q3 v- N2 Q/ ]3 u; Z
Language                                 : English
& T; k; n9 p6 aDefault                                  : Yes
0 [9 Z' Q5 O$ v8 A" M7 o; ^' tForced                                   : No
: q& l; A% V8 h, k( g# Y- U8 x& m
3 l! K) f* ~2 s4 I) L- B$ OAudio+ `- \; d/ Z; c( E7 B! k
ID                                       : 27 q, v/ T' J5 N/ e' [
Format                                   : MLP FBA 16-ch* W2 X( H: b9 j' k( Q8 C" B& n
Format/Info                              : Meridian Lossless Packing FBA with 16-channel presentation
- W$ _' M$ H$ i9 i) n' H6 R4 VCommercial name                          : Dolby TrueHD with Dolby Atmos% \" c  }6 n& m5 g: o2 E3 e, d- g) n
Codec ID                                 : A_TRUEHD
& ?' D0 V( @2 D4 W) n) h: z9 Y# mDuration                                 : 1 h 48 min4 \. N6 E! U, Y! |) j# O
Bit rate mode                            : Variable
; \- M* {, V. @$ \Bit rate                                 : 3 827 kb/s# p% a6 r  p( Z5 i  _# c
Maximum bit rate                         : 6 783 kb/s
8 [$ P2 I- g0 D% I( @+ L. h/ ~Channel(s)                               : 8 channels7 z7 P8 B# q7 L+ n/ D7 o+ Y) z
Channel layout                           : L R C LFE Ls Rs Lb Rb% y+ c. c) I' N. e  v  w" l
Sampling rate                            : 48.0 kHz! E) u3 \6 c8 O  L- b
Frame rate                               : 1 200.000 FPS (40 SPF)
6 W! ^5 y8 E% t( pCompression mode                         : Lossless0 b" P6 G5 T7 ~7 K( [  X
Stream size                              : 2.91 GiB (12%)0 q7 j& Q6 [# f1 E3 V
Language                                 : English
! Q5 m4 Z" ~3 G# i/ MDefault                                  : Yes: ?3 a& s$ |- j
Forced                                   : No
7 e  Z# n8 t- E6 p! K& @Number of dynamic objects                : 11+ G7 z  h: ^) T8 W+ ~# o
Bed channel count                        : 1 channel& V& I+ v" ?9 f8 i
Bed channel configuration                : LFE3 A: [6 d& a. ?; ~) r, o1 e
7 `7 ^6 p& b1 Z3 ^
Text #1
2 m0 w* d7 ]0 l9 ZID                                       : 3' f: [, ~# @4 d' Y  p9 |" u
Format                                   : UTF-8
, G1 o" t% F( |+ S# F* XCodec ID                                 : S_TEXT/UTF8& L% L  I' K6 J
Codec ID/Info                            : UTF-8 Plain Text
8 ~3 a% |- O  R1 k) @$ {# ODuration                                 : 1 h 47 min" q5 ]. U6 G% A9 ^5 m* i7 G  N
Bit rate                                 : 28 b/s/ ]6 Q$ B5 L4 @2 d7 x; _
Count of elements                        : 8784 ~; f# [9 F( M% q0 a. U* O
Stream size                              : 22.6 KiB (0%)
" t" {5 S, k( e7 I' [9 D6 ~& kLanguage                                 : Polish/ x* _+ [6 d, k6 i
Default                                  : No: q  D% _' W' n4 ~6 G
Forced                                   : No
# n- n! J/ s) h" Q3 u3 X& i6 Q+ @. l' E* |1 M0 I
Text #2
6 ~9 q+ V8 x4 j4 n# dID                                       : 49 W) v8 E( u" I6 a3 c% z0 d
Format                                   : UTF-8  C+ a1 ^  F- I  \! @
Codec ID                                 : S_TEXT/UTF8
" e% H! ~8 h4 ]- s' _+ ~% @Codec ID/Info                            : UTF-8 Plain Text
+ k1 K7 `/ E. c$ R6 bDuration                                 : 1 h 44 min
( _$ i5 K) e' B4 J7 gBit rate                                 : 34 b/s! M) g7 \$ y* I( I) x9 m
Count of elements                        : 9577 S0 C* E% H$ M. ]# b$ x
Stream size                              : 26.4 KiB (0%)! a- k& q$ n5 z$ r
Language                                 : English
1 M" _7 ~- [5 W+ a# l, q- q; K5 XDefault                                  : No! V" l% p1 `% T) V' q' Y5 A- A
Forced                                   : No
  1. The.Equalizer.3.2023.1080p.BluRaycd.REMUX.AVC.TrueHD.Atmos.7.1-BluRayCD 25.30 GB
    " _9 X8 W/ L( c) l; r" U
  2. 2 X1 g; H0 m8 W, H' m% v2 u$ E" Y
  3. Video:
    9 _9 s0 }& ~% y* K# Q
  4. Codec= MPEG-4 AVC
    ; C% C  m' d: r6 e$ g
  5. Average Bitrate: (28 Mbps): i* C  p, W( [6 E

  6. " C5 k; k' C/ k* D
  7. Audio:
    1 o3 C" m+ u5 n3 K
  8. Track#1 - English Dolby TrueHD Atmos 7.1; T& ]7 d& w# Z9 K! P% P4 U
  9. Track#2 - English Dolby Digital Plus (E-AC3) 7.1 *Compatibility Track*
    7 ]& T6 A1 b2 O% y, D  |8 [
  10. & Z/ P* f' t, t7 o) h: V1 _5 U
  11. Subtitles: English, Chinese, Danish, Dutch, Finnish, French, German, Italian, Japanese, Korean, Norwegian, Polish, Portuguese, Russian, Spanish, Swedish
    1 {* S/ _7 J! q, S! l+ v
  12. " S6 W* I: F( K7 N0 }, P  K. A
  13. Runtime: 1hr 48mins
    6 z% q. x( R2 g% e
  14.   m) G+ ~5 k0 c! Y; L, h  T; S
  15. Please do your best to help Seed so I can bring you more! Thank you... Enjoy!
复制代码

  g7 D. M4 i* e* L8 O$ i. Q
游客,查看本帖隐藏内容请回复 | 加入VIP可免积分免回复 了解详情 | 还不是会员:点击获取邀请码 Invitation Code

0

主题

368

回帖

1905

积分

知名人士

金币
519 枚
体力
594 点
huayoujing 发表于 2023-12-10 15:51:52 | 显示全部楼层
每天都来蓝光论坛看看,我爱蓝光电影。
6 N6 w8 m$ \$ M; G8 n要想蓝光电影论坛发展好,资源多,就靠你我他!To the development of Blu-ray movies forum, resources and more depend on you and me!

2

主题

889

回帖

5513

积分

Sponsor

金币
465 枚
体力
3313 点
QQ
ccfys888 发表于 2023-11-25 09:42:49 | 显示全部楼层
每天都来蓝光论坛看看,我爱蓝光电影。
# e9 A5 ~' t+ C5 lBluraycd.com movie updates really fast, also did not release issued, whether you believe it or not, anyway, I believed!

0

主题

1439

回帖

5431

积分

Sponsor

金币
262 枚
体力
2283 点
lfvvzc 发表于 2023-11-29 18:20:19 | 显示全部楼层
啥也不说了,楼主就是给力!
# t1 c' K& m3 ~The decisive Replies sink is I get the sinking feeling great sense of accomplishment!
- ]* b- T$ }1 H+ m3 P

0

主题

305

回帖

1399

积分

Sponsor

金币
0 枚
体力
823 点
oliceo 发表于 2023-11-23 16:05:21 | 显示全部楼层

3 [' m  |* r# a" c每天都来蓝光论坛看看,我爱蓝光电影。# l

0

主题

767

回帖

3454

积分

Sponsor

金币
36 枚
体力
1950 点
QQ
sunday_119 发表于 2023-11-24 08:40:21 | 显示全部楼层
沙发是抢的而不是占的!( r6 b" c, A2 C8 B1 x! X1 F9 \
Blu-ray Film Forum: I will always support you!
+ u' K0 p" x' _/ M5 n

0

主题

252

回帖

973

积分

Sponsor

金币
99 枚
体力
397 点
haijijn_y 发表于 2023-11-24 19:02:39 | 显示全部楼层
顶起 顶起 丹书神剧

0

主题

218

回帖

1590

积分

Sponsor

金币
81 枚
体力
906 点
quicken 发表于 2023-11-24 21:26:42 | 显示全部楼层
非常好,第三季终于来了

0

主题

61

回帖

373

积分

Sponsor

金币
35 枚
体力
209 点
lzslyb0609 发表于 2023-11-27 09:48:11 | 显示全部楼层
6 j2 ], E5 B& T$ x3 I5 q
顶起 顶起 丹书神剧

27

主题

585

回帖

4791

积分

Sponsor

金币
59 枚
体力
3398 点
wyyo 发表于 2023-11-27 10:47:20 | 显示全部楼层
每天都来蓝光论坛看看,我爱蓝光电影。& P& @) I# ?+ m  R
Your resources, well, I am very satisfied!
8 W: |' t& p' `$ _" Z, C* v

本版积分规则

小黑屋|手机版|Archiver|4K蓝光论坛

GMT+8, 2024-3-2 22:38

Copyright © 2001-2021, Gadaddy Cloud.

快速回复 返回顶部 返回列表