BluRayCD Forum

 找回密码
 立即注册【分享大片】
查看: 14|回复: 1
收起左侧

[蓝光原盘] 魔由心生2/邪魔再生 [REMUX无损版] The Terror Within 2 1990 1080p BluRaycd REMUX AVC DTS-HD MA 2.0 DDP5.1 CUSTOM-Asmo 18.49GB

[复制链接]

9152

主题

172

回帖

9万

积分

Post Share

金币
3036 枚
体力
28084 点

卓越贡献勋章

黄金嫖客 发表于 2024-6-8 02:39:10 | 显示全部楼层 |阅读模式
In a post-apocalyptic world full of terrifying mutants known as gargoyles, survivors of the last human colony battles against intruding gargoyles a few miles below the Earth's surface.; r4 L# R, f( W+ k7 h: V, K

( k( o8 H  z! A8 | 1.jpg
% G5 P* j' b: t# a4 B4 |" R9 h1 ^0 H. G% Y) H8 W! W
◎译  名 魔由心生2/邪魔再生 & Q) l# e# h* u- S" a
◎片  名 Terror Within 2 / The Terror Within 22 P; Q( Q0 `; I; I1 q5 I
◎年  代 1991
. J- S4 M2 E" f6 |9 w% b* J8 U# W◎产  地 美国
* i+ j; V% Y0 p1 T" [◎类  别 动作/科幻/恐怖
. [; s$ K+ ]5 u7 y) M◎语  言 英语
. Y# T4 B- B* l5 l; n0 o& I◎上映日期 1991-01-25(美国)
7 y1 |, i+ u3 ]% |◎IMDb评分  4.2/10 from 813 users- [4 ~/ T( z: J) r2 O) B
◎IMDb链接  https://www.imdb.com/title/tt0100765/
- O! M% w; O1 Z& e5 H# M& F  D5 s◎豆瓣评分 0/10 from 0 users  i* _, U5 r0 W9 a
◎豆瓣链接 https://movie.douban.com/subject/3882402/5 m" m) \; m. H( M8 \
◎文件格式 x264 + DTS
7 q/ z( D5 y( Z$ H6 M2 a6 G* @◎视频尺寸 1920 x 1080, j9 y. m! s  m# b6 c# @8 [, O; p: b
◎文件大小 1DVD 18.49 GiB+ |. U7 o# E# g0 O0 E0 m
◎片  长 1 h 24 min+ g+ F( P+ X' b& x5 y3 X
◎导  演 安德鲁 史蒂文斯 Andrew Stevens
/ ^+ S+ j0 p9 J3 m9 s◎编  剧 Thomas McKelvey Cleaver; S# _& K0 _2 m: }% X* M
       安德鲁 史蒂文斯 Andrew Stevens; f4 R" n- i. z
◎主  演 安德鲁 史蒂文斯 Andrew Stevens& Y  X# A* W) a# @. q
       斯黛拉·斯蒂文斯 Stella Stevens
# Z; X+ V, X3 {7 ]" I8 H3 {6 D' Z" V       奇克·文纳拉 Chick Vennera' r+ k/ Q( O4 i& g
       李·厄米 R. Lee Ermey# \; c0 w* d" j, Y7 j
       芭芭拉·阿琳·伍兹 Barbara Alyn Woods4 G7 U) o2 Q3 ~! t% w0 H
       伯顿·吉列姆 Burton Gilliam
) Q1 d: C$ h8 L( `, @) z. ]       Clare Hoak: J4 O8 S, Z+ ], m- {/ ?: p
       Larry Gilman+ L( T  r( Q# \6 h' E
       Renée Jones
' R7 N( |% C' @. O7 p       Lou Beatty Jr.
9 J$ Y! I' }; n0 I5 v- l
9 k" ^9 s% z' K. C: i, O◎简  介   5 v7 _6 F, S2 ^  b. g! f" x

& r/ t" j' r! D8 r" B$ \0 J2 l  在一个疯狂的世界里,最后一个人类群体生存斗争的地下,在一地的噩梦般的突变谁寻求摧毁他们。但是当人类最后的堡垒内的突变打破后,人类的殖民地的战斗就在地球表面之下,人类的殖民地,在其致命的侵略者之下。  ?. b, I; @3 F2 u6 E

/ D. p2 o" k/ J+ X4 c  In a world gone mad, the last human colony struggles to survive underground, beneath a land of nightmarish mutants who seek to destroy them. But when the mutants break inside humanity's final stronghold, the battle for survival pits the human colonists against their deadly invaders miles below the earth's surface.
7 k& a/ I1 ^# E$ T( j
The.Terror.Within.2.1990.1080p.BluRayCD.REMUX.AVC.DTS-HD.MA.2.0.DDP5.1.CUSTOM-Asmo
8 Y1 _# R( z  H; b# T2 u# U% E7 s4 T0 N' w
Video& A2 D! S5 D$ \, {8 T7 x: x
ID                                       : 1
( _# q; m1 _2 P5 XFormat                                   : AVC
9 ^/ x% ]- H8 D5 h) fFormat/Info                              : Advanced Video Codec
3 @; l+ ^8 I$ sFormat profile                           : High@L4.17 ^* t4 h' {6 ]0 C: ^' M2 `
Format settings                          : CABAC / 3 Ref Frames/ C* P7 Z# a- A) u
Format settings, CABAC                   : Yes
& A2 X* V$ \, Y: V  L" W% \Format settings, Reference frames        : 3 frames9 u3 O& x) Q( g( p+ S0 Y4 t  N" \
Format settings, GOP                     : M=3, N=12: M7 \6 N" G# t
Codec ID                                 : V_MPEG4/ISO/AVC0 A2 U1 n. ^% ~" M+ ]
Duration                                 : 1 h 24 min
  p/ o# A8 u, R& e- ABit rate mode                            : Variable
' s  i4 N; W" S) X( P4 HBit rate                                 : 28.4 Mb/s4 @, _& `( P" m1 t5 l$ |+ y+ Q5 o8 h
Maximum bit rate                         : 33.4 Mb/s
) ]9 X' o* R# N# u2 TWidth                                    : 1 920 pixels
( _- `5 `+ q% DHeight                                   : 1 080 pixels- U8 r( y9 [! y& i$ w+ W  Z
Display aspect ratio                     : 16:9
3 n+ ~1 |+ t7 |( r2 n, ~) `2 aFrame rate mode                          : Constant0 R& K) d9 b- `
Frame rate                               : 23.976 (24000/1001) FPS: R+ I& B% J7 \
Standard                                 : NTSC
# x' U  h3 k$ O0 C0 d* qColor space                              : YUV
) z, P( c: \* N9 u, @; s( G  [Chroma subsampling                       : 4:2:0
, ?  s1 h; z8 s. I8 `! c2 y; IBit depth                                : 8 bits4 l& }; ~  l9 ~6 N/ @5 l. l5 {' ?
Scan type                                : Progressive
4 F2 E. [; l  b9 ^, K2 CBits/(Pixel*Frame)                       : 0.571
. D# z" k0 V2 P8 W8 m! w8 qStream size                              : 16.8 GiB (91%)
: K0 m/ g/ _9 T# X; _1 ULanguage                                 : English
) Q( O: K; ~" H5 b3 ]/ S5 _$ UDefault                                  : Yes
& b' }2 ^8 V+ q6 ?3 YForced                                   : No
4 n+ W4 @; `8 d: }! f2 b" c* V0 Y* @Color range                              : Limited
; U/ Z) x. z5 qColor primaries                          : BT.709
% s1 F1 |" M8 j! t' X( J  ?( [Transfer characteristics                 : BT.709; V3 A. a! V, \) X
Matrix coefficients                      : BT.709, T6 o7 E+ e) ], b; P

+ b4 m  |- S0 J; L- Z7 iAudio #11 z6 F" x# G. N+ ?/ W
ID                                       : 2; d- d0 ~& x' s: I$ Q2 s8 I: ?
Format                                   : DTS XLL/ ~1 f1 l7 Z" K% ]! X
Format/Info                              : Digital Theater Systems' h: {% j& [+ b# j5 _" _3 Q
Commercial name                          : DTS-HD Master Audio7 l. U  B* h& H( i1 T7 r
Codec ID                                 : A_DTS  d. i. K( H' w$ e+ s
Duration                                 : 1 h 24 min% t* O7 ^* {( C3 j' ]1 F
Bit rate mode                            : Variable2 a8 }! h/ L6 U
Bit rate                                 : 1 743 kb/s7 o0 }8 ^! J3 _) G% {( H& |7 G
Channel(s)                               : 2 channels- c" b$ g. g* f5 S1 l
Channel layout                           : L R" S3 ^7 N: n% a& k3 z
Sampling rate                            : 48.0 kHz
4 Z9 E! x; s$ w  U( r) XFrame rate                               : 93.750 FPS (512 SPF); x$ }9 Y2 Z) p% i6 N+ O
Bit depth                                : 24 bits1 e% E0 X  e# k* l
Compression mode                         : Lossless
$ v- e" ~$ b: T' ~; B" o7 `Stream size                              : 1.03 GiB (6%)
9 V. r1 m0 ~, Q- O+ iTitle                                    : DTS 2.0: Q2 j9 U9 A; A- S' B* j$ ]' F
Language                                 : English  f9 C: ~6 }9 O7 }" v' A. [; p4 B
Default                                  : Yes
0 i% p% V- }$ x2 q+ ^Forced                                   : No. A% y" m- u& v0 w& B8 e

* Y% J0 b. n+ i& }9 EAudio #2
, t  H' K# I0 ~4 E7 A# P5 G6 HID                                       : 3
. C4 T( H: D. }% FFormat                                   : E-AC-33 [+ K+ a* [% \2 m
Format/Info                              : Enhanced AC-34 g" C( H8 _9 \! J$ }% W1 N9 @) {: b$ B
Commercial name                          : Dolby Digital Plus' O: U) j; x" |7 I" l- \( _. B8 g
Codec ID                                 : A_EAC3
5 x$ B8 ]) g  h. \6 KDuration                                 : 1 h 24 min. U% \, K7 M3 t; q5 F
Bit rate mode                            : Constant  h/ l1 G7 C. {5 f
Bit rate                                 : 768 kb/s
; R! I, ]! G4 R6 H1 o+ |Channel(s)                               : 6 channels& q& N% J  Q% k
Channel layout                           : L R C LFE Ls Rs
. E, y( }! X! ~. m; A- s% oSampling rate                            : 48.0 kHz
- a+ y4 l3 Y' s5 wFrame rate                               : 31.250 FPS (1536 SPF)- h# G" K- B) O# V5 y3 H, v! a$ b
Compression mode                         : Lossy
. S* }; M& F, g' R3 y3 wStream size                              : 466 MiB (2%)8 B( b4 d1 {1 y, u, t
Title                                    : DDP 5.1 Custom# l2 t5 I) a" e
Language                                 : English
+ j, N2 Q  u! HService kind                             : Complete Main+ D: z6 i5 @4 c$ b' s7 t  F! c/ B: f
Default                                  : No. N4 w/ K. E! ^
Forced                                   : No, n; m1 `0 `  E- c
1 }* o" R  x+ r
Audio #3
3 j1 P6 l- \: P$ Q7 Y9 H2 ~! Y! t3 RID                                       : 4. b; o- k2 H3 N- p! @0 `2 t# p' y
Format                                   : AC-3. l. U. h$ @, O8 m! ?
Format/Info                              : Audio Coding 3
+ L7 E0 b' N2 L- s+ K, yCommercial name                          : Dolby Digital
: T' N7 W/ Q! U# P1 @$ ICodec ID                                 : A_AC3* H1 l/ L/ I' ]; p! A5 ^( D
Duration                                 : 1 h 24 min' l- Y5 C- E  M9 U% ?; f- U
Bit rate mode                            : Constant
* a  |! ^. i6 @) z, MBit rate                                 : 192 kb/s
4 k4 I' ^& C' q/ I1 aChannel(s)                               : 2 channels
3 P, I% O4 v( a5 N- {1 LChannel layout                           : L R# B" C; T6 F# n4 ]9 F5 R/ b
Sampling rate                            : 48.0 kHz
+ B9 L9 Z! ~" ~# EFrame rate                               : 31.250 FPS (1536 SPF)+ f" T% \5 Z3 A2 E  V% v. ]5 V
Compression mode                         : Lossy  `8 y2 `9 a. a9 J2 S, t
Stream size                              : 117 MiB (1%)
' L9 L5 t2 n2 [- Y' oLanguage                                 : Russian0 ?8 W) M; F7 V5 T
Service kind                             : Complete Main
/ |' x5 e% C) |( R( k. ^Default                                  : No
3 ]$ N% q9 c) X9 U0 d# ]Forced                                   : No+ i$ _1 j1 e' K2 [3 R8 b

2 G# e+ K: y/ a  \Text #1
9 o' ^: S, D) zID                                       : 5
" Z! N; P$ R  Z& Y* a) {; cFormat                                   : PGS2 _! _6 ~1 v* g7 `
Muxing mode                              : zlib
6 {- W( S# T9 i; w( d  jCodec ID                                 : S_HDMV/PGS6 G$ i& t$ P! X2 A
Codec ID/Info                            : Picture based subtitle format used on BDs/HD-DVDs2 j* a) m- `" e% H% O- W
Duration                                 : 1 h 21 min
3 A0 |7 y5 f0 `7 xBit rate                                 : 30.7 kb/s
& ^( P! D/ L% c1 c8 VCount of elements                        : 10963 F. h# J$ n8 |6 {1 u! Z1 l5 B  X# k+ a
Stream size                              : 17.8 MiB (0%)
& e) ?! t1 P- W3 j& I9 Z* ?+ S0 CLanguage                                 : Dutch
( I9 \- J4 [- O, G/ g3 yDefault                                  : No9 ]: V8 ?7 r2 p+ S
Forced                                   : No$ O; q/ a# _7 _- ^

2 W- d9 H& W2 ?; ^- }- {: t( X6 ZText #2. f+ `0 h$ y2 y( [! U; ^  B
ID                                       : 6+ ~6 Z, e: |1 t  ]/ t5 ]1 F% p
Format                                   : PGS/ h0 j* A- t6 Q( L7 j6 Z
Muxing mode                              : zlib
0 P7 T7 V" ]. v# f8 `( e7 gCodec ID                                 : S_HDMV/PGS* B; n! c% ^" n. y
Codec ID/Info                            : Picture based subtitle format used on BDs/HD-DVDs) W4 R5 U) M- n
Duration                                 : 1 h 18 min* A5 B7 c& r1 x5 y" S
Bit rate                                 : 46.7 kb/s
  l, |$ L" m: _! Q5 Z* uCount of elements                        : 2056$ R+ z3 `% M, A% P$ L! p
Stream size                              : 26.3 MiB (0%)8 y4 f% H8 q3 a
Language                                 : English3 \5 I% o6 F& b; p; N
Default                                  : No
: Z1 B6 N: r+ B2 ?- A3 N& b# dForced                                   : No
( h* p- }; \& m" }  l6 \
7 D! |- T" P3 @9 L; a+ }Text #33 q6 D: Y' w/ `+ F3 r) R$ V, I
ID                                       : 7, M, G) M" p4 j0 V; e- U
Format                                   : PGS
0 O/ ?  D9 [* b( J& q9 k/ y! \$ TMuxing mode                              : zlib
: k! t& D) B5 b- F1 E% v/ gCodec ID                                 : S_HDMV/PGS
* h- V+ c" P; [2 a5 }7 MCodec ID/Info                            : Picture based subtitle format used on BDs/HD-DVDs7 P2 x4 d2 I' P; E
Duration                                 : 1 h 21 min/ |& m+ A2 }2 C& W/ U% i! G
Bit rate                                 : 43.2 kb/s
8 [; {8 X: }. I3 Z0 B. tCount of elements                        : 1510# x5 }! R3 V* R' p7 h% n' k4 [' a
Stream size                              : 25.1 MiB (0%)% z" x# Q1 e8 w+ p5 K* m
Language                                 : Hungarian+ R9 B1 N3 E( a1 l4 h- Z9 C8 v9 a
Default                                  : No
  [0 p* y# W- f5 p! w- jForced                                   : No& i9 e! k6 T7 r7 J" H

' `7 @) A6 O& B$ m8 O/ N8 C7 rText #40 E7 Y+ m$ J3 f% e" ?- p' w; b
ID                                       : 8
1 x% e$ K- `- S( F: yFormat                                   : PGS
- m3 e: ?) W# I# u$ Z6 w. DMuxing mode                              : zlib8 s9 ?5 F7 u( [' a: P  o
Codec ID                                 : S_HDMV/PGS
7 i, B4 W0 {, N3 `6 HCodec ID/Info                            : Picture based subtitle format used on BDs/HD-DVDs* v% g9 }4 e( s: b* h% w
Duration                                 : 1 h 21 min, w) r/ i7 [! @) F* H% x% T" ?
Bit rate                                 : 40.6 kb/s/ i; z7 w* K4 u
Count of elements                        : 1572/ y% s6 w8 [( l9 i# O5 Z. a9 ^4 k
Stream size                              : 23.5 MiB (0%)
" G! D2 X: }. s2 n0 }- y7 ~Language                                 : Serbian8 m) @. f* P0 B4 ]2 p
Default                                  : No9 k' h3 c9 m# {+ G7 o
Forced                                   : No

% p+ u  `% _2 v; R% c& E( l  c6 G' e
游客,查看本帖隐藏内容请回复 | 加入VIP可免积分免回复 了解详情 | 还不是会员:点击获取邀请码 Invitation Code

31

主题

4222

回帖

2万

积分

Sponsor

金币
3171 枚
体力
10208 点
QQ
shiji1973 发表于 2024-6-9 09:31:27 | 显示全部楼层
看完了帖没事做我还是淘帖吧!
1 O6 I) S" [' j  u祝愿蓝光社区越办越好!I wish Blu-ray communities better and better!
: a" N: V: P  P+ s* t6 F+ ?4 ~

本版积分规则

小黑屋|手机版|Archiver|4K蓝光论坛

GMT+8, 2024-6-21 10:09

Copyright © 2001-2021, Gadaddy Cloud.

快速回复 返回顶部 返回列表