BluRayCD Forum

 找回密码
 立即注册【分享大片】
查看: 9|回复: 0
收起左侧

[科幻恐怖] 魔由心生2/邪魔再生 The Terror Within II 1991 1080p BluRaycd x264 DTS-FGT 7.55GB

[复制链接]

1万

主题

387

回帖

13万

积分

Post Share

金币
4477 枚
体力
33166 点

卓越贡献勋章VIP蓝光勋章诚信会员勋章

mvods 发表于 2024-6-15 02:26:36 | 显示全部楼层 |阅读模式
) I4 _) M, ]9 z) T- C

5 Y$ _3 O; S5 |, U' S- m( D◎译  名 魔由心生2/邪魔再生
  `0 A$ S& [! H◎片  名 Terror Within 2 / The Terror Within 2
1 i# n7 C! }- ?) z% |+ ~◎年  代 1991
' H0 Z3 o8 a6 p( J" }& u0 q◎产  地 美国; z/ M8 A# P, S1 s
◎类  别 动作/科幻/恐怖% L8 p) ?' p3 Y1 g8 [/ a
◎语  言 英语
6 m# q* i6 D' w4 t◎上映日期 1991-01-25(美国)% x5 M9 T6 U% {0 I" U; W5 S; h$ @
◎IMDb评分  4.2/10 from 816 users
6 j2 P8 H3 G! R1 \2 W◎IMDb链接  https://www.imdb.com/title/tt0100765/) T; N% N5 Y1 s% W7 f! r4 R( E3 I
◎豆瓣评分 0/10 from 0 users
5 F( m  h6 g. Z# w7 W1 c% O2 Z◎豆瓣链接 https://movie.douban.com/subject/3882402/3 [8 q2 D" M8 u' s
◎片  长 1 h 24 min
- b3 D+ i5 j$ K9 i7 U◎导  演 安德鲁 史蒂文斯 Andrew Stevens( @; k, }% r' A  M
◎编  剧 Thomas McKelvey Cleaver
/ Z7 x6 E4 D0 t/ n* H       安德鲁 史蒂文斯 Andrew Stevens
" N1 _( L* n$ l; |3 W◎主  演 安德鲁 史蒂文斯 Andrew Stevens
+ T- U9 p7 S1 K) O6 h2 K# O* W       斯黛拉·斯蒂文斯 Stella Stevens) Y6 f. y+ ?$ p* B3 w& x( Y
       奇克·文纳拉 Chick Vennera! K/ R) T; b$ }9 W6 T$ |
       李·厄米 R. Lee Ermey
" F' ^' p. O& o& z       芭芭拉·阿琳·伍兹 Barbara Alyn Woods
+ u( P9 m* V6 A$ j8 V       伯顿·吉列姆 Burton Gilliam7 ]) g- P! k  n$ S. z: W& K
       Clare Hoak
# Z4 w0 G7 V# @8 B& `       Larry Gilman
, u! y$ x3 K/ D# R9 x+ c       Renée Jones% w/ ^. V+ F5 r; ?8 C+ a
       Lou Beatty Jr.
# L  I0 G7 r" l% n2 I2 u: U% Q/ u5 S
◎简  介   
. e! s- \: j) P: l0 f' h" o) U8 \  |4 D  {8 E
  在一个疯狂的世界里,最后一个人类群体生存斗争的地下,在一地的噩梦般的突变谁寻求摧毁他们。但是当人类最后的堡垒内的突变打破后,人类的殖民地的战斗就在地球表面之下,人类的殖民地,在其致命的侵略者之下。7 m" x  s/ A2 c

; z" ]5 L/ Y* e- @  In a post-apocalyptic world full of terrifying mutants known as gargoyles, survivors of the last human colony battles against intruding gargoyles a few miles below the Earth's surface.
3 F) a- l6 z! Q( @
The.Terror.Within.II.1991.1080p.BluRayCD.x264.DTS-FGT 7.55 GB
' O7 g/ n, H& q
- a5 ?4 B5 [/ k4 t% Q, xVideo
+ \( f4 {3 k( i% ]ID                                       : 1
; Y' P0 u7 a" N) [4 }0 }& bFormat                                   : AVC' v( b$ f0 O# s0 k) S5 q$ E8 j
Format/Info                              : Advanced Video Codec
1 F% S, z# d7 }& i' x7 g8 AFormat profile                           : [email protected]$ o4 N! V: b0 d9 @) _
Format settings, CABAC                   : Yes4 s3 g3 J2 r& f: V6 R; x" J0 v
Format settings, ReFrames                : 4 frames2 B+ P; X' a; w1 U9 @- j7 G& F+ S. V
Codec ID                                 : V_MPEG4/ISO/AVC
# S, q7 y0 Q  q, a8 hDuration                                 : 1h 24mn  r9 ^4 P, R7 t" E4 f0 P7 P
Bit rate                                 : 11.5 Mbps
; m6 {& u% Z; B* j1 ^- U4 c6 eWidth                                    : 1 920 pixels
, t/ o6 w- H, Z3 q2 q% v# S" LHeight                                   : 1 080 pixels2 s1 W: c$ K$ A: x9 x
Display aspect ratio                     : 16:9* a) I5 t+ N3 p9 e
Frame rate mode                          : Constant
$ S. |: e( a8 H2 \2 RFrame rate                               : 23.976 (24000/1001) fps6 K) }% |: m1 c* b7 j% K
Color space                              : YUV! m8 D1 b! C6 z8 {, ^
Chroma subsampling                       : 4:2:0! J9 H3 @, i, o  N; ^5 R* g7 N
Bit depth                                : 8 bits2 L6 u% u2 Y0 O' N' |9 o( O/ |
Scan type                                : Progressive
9 `# t: h/ x" W5 z, DBits/(Pixel*Frame)                       : 0.2311 v+ \' N$ U8 G" R9 I
Stream size                              : 6.51 GiB (86%)  ]# o! s, e6 v
Title                                    : The.Terror.Within.II.1991.1080p.BluRaycd.x264.DTS-FGT
2 d7 ^% s8 t- y  }" w; lWriting library                          : x264 core 148 r2694 3b70645
& U  x' e$ |. ^0 W: X2 O& v! L7 R( iEncoding settings                        : cabac=1 / ref=4 / deblock=1:-2:-2 / analyse=0x3:0x113 / me=umh / subme=9 / psy=1 / psy_rd=1.00:0.15 / mixed_ref=1 / me_range=16 / chroma_me=1 / trellis=2 / 8x8dct=1 / cqm=0 / deadzone=21,11 / fast_pskip=1 / chroma_qp_offset=-3 / threads=24 / lookahead_threads=3 / sliced_threads=0 / nr=0 / decimate=1 / interlaced=0 / bluray_compat=0 / constrained_intra=0 / bframes=3 / b_pyramid=2 / b_adapt=2 / b_bias=0 / direct=3 / weightb=1 / open_gop=0 / weightp=2 / keyint=250 / keyint_min=25 / scenecut=40 / intra_refresh=0 / rc_lookahead=50 / rc=abr / mbtree=1 / bitrate=11500 / ratetol=1.0 / qcomp=0.60 / qpmin=0 / qpmax=69 / qpstep=4 / vbv_maxrate=31250 / vbv_bufsize=31250 / nal_hrd=none / filler=0 / ip_ratio=1.40 / aq=1:1.00
# B4 |: D  |" f* o0 `Language                                 : English5 i# A0 h* \9 X. o% R$ ?4 K
Default                                  : Yes
- A/ F0 o+ V5 F5 Y' j: uForced                                   : No; I! m, w0 Y" v" o( o  v, `

) v/ t3 C9 R$ @$ KAudio/ b+ g# `% M- q$ `) ?9 Q5 i
ID                                       : 2
' L' k, U- Z& H( n8 J$ L3 @5 T% iFormat                                   : DTS8 N9 j3 }0 @$ `
Format/Info                              : Digital Theater Systems: ]" @5 W% m3 [, s# z7 Z, m
Mode                                     : 16- z: ]* j% J/ M- {' ^
Format settings, Endianness              : Big; |) i. @2 h1 Z: i. a/ p$ [
Codec ID                                 : A_DTS
. [* e9 U6 [8 U: W+ y! i& wDuration                                 : 1h 24mn
3 E, M0 x' ~  ]4 g# X5 q! i9 K$ jBit rate mode                            : Constant
$ P' ?' H1 |& xBit rate                                 : 1 509 Kbps7 C6 ?5 ]" Z$ {
Channel(s)                               : 2 channels
4 ?1 H: y. ]/ ~8 s) x( L1 L& [Channel positions                        : Front: L R
/ t5 I& Y. Q' U. a2 l1 R- x- }2 Z5 NSampling rate                            : 48.0 KHz" l9 v& n" R: \. b
Frame rate                               : 93.750 fps (512 spf)& V8 }3 \: r, H0 k
Bit depth                                : 24 bits
2 x; t" b& C2 N* Q* CCompression mode                         : Lossy
* |: f$ M; P8 G5 ]3 H! A3 pStream size                              : 916 MiB (12%)
, I8 B0 w1 T/ Y7 I3 k9 i. LTitle                                    : The.Terror.Within.II.1991.1080p.BluRaycd.x264.DTS-FGT; v# F% K' E5 `& N/ m. n
Language                                 : English
7 Q+ b8 w1 g0 n7 o' L+ q8 j% oDefault                                  : Yes% w5 C( t9 L8 b' O& ?2 b2 Y  A0 k8 U
Forced                                   : No
) L) z' V) Z) l" B5 E- }  \; [' X  |
2 W  c5 p6 |1 W3 }. \; ^( ]* M( |Menu1 ^0 F/ h) D. k, V2 k  D! i
00:00:00.000                             : en:Chapter 01
1 Q- s$ |) p- {  u$ `00:08:02.815                             : en:Chapter 02
8 j& p( h/ H/ R00:15:40.397                             : en:Chapter 03; K) p5 Z: s8 U
00:19:21.076                             : en:Chapter 04
" e3 D" y' t- C, R00:25:35.242                             : en:Chapter 05
; l# t: D& P" c( r' J; R. d00:30:26.074                             : en:Chapter 06. F' b9 L% L# L1 K- o3 W# N; H3 N: U
00:35:05.937                             : en:Chapter 075 b) e5 J) t! A/ K+ Z$ f7 w( z( z, V
00:42:02.061                             : en:Chapter 08
4 @" v* J1 n% P5 n' k00:47:36.645                             : en:Chapter 09
5 x2 I1 B9 ~' t9 z- Y- ]/ s00:53:12.689                             : en:Chapter 10& b) u1 ~$ X. Y
00:58:25.752                             : en:Chapter 11/ B6 y  b  W* M1 K7 i+ e  m$ m
01:05:53.240                             : en:Chapter 12. X0 C+ A9 E3 H8 L' C" m% c4 O$ D
01:12:46.111                             : en:Chapter 131 ]4 L; ]7 `& [- C9 C8 K
01:21:48.111                             : en:Chapter 14

9 C+ J- |0 K& h8 z  M0 S5 r2 `
游客,查看本帖隐藏内容请回复 | 加入VIP可免积分免回复 了解详情 | 还不是会员:点击获取邀请码 Invitation Code

本版积分规则

小黑屋|手机版|Archiver|4K蓝光论坛

GMT+8, 2024-7-21 06:49

Copyright © 2001-2021, Gadaddy Cloud.

快速回复 返回顶部 返回列表