BluRayCD Forum

 找回密码
 立即注册【分享大片】
查看: 10|回复: 1
收起左侧

[2160P极清] 8英里/街头痞子 [4K SDR高码版 自带中字] 8 Mile 2002 2160p BluRaycd x265 10bit & 8bit SDR DTS-X 7.1-SWTYBLZ 48.70GB & 54.74GB

[复制链接]

9152

主题

172

回帖

9万

积分

Post Share

金币
3036 枚
体力
28084 点

卓越贡献勋章

黄金嫖客 发表于 2024-6-11 00:27:27 | 显示全部楼层 |阅读模式

& \/ P: x: o9 }& H# j
. W( {5 z) _( M9 @; }◎片  名 8 Mile* s8 n0 t2 q" z) g1 u% [
◎译  名 8英里/街头痞子(台)/八里公路(港)/八英里/8里公路
3 d5 x2 f" x1 u' d! r6 n+ _) ~◎年  代 2002
% |0 o5 \4 H" C+ s" F◎产  地 美国/德国2 V& v# ]. f* x- c+ V7 `' C
◎类  别 剧情/音乐) I: J" A3 V1 r: m6 g
◎语  言 英语2 Q2 t" W7 [/ r7 L
◎上映日期 2002-11-08(美国)) n2 U, I3 z% D) ?
◎IMDb评分  7.2/10 from 323,202 users6 B6 p1 c9 t$ Z% N
◎IMDb链接  https://www.imdb.com/title/tt0298203/! d# Z  y& A( k8 I
◎豆瓣评分 8.3/10 from 106,725 users
9 ^6 V- S3 z  ?' P◎豆瓣链接 https://movie.douban.com/subject/1307853/3 t/ K# `" I! [1 I* \/ l; O7 R
◎片  长 1 h 50 min# E; j6 b9 ?% N  g& O- T+ R4 G
◎导  演 柯蒂斯·汉森 Curtis Hanson
8 p0 y- ~6 o4 m, X. r; I◎编  剧 斯科特·西尔弗 Scott Silver
- O  Z& r7 l0 p' ]◎演  员 埃米纳姆 Eminem8 w: Q# S1 j* E$ H
       金·贝辛格 Kim Basinger
; i3 X% }; x# O1 r" R0 \       梅奇·费法 Mekhi Phifer
4 W0 X7 v/ @6 j1 f' H       布莱特妮·墨菲 Brittany Murphy
; ]& y) j3 n8 Z) C# I. I1 n  h       伊万·琼斯 Evan Jones
: K0 ~/ y; c- H9 o3 f% P       奥玛·本森·米勒 Omar Benson Miller
  b" ^/ s/ z2 t$ L. V       德-安格里欧·威尔逊 De'Angelo Wilson
. P% {+ O9 Q* O. B       尤金·伯德 Eugene Byrd$ T3 u6 ]5 y( e! l7 n; i7 v( j
       塔恩·曼宁 Taryn Manning' a9 D& L2 {  L  T; Y- H' [
       普罗夫 Proof
$ T  k1 Q  J  a/ N       迈克尔·珊农 Michael Shannon) C; n' j: b; T0 c% ?0 N8 v
       克洛伊·格林菲尔德 Chloe Greenfield
; S% H. F! _0 ]# i       安东尼·麦凯 Anthony Mackie& \5 C$ l" V8 H; w0 _, `" M) t
       戴·戈尔芬 Day Golfin- z4 A/ E% k7 t
       霍姆 Hom
+ \$ ^4 H  a4 k# g& y+ s! u+ `& _; F       奥别·特莱斯 Obie Trice
4 G! R% L3 Z2 ?       保罗·贝茨 Paul Bates7 E) @! @! A/ R& \
       艾勒比 Xzibit
% ~  f- V5 E& n# @       阿卜杜勒·萨拉姆·埃尔·拉扎克 Abdul Salaam El Razzac
" `3 ?  R3 M4 d9 P; w; ?       戴夫·丹尼尔斯 Dave Daniels" \, {: P8 C. k2 u, o7 ]& y0 @
       卡琳·迪克尔 Karin Dicker
- D/ `4 S- e% S+ }' O' m       布兰登·T·杰克逊 Brandon T. Jackson
6 q+ q& Q8 H- M( D       杰森·雅霍夫 Jason Jarchow; k7 l2 l, x! T
       胡安妮塔·摩尔 Juanita Moore
3 l5 i" ?( w& |& J* P5 q; V       杰里·里德 Jerry Reid: f4 m& U+ I2 N8 Z" f6 x7 H
       格雷丝·斯塔福德 Grace Stafford
0 e, V4 D  W5 Q5 e3 o7 q       史蒂夫·范希 Steve Van Hee% y+ Y2 m2 M5 {- O2 E: f- c% x
       柯蒂斯·汉森 Curtis Hanson
/ e6 g7 o9 k% ?4 }& n& m       布莱恩·格雷泽 Brian Grazer
' ~4 r# U( F9 X1 n4 |       吉米·艾奥文 Jimmy Iovine  ^. \2 W6 r. {3 L& ~& w3 O+ W2 U
       Gregory Goodman 8 ~* k8 M  x( J$ M8 G; m7 `  l' C9 ^
       普罗夫 Proof
  P+ L4 e7 x# e3 x) I  [       罗德里戈·普列托 Rodrigo Prieto
- Q+ [' }6 x- R* M2 s6 Y       杰伊·拉比诺维茨 Jay Rabinowitz; C% @: [. D) M0 k  I8 Q4 }
       马里·芬恩 Mali Finn
# H( {: Y5 p+ Z4 m9 ^       Kristen Toscano Messina : {. f6 d( ]6 z
       凯文·卡瓦诺 Kevin Kavanaugh. o5 b; i6 m; _( @5 y$ P
       菲利普·墨西纳 Philip Messina! M; W8 N2 n7 @8 \8 T  x
       马克·布里奇斯 Mark Bridges
1 b3 L3 `+ L: G6 z& b9 r( y       唐纳德·莫瓦特 Donald Mowat) S4 _9 i" n: R! X8 Z( {
       Matiki Anoff ( d  \. ?1 K) S: Z( T8 ?# C
       Kymber Blake
2 z. B9 y0 A0 @       瓦利·奥雷利 Valli O'Reilly
3 l! ?) M5 j$ ]' g  u5 t       罗尼·斯皮克特 Ronnie Specter9 d) ~& e2 G( z5 f0 \& Y9 P
       Jason Cox
  K; J5 s, n5 K2 f2 q. {8 P6 P" C5 C* U: K4 O" B
◎标  签 Eminem | 传记 | 音乐 | 美国 | rap | 青春 | 美国电影 | 剧情
+ O6 s" O0 S: _% f5 W- `5 `8 ~) c% |/ d/ v4 O/ v9 `
◎简  介   
3 \; [% y+ j% d- |" V. P& u4 ~- [$ w  C+ L
  1995年冬天的底特律,每逢周末乐手们都会聚在一家名为The Shelter的Hip-Hop俱乐部进行一对一的为时一分钟的表演比赛,吉米·史密斯(艾米纳姆)是众多黑人乐手中另类的白,虽然他很有实力,却在每次上台表演时都会卡壳,只得到一片喝倒彩的嘲笑声。
1 [5 a; P( ~1 u" y) X0 }+ {; F( ?2 M0 A  F! P
  除了要勇敢面对被起哄的人群轰下台的尴尬,吉米·史密斯还要应付与母亲(金·贝辛格)及同母异父的妹妹一起生活在狭小局促的拖车里的难堪。而母亲的男友、黑人与白人的平行线关系、他的工作和感情等等,也皆是他的压力。他试图冲破家庭与团体的束缚,用音乐表达出对生活的愤怒和不满,然而他首先要解决的,是战胜怯弱的自己。! Y  y! v5 i, ^3 a) e
& m( b0 e5 [- E2 J+ N6 H* b; r8 I
  No matter who we are, no matter where we live, we're all bound by borders. Many of us are content to live within these borders--others are simply forced to exist within them. But some of us need to break out, burst through, even if what is on the other side is both frightening and unknown. From this comes the tale of one young man's dilemma as he navigates his way through his colliding worlds. Set against Detroit's hip-hop scene in 1995, Jimmy Smith Jr., a young white rapper, struggles to find his voice. The people of Detroit know 8 Mile Road as the city's perimeter. It is also a psychological dividing line between urban and suburban, between black and white, between where Jimmy is and where he wants to be. Here, survival is key, and for many, the emotional life preserver is hip hop. In the absence of nurturing parents, Jimmy and his friends--cool and charasmatic Future, optimistic dreamer Sol, aspiring activist DJ Iz and slow but steady Cheddar Bob--have created their own family. Jimmy and his "crew" (Three One Third), live on hopes of getting their "big break" while struggling to eke out a living at their dead end day jobs. At night, they feed their dreams in the hip hop clubs where the city's best rappers battle each other with abusive rhymes that are wielded like weapons. Here, words are meant to wound and victory belongs to the quick-witted.
. \$ g0 A4 R6 w  r0 }" v" P
' r) z' O, E6 v2 f4 m' F: Q( j◎获奖情况   
" o/ z) i  P) d9 g3 v* m
, a. J) Q6 |# M; b, k. ~4 d- }0 y  第75届奥斯卡金像奖 (2003)7 Z* Z  V3 q( {$ j) Z* l
  最佳原创歌曲- O0 L9 o2 q# {. K! B, h# l( X. j
  第60届金球奖 (2003)" t! f+ n1 E+ v- X
  电影类 最佳原创歌曲(提名)4 ~: E3 [$ b5 }" k9 Z  f6 p+ a
8.Mile.2002.2160p.BluRayCD.x265.10bit.SDR.DTS-X.7.1-SWTYBLZ 48.70 GB
+ h: n" u4 Z+ S3 X( m7 ~" L8 o( O: ?4 p: c" M1 n$ N" q/ a+ n
Video) b( c3 \8 U% W$ N* r
ID                                       : 1+ K8 n- d8 o- r3 ?
Format                                   : HEVC
9 p. }- e4 g/ q& W, \Format/Info                              : High Efficiency Video Coding5 I5 t- I) ?# d( w4 T7 U
Format profile                           : Main 10@L5.1@High
9 B* b; \% O0 Z$ T4 fCodec ID                                 : V_MPEGH/ISO/HEVC
" Y& Y6 h& S5 V. p. h" U1 GDuration                                 : 1 h 50 min! k1 \7 J* y- r1 V
Bit rate                                 : 56.3 Mb/s$ @. a4 s" x4 B4 z3 D, _% A5 E
Width                                    : 3 840 pixels0 @4 z6 p3 s( s' N$ E  l# J( G
Height                                   : 1 634 pixels; R* G4 S5 h: V& J' ~  n! [, |
Display aspect ratio                     : 2.35:1
, r1 J* q, x7 }3 gFrame rate mode                          : Constant8 M) y( h: u; H
Frame rate                               : 23.976 (24000/1001/53875) FPS6 m+ a  U4 h8 C0 D! G4 K
Color space                              : YUV  d8 _& ?( u$ ^( a( k3 |, Y
Chroma subsampling                       : 4:2:0
* P. v8 {5 O4 u! S7 VBit depth                                : 10 bits6 g" j- k0 i2 E0 `/ E$ J
Bits/(Pixel*Frame)                       : 0.374
" G' F( @+ D9 _* ^Stream size                              : 43.5 GiB (90%)& j: G/ W" g3 w/ Z0 Q1 W+ T! z  k
Writing library                          : x265 3.0+1-ed72af837053:[Windows][GCC 8.2.0][64 bit] 10bit, y0 n% Q) ]* e) N
Encoding settings                        : cpuid=538751111039 / frame-threads=6 / numa-pools=40 / wpp / no-pmode / no-pme / no-psnr / no-ssim / log-level=2 / input-csp=1 / input-res=3840x1634 / interlace=0 / total-frames=158935 / level-idc=51 / high-tier=1 / uhd-bd=0 / ref=3 / no-allow-non-conformance / repeat-headers / annexb / aud / hrd / info / hash=0 / no-temporal-layers / no-open-gop / min-keyint=1 / keyint=24 / gop-lookahead=0 / bframes=4 / b-adapt=2 / b-pyramid / bframe-bias=0 / rc-lookahead=25 / lookahead-slices=4 / NTM4NzU=uuDQuD2mJt9fsCf / scenecut=40 / radl=0 / no-splice / no-intra-refresh / ctu=64 / min-cu-size=8 / no-rect / no-amp / max-tu-size=32 / tu-inter-depth=1 / tu-intra-depth=1 / limit-tu=0 / rdoq-level=0 / dynamic-rd=0.00 / no-ssim-rd / signhide / no-tskip / nr-intra=0 / nr-inter=0 / no-constrained-intra / strong-intra-smoothing / max-merge=2 / limit-refs=3 / no-limit-modes / me=1 / subme=2 / merange=57 / temporal-mvp / weightp / no-weightb / no-analyze-src-pics / deblock=0:0 / no-sao / no-sao-non-deblock / rd=3 / no-early-skip / rskip / no-fast-intra / no-tskip-fast / no-cu-lossless / no-b-intra / no-splitrd-skip / rdpenalty=0 / psy-rd=2.00 / psy-rdoq=0.00 / no-rd-refine / no-lossless / cbqpoffs=0 / crqpoffs=0 / rc=crf / crf=18.0 / qcomp=0.60 / qpstep=4 / stats-write=0 / stats-read=0 / vbv-maxrate=160000 / vbv-bufsize=160000 / vbv-init=0.9 / crf-max=0.0 / crf-min=0.0 / ipratio=1.40 / pbratio=1.30 / aq-mode=1 / aq-strength=1.00 / cutree / zone-count=0 / no-strict-cbr / qg-size=32 / no-rc-grain / qpmax=69 / qpmin=0 / no-const-vbv / sar=1 / overscan=0 / videoformat=5 / range=0 / colorprim=2 / transfer=2 / colormatrix=2 / chromaloc=0 / display-window=0 / max-cll=0,0 / min-luma=0 / max-luma=1023 / log2-max-poc-lsb=8 / vui-timing-info / vui-hrd-info / slices=1 / opt-qp-pps / opt-ref-list-length-pps / no-multi-pass-opt-rps / scenecut-bias=0.05 / no-opt-cu-delta-qp / no-aq-motion / no-hdr / no-hdr-opt / no-dhdr10-opt / no-idr-recovery-sei / analysis-reuse-level=5 / scale-factor=0 / refine-intra=0 / refine-inter=0 / refine-mv=0 / refine-ctu-distortion=0 / no-limit-sao / ctu-info=0 / no-lowpass-dct / refine-analysis-type=0 / copy-pic=1 / max-ausize-factor=1.0 / no-dynamic-refine / no-single-sei / no-hevc-aq / qp-adaptation-range=1.00( f7 v# m4 Z: }/ E# e$ [
Default                                  : Yes
+ {0 G1 F7 Q( |Forced                                   : No
# S. c3 F8 C" E% Z% P( S4 M; m- Z. E9 C& J: }+ H
Audio #1
2 D' q7 _8 U' D# C- }5 F; JID                                       : 2( E; d- i  d) L  w
ID in the original source medium         : 4352 (0x1100)
& ~  u  ^( V6 `3 OFormat                                   : DTS XLL X; g! `7 [' p5 p6 X! D1 V' _5 [
Format/Info                              : Digital Theater Systems
) H; c# Z% W1 p! K7 t" N# `1 LCommercial name                          : DTS-HD Master Audio
' c2 C- ~! C( Z1 D6 V- @- eCodec ID                                 : A_DTS
# a* [5 x# ^6 y3 j8 ^Duration                                 : 1 h 50 min
" `5 O! K/ O0 J7 pBit rate mode                            : Variable+ u7 u( u$ U9 J. {/ w9 E: X+ q
Bit rate                                 : 5 650 kb/s
, A2 g( f7 H% j1 `Channel(s)                               : 8 channels7 x4 @$ \2 O) j1 ]
Channel(s)_Original                      : Object Based
5 R# c: W( i# H* O; w, ZChannelLayout_Original                   : Object Based  g3 |/ P$ K- X5 a: Z4 s/ ^* E; x
Sampling rate                            : 48.0 kHz
8 |- K, a$ L# M; C4 H9 rFrame rate                               : 93.750 FPS (512 SPF)  l: k6 t" {' G. {% m9 b) v& [* r6 Q3 B! C
Bit depth                                : 24 bits" R0 x  l8 f# Q2 |( V
Stream size                              : 4.36 GiB (9%)
7 M1 X; ?1 N- ]( w: f4 |Title                                    : DTS-X 7.19 N% Z- `9 x$ B! F) a- r
Language                                 : English
5 [; _9 G, N7 F' D  _7 vDefault                                  : Yes. C+ d2 s* {9 _: ]1 n3 f2 Y
Forced                                   : No9 c( J$ T7 M8 s* X4 V
Original source medium                   : Blu-ray
" |$ m0 n9 N+ W' _2 I+ G
. B8 \. d. c. N9 r3 f1 B% LAudio #2
& c# g: C6 s7 S2 \, ^ID                                       : 3
( O" @8 G/ @( m2 h" n% z" Y9 \Format                                   : AC-3
. z; g" a9 l7 Q/ X" }6 Q6 BFormat/Info                              : Audio Coding 3
- u4 Z5 M. y2 o0 }0 S6 GCommercial name                          : Dolby Digital
/ l7 L. n. K" O7 D- X7 X4 jCodec ID                                 : A_AC3( |- o  v# w3 O  r
Duration                                 : 1 h 50 min& ]- q# v  ?. x  a/ \! B6 D
Bit rate mode                            : Constant
, p, ]# a8 g6 V) BBit rate                                 : 640 kb/s) I$ J, ?" u: a( N0 [, P
Channel(s)                               : 6 channels
" |( B6 D7 }2 l7 R) E3 Q9 sChannel layout                           : L R C LFE Ls Rs
: V  G# `  R, C0 G+ \: r+ kSampling rate                            : 48.0 kHz
. p) Y2 Q+ V1 ~5 u3 x5 V8 zFrame rate                               : 31.250 FPS (1536 SPF)
3 J) A- [6 _' L& m) G. |: W( k8 Q0 OCompression mode                         : Lossy
2 S. z0 ~! Y% l6 X7 C+ `# @: w# h/ mStream size                              : 506 MiB (1%)
' v" y0 y) X/ h# j7 Y* eTitle                                    : DD 5.1  M3 V9 N! ?' w  j
Language                                 : English% U: g$ D7 S8 b: K5 u" g) N0 K) l
Service kind                             : Complete Main
+ @0 \& M2 N2 j; e% ^  @Default                                  : No/ ]7 n+ p- f, A; `
Forced                                   : No( k' C8 w1 l7 W, k7 _

# x; k( e" y9 I' [/ u6 W# ?' W6 kText #1
8 a6 s' c% L. w8 a" P, qID                                       : 4
/ v4 Y! {- G' u, s8 sFormat                                   : UTF-8, \! U( ^, Z3 L$ h/ G' `* L4 z
Codec ID                                 : S_TEXT/UTF8- N: T2 h7 }0 W" A+ y  p
Codec ID/Info                            : UTF-8 Plain Text
& S0 p7 f- o& o9 ~. {) GDuration                                 : 1 h 42 min1 Q# M7 O" I1 J# t
Bit rate                                 : 64 b/s
' a3 p/ p) F! |Frame rate                               : 0.249 FPS! u; b/ A' K8 t' `
Count of elements                        : 1536# S0 D0 }( {* u/ t7 u! G. H
Stream size                              : 48.6 KiB (0%)/ r% ]8 I. h! ?
Language                                 : English
2 M8 K/ j3 p9 q, bDefault                                  : Yes. q$ O& S" {! m- x" y, `
Forced                                   : No
! g  Y9 e- ^2 B
4 x# l! `- K! }9 n1 CText #27 }; w( |0 O* s6 g
ID                                       : 5
) ~; V5 J: l. P2 O; M) o, @1 ^Format                                   : UTF-8
9 O2 d5 b, u6 l8 ?6 i  ?Codec ID                                 : S_TEXT/UTF8
5 M. o+ Y# }8 O5 ZCodec ID/Info                            : UTF-8 Plain Text$ q8 ~5 g1 Q' D6 q, u  k  ^
Duration                                 : 1 h 44 min9 Y% X2 x5 ]' s/ F3 Y: s0 q$ ?! i
Bit rate                                 : 66 b/s. @; Z  H; C* a9 [# v
Frame rate                               : 0.258 FPS# n) N& _8 m5 I. f
Count of elements                        : 16215 t0 d2 Q9 m: o
Stream size                              : 50.7 KiB (0%)
& A. s6 ]! I8 sTitle                                    : SDH- Y- h7 r" M+ ]# Z  ~% e  C/ E
Language                                 : English
5 k2 A) w: L2 S6 }4 j# ^! jDefault                                  : No0 J  E: ]/ c* ^4 Q- \
Forced                                   : No
0 g' N9 Y7 X+ a) b) V  \9 h% N) X: ^2 r! \( p* L, U& o/ u7 T
Text #3
0 _8 h1 j( Q2 IID                                       : 6) ^/ n; C& A. U+ }- H; i0 w
ID in the original source medium         : 4768 (0x12A0)
3 Q3 j' w8 m+ _Format                                   : PGS
" x1 I2 z+ _6 R' T! P. s! WMuxing mode                              : zlib
* `& W' C8 j# z9 ~3 p  a  }5 aCodec ID                                 : S_HDMV/PGS
8 q  A8 F; m; r' X, x. bCodec ID/Info                            : Picture based subtitle format used on BDs/HD-DVDs
5 X! y- [" E. ^4 h! DDuration                                 : 1 h 44 min1 J5 l, T, p$ L, S* T1 ]
Bit rate                                 : 45.1 kb/s' h- H: Q9 L: K' O: c
Frame rate                               : 0.521 FPS/ M" [/ }: n* S* I0 J% v0 U# u. {: U
Count of elements                        : 3272+ ?: u6 J. p, F1 \# v# W) b9 m
Stream size                              : 33.8 MiB (0%)
6 J; x5 O8 j6 Z6 a( lLanguage                                 : English
0 O1 {* v/ Y+ d  {* X/ eDefault                                  : No
. }# f" l0 Y/ o" s& ^2 Y) [Forced                                   : No) d' ]$ @8 P% Q$ _& Y2 m
Original source medium                   : Blu-ray
" Q5 J% ]# S, N% q  l/ a& i1 Z
6 P0 `, Z( d4 _) a8 q+ o9 RText #48 h3 A& A# t0 C* u. Z1 x: M1 `' `
ID                                       : 7
2 h0 P" b0 l/ n# o1 OID in the original source medium         : 4769 (0x12A1)
! i9 w* a0 O* Q# FFormat                                   : PGS3 |4 w; x, s4 |* i9 i/ H5 {
Muxing mode                              : zlib
* b! m/ p6 U2 Z. p' V8 QCodec ID                                 : S_HDMV/PGS) ~# l/ N/ Y6 o6 c* p
Codec ID/Info                            : Picture based subtitle format used on BDs/HD-DVDs
7 r3 v! f$ k+ @( c4 WDuration                                 : 1 h 48 min5 ~1 q/ r( r/ w
Bit rate                                 : 32.4 kb/s$ M+ r: y7 d4 _# _- o5 e
Frame rate                               : 0.457 FPS
6 t" _) o: x2 g8 C( _- ECount of elements                        : 2960
; N& \. q0 i% e; O4 w0 ?Stream size                              : 25.1 MiB (0%)) s! V6 f5 u$ f/ |
Language                                 : French3 z0 ?* S% g( U# F) l
Default                                  : No3 J2 J. ?6 R/ g5 l4 t
Forced                                   : No
5 V8 ~; ~; X/ EOriginal source medium                   : Blu-ray; `% {9 v# c7 J5 K$ I7 W+ q$ L

+ O* i+ a5 h" r8 Z/ w+ ~Text #5* Y" F5 f0 N! [2 q! j: |: G
ID                                       : 81 @* P" C6 z# z9 c8 }: t" |
ID in the original source medium         : 4770 (0x12A2), j4 _* H8 C' A* I+ n, H
Format                                   : PGS: E0 n: a1 Z& l7 T& d" @6 g
Muxing mode                              : zlib" n9 l6 L& ]4 Q  b( X8 p
Codec ID                                 : S_HDMV/PGS
% y9 I5 o. N# hCodec ID/Info                            : Picture based subtitle format used on BDs/HD-DVDs
; i8 ]$ \* E. H6 K! C5 {8 PDuration                                 : 1 h 42 min
: L1 {# D6 L- \" k* \4 k- c4 OBit rate                                 : 41.4 kb/s
9 a9 t! F% E8 ]4 t" cFrame rate                               : 0.479 FPS
2 C' p) n8 E; d& TCount of elements                        : 2958
  B; Z, o1 {3 d% k5 @; Q0 VStream size                              : 30.4 MiB (0%)! t: W1 v$ _8 [2 M$ B8 H
Language                                 : French
' R9 P7 k" H4 }% K5 [: i( \7 nDefault                                  : No
1 F$ K9 p- m1 r8 @% a$ DForced                                   : No
; H. ^! ]$ _5 c2 w- g7 @' GOriginal source medium                   : Blu-ray
3 J* I# o2 d5 i1 `' g( _8 [2 }# w" [2 x- v: T
Text #6/ w8 }' Y: k7 [7 v1 ^
ID                                       : 9
3 n1 D2 ]' H8 k2 Z- w! v  nID in the original source medium         : 4771 (0x12A3)
3 O% s, Q1 L- M& sFormat                                   : PGS* x1 P+ {+ t* u! T) {$ l. N' K
Muxing mode                              : zlib% f4 m4 W: H1 I$ R# G% l. M
Codec ID                                 : S_HDMV/PGS
8 E2 x* j# X) y5 a# k7 ~Codec ID/Info                            : Picture based subtitle format used on BDs/HD-DVDs0 F" h  @! s( d7 X1 y0 \
Duration                                 : 1 h 48 min
$ |) X" L& p+ Z& A6 dBit rate                                 : 33.9 kb/s
. O9 ?" {( q: |. [Frame rate                               : 0.440 FPS
1 e/ f; k: J6 \+ I& x, i# @* t8 dCount of elements                        : 28542 }  S) ?0 ], y' g, H4 e  M
Stream size                              : 26.2 MiB (0%)1 e+ w9 F& w# F" f
Language                                 : Spanish4 S8 T- l+ R, \# f1 B" L/ t! Y# Y; w3 d
Default                                  : No
: [4 @3 e# C, EForced                                   : No
. w- E, h3 X/ ?$ s" sOriginal source medium                   : Blu-ray
' n0 O  g2 _% Z( m# R) G& q
- ?; H" \9 C) v9 fText #7
6 q: x5 U" Y* x; l3 OID                                       : 10
5 d8 O: b" U' S, fID in the original source medium         : 4772 (0x12A4)
, |9 s: E3 d) zFormat                                   : PGS
  i/ L  t/ b; X/ z* z3 S: KMuxing mode                              : zlib6 Z+ b4 d9 o+ b  g3 Q
Codec ID                                 : S_HDMV/PGS& C+ r  J$ G1 t
Codec ID/Info                            : Picture based subtitle format used on BDs/HD-DVDs  t  ?4 ?7 l+ N% e
Duration                                 : 1 h 42 min
3 b# }+ w) b+ T7 L$ [Bit rate                                 : 28.3 kb/s
- N$ A5 ?( O# cFrame rate                               : 0.468 FPS; P+ y) u- l( p, Q
Count of elements                        : 2888  f2 f$ M) S4 G& Z, I7 }
Stream size                              : 20.8 MiB (0%). O, }: }  `  v* P7 R2 O; Y# E
Language                                 : Japanese
" O1 n3 }0 K  oDefault                                  : No/ J% }8 ?/ ]6 I3 U; f% I1 [
Forced                                   : No5 [  b7 I2 I1 U, F8 v9 v& Q6 d
Original source medium                   : Blu-ray* {1 b6 {# r" B# }) E$ z7 m

! h% u3 c' G3 p6 a- F. |$ mText #85 B1 Q2 `+ u6 R
ID                                       : 11
' W3 k1 V# q5 ~( r+ _% D; `! E( mID in the original source medium         : 4773 (0x12A5)
0 z$ ~. u( t' I' C9 {Format                                   : PGS' f0 K, D( D/ k& M# G' q. ^- v9 l
Muxing mode                              : zlib$ B' b8 x* ]; h) i& X
Codec ID                                 : S_HDMV/PGS' E6 N1 L+ p- ^  i  P$ S( T' b
Codec ID/Info                            : Picture based subtitle format used on BDs/HD-DVDs, D' H; |. U1 V4 N" J
Duration                                 : 1 h 48 min
3 Z+ u" ]* f) ?: PBit rate                                 : 39.3 kb/s( h+ O6 S- P& e  M  X
Frame rate                               : 0.457 FPS
2 ^1 V5 i4 U1 i/ ACount of elements                        : 2962
" R5 i( h' |9 N* ~% OStream size                              : 30.4 MiB (0%)
8 x2 T+ u; H2 _& zLanguage                                 : German  o) C# n, ^8 ^
Default                                  : No
& p# v+ Y+ [: E: ZForced                                   : No& @% @2 Y: |# f2 k! e/ q: T/ j* x
Original source medium                   : Blu-ray# H- ^3 h  N* H! z+ F& y& [* S

7 }% V" W3 P0 j+ ^" RText #98 g6 A1 M: F) Q7 b) |3 v) i5 r
ID                                       : 12
6 U" V7 M; a+ e4 W+ H; M( \: P9 wID in the original source medium         : 4774 (0x12A6)8 i2 R+ k$ j. r1 X: ]/ V7 l; G4 I
Format                                   : PGS6 K% {/ s# [. u- \+ U9 J! x. M* S
Muxing mode                              : zlib0 t* |& D7 r  X4 ]% c+ Z+ I: E5 g
Codec ID                                 : S_HDMV/PGS
: c8 Q, h5 g$ q- a9 oCodec ID/Info                            : Picture based subtitle format used on BDs/HD-DVDs
7 Z$ i, H7 f5 v8 ODuration                                 : 1 h 48 min( K$ R3 m; O4 c/ p5 ]
Bit rate                                 : 35.8 kb/s. R9 B. @1 Y* I) D8 R: _6 P
Frame rate                               : 0.457 FPS
7 w  O% n$ s' v" @6 ^  ECount of elements                        : 2962
( v' z% ^6 J% I4 x: xStream size                              : 27.6 MiB (0%)
) O9 r; [" X9 F7 yLanguage                                 : Italian
3 c/ ^1 C& L. `; D0 wDefault                                  : No
, w" y) ?4 m! ]1 v& b+ cForced                                   : No
8 D+ N5 U% E9 Z# }: }' ]- tOriginal source medium                   : Blu-ray
: `0 a% l4 R1 B2 F' f+ n. x
9 V- i  V$ V* a$ M9 HText #10; _$ M# z" I5 Z$ s* p5 E
ID                                       : 13
- `6 t' G2 b/ n. T( yID in the original source medium         : 4775 (0x12A7)
- ^% R( K3 t- d! d( g- H5 }Format                                   : PGS# K8 E  `% v, V2 K7 S
Muxing mode                              : zlib3 s. o# X9 D# E
Codec ID                                 : S_HDMV/PGS
9 c0 r, b' K: n! W8 _0 D1 lCodec ID/Info                            : Picture based subtitle format used on BDs/HD-DVDs
8 `. p) Y6 K4 W. A" bDuration                                 : 1 h 48 min
& v5 J" W, |7 r- A6 D, X: ]Bit rate                                 : 35.0 kb/s
' A& w( c) p0 I0 ^; AFrame rate                               : 0.457 FPS3 Z* c4 u4 o2 P" J
Count of elements                        : 2962
! Z6 r" s& b" W/ }Stream size                              : 27.1 MiB (0%)' ^( A0 V# e( F9 r
Language                                 : Danish. [. O: x1 _) \& B; c
Default                                  : No4 |/ p8 n* k" f. N: T# m
Forced                                   : No
  S" i/ e) x% L) x! T0 qOriginal source medium                   : Blu-ray
1 m/ a7 x. g6 E5 f- M4 \! L5 U* @3 n4 j) N0 Q3 g
Text #11+ v/ G: d& ~# [
ID                                       : 145 ]8 m; {& A" O7 s2 a
ID in the original source medium         : 4776 (0x12A8)
4 O% b. n& E/ a+ D# v0 ^: jFormat                                   : PGS0 c6 h( n% [# l& m' Q7 Y: Y* U
Muxing mode                              : zlib
7 D- p( {9 d6 q1 ZCodec ID                                 : S_HDMV/PGS
) P7 X0 c5 {! V" C0 u+ QCodec ID/Info                            : Picture based subtitle format used on BDs/HD-DVDs
4 Z# \" s+ C% g3 X9 ?; {Duration                                 : 1 h 48 min
  ~+ {( o5 a6 j+ `0 a* ^Bit rate                                 : 37.1 kb/s
. I. R- A- i% m$ p2 O- a4 XFrame rate                               : 0.457 FPS& |) e- d: Q* @# w8 G
Count of elements                        : 2962, j* v5 z2 f2 N, k1 C$ M, m
Stream size                              : 28.7 MiB (0%)
5 N; ], }7 B) ~% wLanguage                                 : Finnish
+ o% ^. e; B, \7 {* o7 ZDefault                                  : No
, Y- E# p0 f$ f, n; oForced                                   : No3 r2 s, W6 H* t2 S
Original source medium                   : Blu-ray8 j$ B- \& V! ]- U! [, A% n6 T
" {6 X5 p( }* ]  F' q- V4 h& [
Text #12
4 o7 R- r2 {% d1 J3 h& @+ ~& ?ID                                       : 15  w( R/ l0 ?7 F; j0 x8 E
ID in the original source medium         : 4777 (0x12A9)
* B' V1 K3 _4 X1 N* z2 |  eFormat                                   : PGS
% b9 p' i8 p: w  o& M% G: RMuxing mode                              : zlib
$ X, |5 r$ S) lCodec ID                                 : S_HDMV/PGS4 Z5 n! g9 j+ W. }5 {# x9 A
Codec ID/Info                            : Picture based subtitle format used on BDs/HD-DVDs
6 E% U/ q5 j3 a! _! BDuration                                 : 1 h 48 min1 t* r9 m$ ]. d6 d3 h
Bit rate                                 : 31.6 kb/s# d5 n7 c8 D$ l: T
Frame rate                               : 0.457 FPS
# O1 M" R" |% f$ g0 e8 cCount of elements                        : 2962
% N; z+ l# Q& D( L" K$ aStream size                              : 24.4 MiB (0%)
: i% J: L4 g4 U- }; ^( pLanguage                                 : Norwegian' ~9 J3 e* x* M& @
Default                                  : No
9 p% [, @7 [, a5 _2 f- SForced                                   : No7 H% X+ r* o; o% O- d2 E8 m
Original source medium                   : Blu-ray
) |+ B6 A' |* {" e
$ b" \1 o1 `9 m; P$ SText #13
& Z  I+ d0 v6 P& g) eID                                       : 165 l3 V' {0 I8 L' D' O
ID in the original source medium         : 4778 (0x12AA)
+ V, [3 h, K) }- `6 V7 S* o: s1 zFormat                                   : PGS
. ?7 I. P, |. o) ~8 TMuxing mode                              : zlib
9 }* j2 N+ s) W2 m  Q9 F1 nCodec ID                                 : S_HDMV/PGS
- p1 g1 K$ w, U$ g$ iCodec ID/Info                            : Picture based subtitle format used on BDs/HD-DVDs% f6 g& k* P/ s5 a1 t9 {. U- v
Duration                                 : 1 h 48 min0 t9 j; `2 x. z, |6 F  \  o
Bit rate                                 : 33.0 kb/s
- M3 N% j8 q9 y/ c) I, k3 |Frame rate                               : 0.457 FPS5 N1 ]/ R- o1 O5 h, W! m, h
Count of elements                        : 2962
# o+ i, V! e( D) I/ |) G0 `Stream size                              : 25.5 MiB (0%)
: B. A2 M' Z# JLanguage                                 : Swedish& s7 b. V- W+ f4 m* O+ z
Default                                  : No0 Y, Q7 \  G& a! w4 R" U
Forced                                   : No
# Z4 {- Y+ C5 x, J5 X+ |Original source medium                   : Blu-ray' b/ v. C4 O4 D3 k" z
' `4 a4 b6 e  c5 s* d
Text #14' T) l  j4 h0 x. ?
ID                                       : 17
. ?+ J% o- B% Z6 v8 d: J9 DID in the original source medium         : 4779 (0x12AB)
$ J9 C; l, j+ e" k" sFormat                                   : PGS
6 V2 F2 n3 O: r: ZMuxing mode                              : zlib9 R( K/ \( R, V( _7 q8 P8 K9 g8 M
Codec ID                                 : S_HDMV/PGS
8 [, d; X* Y2 C7 }2 D2 [Codec ID/Info                            : Picture based subtitle format used on BDs/HD-DVDs) n( p: d* L; z9 _
Duration                                 : 1 h 48 min( t0 U. E8 R7 w, ^
Bit rate                                 : 32.3 kb/s
) R1 v/ ]' G3 J1 V* i4 W. [Frame rate                               : 0.453 FPS
) z# H, d" B6 wCount of elements                        : 2936
3 A8 D& f# R2 U" u- r, q6 BStream size                              : 24.9 MiB (0%)/ k7 B5 O, R( _7 j1 i
Language                                 : Czech
5 W7 O1 L+ d2 h2 J# jDefault                                  : No
; }( |9 f+ y2 V# E+ XForced                                   : No
  l9 S# k8 h+ D2 ]' OOriginal source medium                   : Blu-ray
  S2 W- R! U) b4 a7 _" S, V7 @3 C
' H0 x6 I/ T  I4 R, aText #15( L. m8 H+ u: ]: t! r+ o, _
ID                                       : 18/ a. D. I0 B% r* J! D6 m" \" a, n! f
ID in the original source medium         : 4780 (0x12AC), P+ a  D1 ~, f; C& @1 w# _$ Y' S
Format                                   : PGS' E$ D! `! q7 O
Muxing mode                              : zlib
7 V! j- K' H% hCodec ID                                 : S_HDMV/PGS% C/ Z* U, ^$ p
Codec ID/Info                            : Picture based subtitle format used on BDs/HD-DVDs  u# `: ~6 S/ ~2 z8 S
Duration                                 : 1 h 48 min
3 |( q9 Y- ]3 `Bit rate                                 : 32.9 kb/s; Y, T- N. m) c7 i0 o
Frame rate                               : 0.446 FPS
$ @4 k5 N1 F* K: L3 G2 K4 BCount of elements                        : 2894
9 [8 J  t7 F- }& W8 Y. j: @Stream size                              : 25.4 MiB (0%)
5 \7 I. p# l# R3 x$ _Language                                 : Polish
2 q8 ?/ z  l% g  l$ H! G7 {+ tDefault                                  : No
# v4 X: V! W% ?9 Z2 c: j- j1 LForced                                   : No. }! h5 [* c) g6 {, }+ _# P4 Z! y
Original source medium                   : Blu-ray
# X0 }0 _# r" Z7 R8 {- I1 t' |) d  v# t
Text #16
7 p4 z# F# x  Y+ \: r* K) pID                                       : 190 x: X) J9 O- \  T# h' x
ID in the original source medium         : 4781 (0x12AD). ?# ~% [/ {& S( V+ a) I0 Q
Format                                   : PGS
7 N+ c: @3 v- d3 m5 F7 pMuxing mode                              : zlib$ O* f. l. o! ?% U! p! D% a
Codec ID                                 : S_HDMV/PGS
; [1 i1 h+ [5 C% {9 x( oCodec ID/Info                            : Picture based subtitle format used on BDs/HD-DVDs/ ~! {+ R( c1 H
Duration                                 : 1 h 48 min
. H1 U/ c( Y% |+ U) `9 ^Bit rate                                 : 28.0 kb/s
8 {5 m3 G2 r' q$ V) RFrame rate                               : 0.457 FPS+ x3 k/ K; i% T& r' F
Count of elements                        : 2964" I0 D! `1 P1 {$ T- ^$ t8 M
Stream size                              : 21.6 MiB (0%)
8 L+ G+ s3 n# N* Z1 v% u" m# KLanguage                                 : Chinese
/ ?$ C9 R6 |+ K$ S, t) Y0 ]Default                                  : No+ F( U3 b7 ?) X# g$ e
Forced                                   : No
# g+ U9 a* C/ |7 hOriginal source medium                   : Blu-ray. |1 n9 f; k$ W

+ e- g$ F0 T4 d3 KText #17
- _' \, o3 {# W4 d+ DID                                       : 20! y/ m4 D8 m+ j3 Y9 o  o
ID in the original source medium         : 4782 (0x12AE): c* z+ v( F7 y) A6 X/ e
Format                                   : PGS5 U/ i4 l0 V* {* u3 `* T  M# R
Muxing mode                              : zlib, k# t- n+ X+ ]+ b0 r. O
Codec ID                                 : S_HDMV/PGS" h) [0 v" e1 D$ h, |
Codec ID/Info                            : Picture based subtitle format used on BDs/HD-DVDs+ j3 \, h- u+ x6 w" Q
Duration                                 : 1 h 49 min
/ |- K& o- i& ~Bit rate                                 : 19.7 kb/s
2 e$ ?9 m* p" S: E+ Z8 Q; w# ]8 ^Frame rate                               : 0.449 FPS+ G! d& j3 I( ^& V
Count of elements                        : 2948
; ]+ e9 |% {, J. gStream size                              : 15.4 MiB (0%)/ {' {( t7 {& H4 B( r2 J/ H/ F' _
Language                                 : Korean
+ r3 I, C" {, j" J2 X4 q" L* o$ gDefault                                  : No
/ f. G* [: [* q5 R1 W* M3 _% O6 eForced                                   : No
7 h% N; i$ Q6 Y) \5 oOriginal source medium                   : Blu-ray
/ H3 h) f4 Z1 ~8 q5 @# h/ F0 p& F* B2 p8 Q& h7 w7 e
Menu1 Y/ w0 D( v8 f
00:00:00.000                             : en:Chapter 01
1 @# Y4 O5 a, y00:03:12.609                             : en:Chapter 02
% e/ X  b8 r$ \00:10:08.316                             : en:Chapter 03
$ t1 b- b( m; F9 R' t) ~00:14:52.391                             : en:Chapter 04
. \! c9 C  Y. F3 o00:19:51.940                             : en:Chapter 05# \" R! }' i5 _! L/ R( v. f" C
00:23:31.701                             : en:Chapter 06* [1 j& ~6 z# `* y
00:27:21.556                             : en:Chapter 07
# C5 D. s9 d5 K; N00:34:41.537                             : en:Chapter 08
' k/ [6 @$ M6 b- `00:39:00.129                             : en:Chapter 09
( u; {2 Y5 g' O3 U% Q8 T$ u8 r00:46:49.848                             : en:Chapter 10+ |  C- r- y# h
00:52:55.005                             : en:Chapter 119 Z$ e$ e4 j8 w! J
01:01:48.496                             : en:Chapter 12
4 u. e+ o. i) G' F01:06:03.084                             : en:Chapter 13
1 R6 t$ F; g5 i) E, ]1 x, r4 G* \  L4 s0 n01:11:44.800                             : en:Chapter 14; y& g. ^2 ^% I# b/ {: @
01:13:48.632                             : en:Chapter 15
/ ]  Q; v+ i! r6 ^01:16:45.434                             : en:Chapter 16
5 ~- G# c) x5 B4 r01:24:31.399                             : en:Chapter 17, D0 g1 _+ r# g3 L! Q
01:27:57.105                             : en:Chapter 18
2 Z2 t. [8 |6 d! u: |01:38:19.810                             : en:Chapter 19
# c8 D6 P4 E9 r5 W9 ?3 j01:43:31.038                             : en:Chapter 20
9 N" R' Y7 t) y) ?$ H9 c01:45:29.781                             : en:Chapter 21
8.Mile.2002.2160p.BluRaycd.x264.8bit.SDR.DTS-X.7.1-SWTYBLZ 54.74 GB5 O2 F* C( l/ A; m/ k. v
* d5 J- w) A0 c! ]
Video! m6 K& l4 k3 K/ X6 B& b9 z8 C
ID                                       : 1
2 }5 [/ x5 S  x# j6 `# dFormat                                   : AVC2 _: M% a! |# d( ?
Format/Info                              : Advanced Video Codec6 y, u" Y4 G  ?% d; m! Z5 h
Format profile                           : High@L5.1  i, y3 a1 i1 D7 q, \% e& E7 ^% X
Format settings                          : CABAC / 5 Ref Frames
" \( s3 ?: U$ K% t, }0 qFormat settings, CABAC                   : Yes
0 z9 u# u) c; d, C  o1 d1 MFormat settings, Reference frames        : 5 frames& G7 T1 Y6 x& T
Codec ID                                 : V_MPEG4/ISO/AVC
# M' E" f( E# B* T1 x6 f2 jDuration                                 : 1 h 50 min
8 v0 Y) \1 [8 ^. tBit rate                                 : 64.2 Mb/s( P5 l5 o! y  _/ P4 q  p
Width                                    : 3 840 pixels5 ]8 v. l- r  F5 R: o% c
Height                                   : 1 634 pixels
$ Z& F6 O3 P, T. H) g7 A; vDisplay aspect ratio                     : 2.35:14 L% f) z' b7 {& z  F
Frame rate mode                          : Constant
2 U: k9 \( G0 zFrame rate                               : 23.976 (24000/1001/53875) FPS
4 w+ d1 D% z6 j, T( E7 LColor space                              : YUV
4 j2 i8 k- w& [1 L) \Chroma subsampling                       : 4:2:0
6 a3 c# `9 Z$ l+ o5 h: x. bBit depth                                : 8 bits
" f# g+ U- m- ]5 mScan type                                : Progressive
4 y$ ?- V9 [" eBits/(Pixel*Frame)                       : 0.426  g! q# |3 I. b5 l
Stream size                              : 49.5 GiB (91%)* Q% A( X- F: [1 a! ]
Writing library                          : x264 core 157 r2935 545de2f: P3 i* ~" z+ e8 Q6 O+ A9 _
Encoding settings                        : cabac=1 / ref=5 / deblock=1:-1:-1 / analyse=0x3:0x113 / me=umh / subme=10 / psy=1 / psy_rd=1.00:0.15 / mixed_ref=1 / me_range=48 / chroma_me=1 / trellis=2 / 8x8dct=1 / cqm=0 / deadzone=21,11 / fast_pskip=1 / chroma_qp_offset=-3 / threads=48 / lookahead_threads=4 / sliced_threads=0 / nr=0 / decimate=0 / interlaced=0 / NTM4NzU= / bluray_compat=0 / constrained_intra=0 / bframes=3 / b_pyramid=2 / b_adapt=2 / b_bias=0 / direct=3 / weightb=1 / open_gop=0 / weightp=2 / keyint=250 / keyint_min=23 / NTM4NzU=uuDQuD2mJt9fsCf / scenecut=40 / intra_refresh=0 / rc_lookahead=50 / rc=crf / mbtree=1 / crf=20.0 / qcomp=0.60 / qpmin=0 / qpmax=69 / qpstep=4 / NTM4NzU=LmsMAP37EqsCpk / ip_ratio=1.40 / aq=1:1.00
) ^1 P8 I$ B/ _6 z6 R4 jDefault                                  : Yes
1 E. y, t1 U2 \/ _& W1 Q% Z( B4 mForced                                   : No
9 ^6 u* P3 ]. R9 |. u
' Z& t' P& a2 s( J7 B- `Audio #1
7 L! w7 c+ J: \' QID                                       : 2% _- r- \: Z; c# u# z$ J3 w
ID in the original source medium         : 4352 (0x1100)# P: o/ U0 Q. s+ F" L$ z. E# b
Format                                   : DTS XLL X0 I9 S# e, \; @" Q
Format/Info                              : Digital Theater Systems
4 C$ Y) m) Y0 N9 s3 aCommercial name                          : DTS-HD Master Audio$ K: y# L; S# a- J" `0 {
Codec ID                                 : A_DTS
- K, ^) Z/ J4 o5 y8 X6 @( iDuration                                 : 1 h 50 min
% S" A; `$ L) dBit rate mode                            : Variable- Y, \4 l9 ?- D9 m: m4 m7 w( }6 R
Bit rate                                 : 5 650 kb/s
; v6 O3 [9 C, B1 w% _1 Q0 UChannel(s)                               : 8 channels8 X- B4 S, k' F0 Q2 b! |
Channel(s)_Original                      : Object Based
+ C# _, E! D0 Y# A" t" L, U( u7 g: _ChannelLayout_Original                   : Object Based
5 \+ w* c* H8 v# @* V5 j" b. dSampling rate                            : 48.0 kHz" D) Y: B9 C( M. @5 T6 i$ Y; L6 X
Frame rate                               : 93.750 FPS (512 SPF)/ r- ~1 V: L$ i+ ^  \
Bit depth                                : 24 bits& `  a% k, n+ Q. R
Stream size                              : 4.36 GiB (8%): ]5 n, L1 K+ K; \  {
Title                                    : DTS-X 7.1+ C) k. V5 l5 I
Language                                 : English; E  @& ]5 z1 m: P5 z) O- R6 e; G
Default                                  : Yes
* E/ H0 E' U7 I- H5 X4 GForced                                   : No
7 i2 E# C$ o3 G9 k  sOriginal source medium                   : Blu-ray7 T/ l# u$ l- I( T# M' D
+ n% }6 Y9 _2 g6 A0 ~
Audio #2- H& B, B/ R2 L3 |: V1 b1 e3 D
ID                                       : 38 M( ~1 `' Z, T* d
Format                                   : AC-3- Y* {, K4 f1 m5 m# {5 a
Format/Info                              : Audio Coding 3
& s- {3 l; e- W% z, L: eCommercial name                          : Dolby Digital
  {  U& D9 d# z, FCodec ID                                 : A_AC3
; D* c; D$ f3 u- L, EDuration                                 : 1 h 50 min: w  @1 w. M" {8 B  \! b1 B  d
Bit rate mode                            : Constant+ u; `, {8 Y% E( O5 i
Bit rate                                 : 640 kb/s+ ]1 ?  d' ?' ?
Channel(s)                               : 6 channels" o, c2 Y+ n) k2 z5 e: p) b" T% Q
Channel layout                           : L R C LFE Ls Rs
- J: t" I, n" Q8 F( w' \Sampling rate                            : 48.0 kHz
2 A, Q/ g! u" \6 a7 Z" ?/ t1 ]1 ^Frame rate                               : 31.250 FPS (1536 SPF)8 C7 q/ ?  ]+ y: F
Compression mode                         : Lossy$ ^$ c! g4 i4 [- e0 I; d$ ]
Stream size                              : 506 MiB (1%)) `7 ~5 l% K3 I- b
Title                                    : DD 5.1) v/ p6 r9 n6 `; d2 @- Y- n$ ~
Language                                 : English0 ~- C1 }7 ]: B) f) ~
Service kind                             : Complete Main) K! d* D6 V, W1 V3 k- ?3 J& M: Y
Default                                  : No
9 w( W! O3 _0 }6 E' U" v9 BForced                                   : No
/ d% W# W% U2 W6 K) h( X- w$ L" ~# r7 z
Text #1
6 ]+ T9 I6 X* g3 H9 eID                                       : 4) ?5 }0 f) a+ ?
Format                                   : UTF-8
. _( X9 M* Y+ l0 P, wCodec ID                                 : S_TEXT/UTF8
! N3 [; D5 I' h: W& u' |1 ACodec ID/Info                            : UTF-8 Plain Text
& |0 v2 i) J. w# `/ L7 ~& e6 T  G* ^Duration                                 : 1 h 42 min
- X! n5 j6 G, b0 A$ R6 jBit rate                                 : 64 b/s
3 C' O- ?3 o; e; h( FFrame rate                               : 0.249 FPS& k: a/ M$ m9 c4 J" R
Count of elements                        : 1536' M! W0 M4 y) L1 ]
Stream size                              : 48.6 KiB (0%)
% B& ]8 z$ E4 T- J8 n9 y% xLanguage                                 : English
6 W' m4 `6 |. ~7 u" X4 z: bDefault                                  : Yes& Y& \' x) E& A6 j7 E9 @
Forced                                   : No
$ i; x. S2 n. U& X0 Y( o( {" T( p; P% j$ r
Text #2$ ?3 v% n0 ~+ N, i
ID                                       : 5; r3 f9 r* P# w! Y. _$ [$ B. h
Format                                   : UTF-8
' E5 ~7 @, K, k" b6 DCodec ID                                 : S_TEXT/UTF8# h# ^4 ?3 s5 `' C  U0 C4 R
Codec ID/Info                            : UTF-8 Plain Text
; d1 j, _, m* X: s' \% I8 JDuration                                 : 1 h 44 min
, X9 V& s8 z6 X( a6 {6 ]6 e$ |Bit rate                                 : 66 b/s, V/ v  C# x- t) R
Frame rate                               : 0.258 FPS
* e+ r) J% q$ W# s( |Count of elements                        : 16210 c& w# W  R9 w0 _! N
Stream size                              : 50.7 KiB (0%), s7 O9 t, K/ X; e% c: M! @
Title                                    : SDH
- Z% f0 V$ V# R- zLanguage                                 : English3 _  P( O9 \5 u! r
Default                                  : No
: V) M: f) V1 p* [( [( eForced                                   : No; R  V; x: R1 s. E7 b
0 k4 _/ H( ]) v, C( _' u: z
Text #3- `( F5 e' |! G2 }7 k. b
ID                                       : 6( i5 C0 I# }4 o$ x. ^- Z% x- L: x6 }
ID in the original source medium         : 4768 (0x12A0)
; n9 E  Z& x, b& A$ R1 nFormat                                   : PGS
7 J! p3 c" n' M) }Muxing mode                              : zlib( b0 P, X+ Z+ q' o; U: @
Codec ID                                 : S_HDMV/PGS" `$ G4 K  v6 P# \
Codec ID/Info                            : Picture based subtitle format used on BDs/HD-DVDs
% p2 h5 q- o2 C+ g1 P. n2 z& {+ pDuration                                 : 1 h 44 min* Q; R$ u! T  b6 q' A) ]& X" L2 U. i
Bit rate                                 : 45.1 kb/s
+ q, b2 `% C, ]# D! Y" {0 X3 cFrame rate                               : 0.521 FPS
4 j8 R6 B8 ?( m; f/ [Count of elements                        : 3272
7 e2 Y, Y: J0 i1 S. WStream size                              : 33.8 MiB (0%)
  R3 j9 j& u- x. N$ NLanguage                                 : English
: w1 N+ {; _! KDefault                                  : No# a9 x4 ]4 t1 b  p; X/ o
Forced                                   : No0 x% u. K* w6 F2 r
Original source medium                   : Blu-ray
4 N- R" G( O- x' F* g9 g# {( N* ^, @; a+ k, o! \$ e
Text #4) b4 V7 Z/ c2 R0 {1 c! g
ID                                       : 7
+ Z( V: s& x5 @$ T, R' KID in the original source medium         : 4769 (0x12A1)
: n' h* z$ t# u" YFormat                                   : PGS) T2 I, K+ Y0 P4 h9 l" X& b3 m
Muxing mode                              : zlib
* v, X  U  _, P/ p, l; ^- i! A( X& z  SCodec ID                                 : S_HDMV/PGS
8 C; R1 i2 V% O, Q8 N3 U6 L, cCodec ID/Info                            : Picture based subtitle format used on BDs/HD-DVDs9 K! _0 P/ w1 J( b" }
Duration                                 : 1 h 48 min
, o$ O/ }7 s5 v6 ~4 yBit rate                                 : 32.4 kb/s
) I7 N+ Y/ _4 i1 qFrame rate                               : 0.457 FPS7 |+ Q- _& M6 S6 K8 _1 @
Count of elements                        : 2960
! }; c$ R3 k# ]' r0 [Stream size                              : 25.1 MiB (0%)
3 ]+ [8 n3 {0 x$ @7 v2 RLanguage                                 : French2 m" Q* G4 R6 ]5 G' Z
Default                                  : No
& N9 C* E  ]* Z8 M. t# }$ H* h9 XForced                                   : No4 u9 c# F3 k, ?: e7 M
Original source medium                   : Blu-ray0 V- X" v; i7 Q4 y
" C  d! V' `" J: q# q9 l& O' M1 Y
Text #5
1 V8 d( @2 B" pID                                       : 8
- g4 U( T" A, J+ D6 sID in the original source medium         : 4770 (0x12A2)( p9 L* u* `7 i3 K. n' e
Format                                   : PGS
+ B# g1 `1 w* g, J6 x# iMuxing mode                              : zlib
8 m& G/ T1 p  t/ X6 XCodec ID                                 : S_HDMV/PGS9 J2 `: s9 j9 m! v( w
Codec ID/Info                            : Picture based subtitle format used on BDs/HD-DVDs) m4 [+ {: [, B) d: u
Duration                                 : 1 h 42 min; t+ }3 W- R- X* A! y' }
Bit rate                                 : 41.4 kb/s; T) W1 F& y6 P
Frame rate                               : 0.479 FPS& `4 Q, ^  u. E7 j0 g9 D6 f* Z
Count of elements                        : 2958- D' @0 U; V1 t+ M/ w& x
Stream size                              : 30.4 MiB (0%)
; K' }: Q0 V' z: k' O  Q# I, sLanguage                                 : French
& V9 d$ \+ X7 Y" ?& i% @Default                                  : No% `% x/ ~, j0 @2 J" g! l* j2 v
Forced                                   : No
) Z: |8 A  O/ ^' l" J7 z! ?Original source medium                   : Blu-ray
0 @5 T6 w; H$ I) V5 ~$ N  @
' c& H: m. b% ], qText #6; i) }5 z' {, U' I
ID                                       : 9& t- ~* F: L1 r0 D8 r
ID in the original source medium         : 4771 (0x12A3)1 z  ]$ P: a6 o0 w2 I. J9 e- c
Format                                   : PGS/ g0 T8 b  G( G% p8 Y
Muxing mode                              : zlib
! z0 c/ j8 Z0 v+ d# sCodec ID                                 : S_HDMV/PGS! `. e/ S. }: v
Codec ID/Info                            : Picture based subtitle format used on BDs/HD-DVDs5 n9 j2 r; g& p' Z
Duration                                 : 1 h 48 min  S4 s& p# q0 _" w+ i3 e7 R( g+ [
Bit rate                                 : 33.9 kb/s& C2 g, g/ j# W5 A
Frame rate                               : 0.440 FPS. {% a( R5 D* B% s
Count of elements                        : 2854
1 b1 N0 l$ }+ eStream size                              : 26.2 MiB (0%)
# l& o8 x" I: h  r! r4 ^Language                                 : Spanish
: W% k4 \) _$ @* NDefault                                  : No
! [/ W, c; v' T6 @0 Z! C, `! GForced                                   : No
7 _+ ~! U' R6 n8 ~' h0 oOriginal source medium                   : Blu-ray2 C0 J3 Q  J! ]3 A  S( A% f# B( ]1 K

4 N# B6 T' b" y. jText #7
) V" P; E; t- z8 OID                                       : 10
) K1 C% T- Q5 h7 T) ^% }' `ID in the original source medium         : 4772 (0x12A4)
0 ^) J7 p7 ^; \! OFormat                                   : PGS- w2 u$ \( x9 x9 e' U* _
Muxing mode                              : zlib
7 F  x8 k/ d. |. H$ gCodec ID                                 : S_HDMV/PGS% \2 s: z! V; V2 Y& X) D; p
Codec ID/Info                            : Picture based subtitle format used on BDs/HD-DVDs
: \+ @- c1 \2 d9 O- B" S$ Q) dDuration                                 : 1 h 42 min
- U. b0 f, @& N& Q  L7 x9 P9 wBit rate                                 : 28.3 kb/s" {* f- q+ {6 U8 i7 P
Frame rate                               : 0.468 FPS2 X$ M& _, k8 L" A! I) Y
Count of elements                        : 2888
) i& x/ _" ~# a7 _( IStream size                              : 20.8 MiB (0%)
1 g8 t4 w, L9 t% u" D! p5 b0 zLanguage                                 : Japanese
- h: }) C1 W- L: ?Default                                  : No& j: S+ V7 Z! H
Forced                                   : No
- p( c+ U' @  Q$ I( yOriginal source medium                   : Blu-ray3 ^2 i6 s3 R( v) W1 i

# \$ _7 X3 \# D( A1 FText #8
: H+ D8 Z, ?7 h4 F8 a9 n- OID                                       : 11  N8 N) X+ s4 t5 q$ d2 C
ID in the original source medium         : 4773 (0x12A5)" N5 W) E7 o$ P  i
Format                                   : PGS
) t$ L% q6 d. L* NMuxing mode                              : zlib1 N1 s1 X+ k! p+ E  \; v% F
Codec ID                                 : S_HDMV/PGS1 {- e) X" \, y5 @$ e1 P
Codec ID/Info                            : Picture based subtitle format used on BDs/HD-DVDs
% X( m$ g8 _* y4 ?' jDuration                                 : 1 h 48 min* N8 E% U4 W( T% l, Q
Bit rate                                 : 39.3 kb/s
1 n" {6 m8 C! c( \Frame rate                               : 0.457 FPS
6 U$ J- k- \- D9 t$ [, S: ]Count of elements                        : 2962
: A7 w3 C" |6 S7 IStream size                              : 30.4 MiB (0%)
# x/ k3 ]8 F" h- [1 J9 kLanguage                                 : German% P9 l8 y8 R/ p; x+ E# g# t& v
Default                                  : No
3 }8 b% F0 L3 B( SForced                                   : No3 u  {  [9 [0 w& N, x
Original source medium                   : Blu-ray& m. y/ _- C0 Q" y
3 j& x: j$ \6 m# B- K5 U
Text #9
& Y& O# V" ^. D0 I6 K2 kID                                       : 12/ t& i% X7 q; F4 W
ID in the original source medium         : 4774 (0x12A6)
& P1 E0 B7 y1 S1 A1 V' u7 p+ h  oFormat                                   : PGS
* q+ m" m, x# T! x# s. [Muxing mode                              : zlib) Y, e1 s; d8 k8 Y
Codec ID                                 : S_HDMV/PGS6 B% K: w, S, W# K6 x' q5 `
Codec ID/Info                            : Picture based subtitle format used on BDs/HD-DVDs
5 O- _% |: Z/ x) M- XDuration                                 : 1 h 48 min8 o( t$ \" o" Y; r( T  T
Bit rate                                 : 35.8 kb/s  X5 B- ^' S4 w/ G5 O$ m4 R
Frame rate                               : 0.457 FPS
# q; q" ]9 c6 R3 NCount of elements                        : 2962
1 S* R1 Z% x* e; r% ?" ^3 ^Stream size                              : 27.6 MiB (0%)- l  q$ d9 n- ?: g  \# j5 m4 i
Language                                 : Italian
; s3 |4 @1 W- F- B6 i- pDefault                                  : No3 D, \9 M8 H8 }# a: m. c% F
Forced                                   : No
. Z' D1 G8 C4 P6 N9 J& n: @" qOriginal source medium                   : Blu-ray
: t( X9 ^$ c: P, b" X) s: }' Y, N) C" `5 y" ]$ E: Q* j
Text #10, F5 V" T& }' a5 P
ID                                       : 13
) L7 N# F5 ]' T" V: G4 wID in the original source medium         : 4775 (0x12A7)
' R) n/ i  i1 E8 X! f0 tFormat                                   : PGS
1 I* d, c' N' b2 A. j% BMuxing mode                              : zlib9 S/ ]3 B- h/ f9 k' s
Codec ID                                 : S_HDMV/PGS
- E, N8 q( a& ]$ qCodec ID/Info                            : Picture based subtitle format used on BDs/HD-DVDs
0 i7 [8 c5 n% b$ \  I' o" H1 N) uDuration                                 : 1 h 48 min2 F5 ]; C8 j% Z2 V' Z' \3 g
Bit rate                                 : 35.0 kb/s1 P1 B5 Y2 f6 x+ Z' O
Frame rate                               : 0.457 FPS9 R% b0 l9 m- Y- V
Count of elements                        : 2962
$ h3 ~1 L; p2 F: Q5 ~8 kStream size                              : 27.1 MiB (0%)
4 A0 P/ `2 F8 m8 ^- P  ]: fLanguage                                 : Danish
6 ~+ J8 Q6 D; H/ {6 w5 m- TDefault                                  : No  x3 i; z6 s; s, b, Z
Forced                                   : No1 P2 P( `, V3 s
Original source medium                   : Blu-ray
* ~. V6 _" _4 ^0 u7 u5 U: \# w
Text #116 l1 w7 ^& W& E0 ~2 R& Y* {8 Q+ z) e: @
ID                                       : 14$ R. v: x) C% n4 B; }: Y
ID in the original source medium         : 4776 (0x12A8)0 y$ ^9 r% d: Y* @. L
Format                                   : PGS+ {$ `3 D* ?- W3 q
Muxing mode                              : zlib- f8 R- Q% ^7 W# ?/ U/ z! ?
Codec ID                                 : S_HDMV/PGS
+ b! T; ^' U- v4 i! b5 O# c+ ICodec ID/Info                            : Picture based subtitle format used on BDs/HD-DVDs* R% }( L, j2 D" {: j' k9 m7 r
Duration                                 : 1 h 48 min% S; J3 ?* \/ N  L7 p
Bit rate                                 : 37.1 kb/s
* S8 p" R9 |3 g1 x) j- I+ l+ e) OFrame rate                               : 0.457 FPS
; I' E1 c! U8 t$ b8 F- j/ [8 H2 @3 dCount of elements                        : 2962# y2 E5 h. n9 R) G* `# `
Stream size                              : 28.7 MiB (0%): u* T1 M5 C+ t& }7 e+ k3 U2 n
Language                                 : Finnish3 [4 g: e2 Q2 K* H; ~
Default                                  : No; U2 ?* h* @# G
Forced                                   : No0 @7 E7 V8 Z. [% B/ f
Original source medium                   : Blu-ray
( U8 k8 a* T% ^; t% o3 n& m; a- O5 \9 n6 ]- i3 h
Text #12/ c0 g8 q, N" Y6 w& C' W
ID                                       : 15
7 l/ s  k: `, O3 O5 dID in the original source medium         : 4777 (0x12A9)$ r0 J; d0 Y9 L) m! Y0 y
Format                                   : PGS7 {" w0 t3 t( L% e! X/ R
Muxing mode                              : zlib
; g) l- \7 n. k+ c: ZCodec ID                                 : S_HDMV/PGS2 v" X. }+ q* q/ Y' n4 V9 C. O
Codec ID/Info                            : Picture based subtitle format used on BDs/HD-DVDs
! D& S* U- i- y* K2 \Duration                                 : 1 h 48 min( s0 B/ [0 D1 M1 C5 R1 m$ E; F
Bit rate                                 : 31.6 kb/s0 b9 V  `! n1 j5 c+ O3 F
Frame rate                               : 0.457 FPS
. |9 A& `2 c* Z- p' Q( oCount of elements                        : 2962. R- X9 ^, L! _7 c3 `' X) Z
Stream size                              : 24.4 MiB (0%)
: H9 E4 l6 B9 [; ^3 TLanguage                                 : Norwegian
: p: N: g- p( gDefault                                  : No/ _2 V/ r2 V4 W" |
Forced                                   : No3 u; L8 h4 T1 Q0 F3 h/ l' @) U
Original source medium                   : Blu-ray0 |" _, T' N7 a& i6 O- h

% k$ Y& j; Y( k: W0 C' oText #13
' F; v8 w; m5 K; sID                                       : 16' |$ |/ R, F. y& C5 H1 ~
ID in the original source medium         : 4778 (0x12AA)
" k$ V1 W9 v8 Y* A. K4 y! VFormat                                   : PGS' Y. ~7 }; H! {6 s/ N6 ~# v/ J
Muxing mode                              : zlib
' t' V% N, r. f# HCodec ID                                 : S_HDMV/PGS
, Q$ K4 C9 k: x( e* xCodec ID/Info                            : Picture based subtitle format used on BDs/HD-DVDs3 \5 z1 p: \8 [3 j- _/ d, E
Duration                                 : 1 h 48 min- s% y$ ^& F6 J+ t3 n; F# l% J
Bit rate                                 : 33.0 kb/s1 R7 ]) `4 j7 c# ~+ n/ i
Frame rate                               : 0.457 FPS
: w3 N# v5 E9 T/ B$ N$ J5 T+ t; aCount of elements                        : 2962
5 m/ S5 r3 K8 CStream size                              : 25.5 MiB (0%)3 Z  T8 z9 \' _/ `% I' l2 H
Language                                 : Swedish% j, ^5 q2 v  r( {6 W' o. L
Default                                  : No
: `# O) z% \# U0 V/ K6 kForced                                   : No5 G- W" B0 u0 A* x
Original source medium                   : Blu-ray. C2 Z4 k# r1 Z  }% o3 j6 S

- @. W$ m3 i& M, S! e2 f" o' K. wText #14, _3 `+ [; l5 p5 V
ID                                       : 17- H" L6 N) Z% W) n- V# W
ID in the original source medium         : 4779 (0x12AB)  Y2 u/ N4 g, k
Format                                   : PGS
8 }# ~- H0 x) Q& _9 }- _1 Q! HMuxing mode                              : zlib# N2 a: V% X4 n7 \2 p2 b
Codec ID                                 : S_HDMV/PGS1 X9 S% k8 |; U1 x' V2 S1 K
Codec ID/Info                            : Picture based subtitle format used on BDs/HD-DVDs9 M$ }) e0 ?  \5 E( n' o2 b8 ~) I/ Y
Duration                                 : 1 h 48 min# j9 g, ]* R0 {8 s+ T/ b2 y
Bit rate                                 : 32.3 kb/s
5 ?2 I+ h5 D5 W$ K) L6 eFrame rate                               : 0.453 FPS
4 i, O! X% k, B7 p+ RCount of elements                        : 29362 G& p) ^' N. v1 x7 G0 d- U% ^
Stream size                              : 24.9 MiB (0%)- R1 a' f$ F$ c0 C+ J  j& H
Language                                 : Czech
) l0 Q. V: N0 B7 v4 z! \Default                                  : No
$ X) \; n/ D% h$ Z: K' WForced                                   : No4 O3 R  S7 c9 k, y5 q
Original source medium                   : Blu-ray$ @, c0 {3 }6 d& u( u# y
' ^0 Z3 k/ c# L. Z
Text #15  h7 e0 N2 L1 |% X$ _) p2 F; k
ID                                       : 18
6 `2 t: X/ u' x$ j3 |* @ID in the original source medium         : 4780 (0x12AC): E% k9 e4 R5 {0 I. h# u6 @$ t
Format                                   : PGS" Y+ ]% o6 Q% Y9 n9 W* C! U* g! F
Muxing mode                              : zlib- J* r8 \7 N6 R0 ~
Codec ID                                 : S_HDMV/PGS
0 _& N- Y( U' ]% S6 f7 UCodec ID/Info                            : Picture based subtitle format used on BDs/HD-DVDs. S, S% V' r# t' ]0 p& |" R
Duration                                 : 1 h 48 min8 |' U  h& v! m7 v# V3 `
Bit rate                                 : 32.9 kb/s  y% }) g8 `' s' h  v0 Z, M
Frame rate                               : 0.446 FPS3 s3 D$ s& r  g! L, v% _
Count of elements                        : 2894; A1 t, J( ~- ]* G" k: `
Stream size                              : 25.4 MiB (0%)
, x3 x8 [! h3 E1 a. QLanguage                                 : Polish
- v+ ?3 B, B  ^/ A( uDefault                                  : No
; I2 j) Q$ n; I, [; DForced                                   : No: o6 o. l9 i: ~% H
Original source medium                   : Blu-ray. g, o  R! x, r! o

  }* p! i. {& `- Z6 ^Text #163 N; v) A. v. i$ y6 u5 l
ID                                       : 19/ X, Q4 O6 C* p1 B
ID in the original source medium         : 4781 (0x12AD)( q" p8 ?# m2 L1 K2 d4 |' s0 A
Format                                   : PGS1 X) c2 P# N! |' H+ Y
Muxing mode                              : zlib2 [& }3 u' N: D' B+ l2 I3 s  V) ~
Codec ID                                 : S_HDMV/PGS
% m! P, r4 `, f% B) {5 z! _Codec ID/Info                            : Picture based subtitle format used on BDs/HD-DVDs5 O6 Z1 `. z4 |
Duration                                 : 1 h 48 min
  h0 R. x, ^( j& P& JBit rate                                 : 28.0 kb/s1 U. {4 ]/ K* K, {/ n; r! W( O! q6 r  R3 b
Frame rate                               : 0.457 FPS) }: M8 M1 I$ L  \: x! C
Count of elements                        : 2964
/ F3 D- N1 X6 W! \+ ]6 N& Y- YStream size                              : 21.6 MiB (0%)! P6 k2 v6 I# w+ t/ w" T
Language                                 : Chinese2 Z% }# m2 }2 m( j+ j4 I
Default                                  : No
4 D7 D9 d3 y  V7 H% m6 [& zForced                                   : No. A; q# }  F' P
Original source medium                   : Blu-ray
$ R& t7 j+ a8 c; o& a1 z/ g; a
- ]1 x( s6 m- J1 b* ?1 E' hText #17- i8 i. l* o; Q. h- u# L7 C- \
ID                                       : 20
7 Q; _+ o+ E! s6 ^ID in the original source medium         : 4782 (0x12AE); r. X: k* u/ l
Format                                   : PGS
$ o! Z" I0 j: g3 A) J- C8 q5 aMuxing mode                              : zlib* b2 I( u* `% a5 ]% i1 _
Codec ID                                 : S_HDMV/PGS$ l: t, k0 a  e( y
Codec ID/Info                            : Picture based subtitle format used on BDs/HD-DVDs
* w4 j( Z' g( e7 M& @' Z. uDuration                                 : 1 h 49 min
& `- C  t2 n( d2 a* Y/ n7 gBit rate                                 : 19.7 kb/s4 R6 I- y" N* T5 E3 L' m
Frame rate                               : 0.449 FPS* \1 A9 K, `4 T4 m' _/ T3 i
Count of elements                        : 2948
! @0 a' `& J, v; b4 IStream size                              : 15.4 MiB (0%)
! D) |+ W, s+ x- _- Y; mLanguage                                 : Korean
6 j0 h6 N7 \+ ~$ a$ qDefault                                  : No7 I: Q+ D4 m+ Y' f
Forced                                   : No
* v$ Z) [% C5 ~5 O6 _Original source medium                   : Blu-ray
( ?; e* `% O3 p% F. n
& f% X7 j4 P! PMenu
" x# R5 b5 H3 H3 T4 w: p1 ~# g% G; J00:00:00.000                             : en:Chapter 01: V3 o4 w6 _: _+ j, u/ Q0 s  n5 F
00:03:12.609                             : en:Chapter 02
9 A7 g$ h0 I5 [7 {+ C1 d' l00:10:08.316                             : en:Chapter 03
( s$ W& o' T5 F* r& p% H00:14:52.391                             : en:Chapter 046 F1 q8 |1 ^4 @
00:19:51.940                             : en:Chapter 05
3 G" k' b3 O+ |7 {00:23:31.701                             : en:Chapter 06
' h1 E8 k) m+ P( Z00:27:21.556                             : en:Chapter 07
5 g3 \2 S/ |1 K9 |( ^, q00:34:41.537                             : en:Chapter 08# O& G+ |- P+ M: ?" z! f/ B
00:39:00.129                             : en:Chapter 09
+ V0 @8 X2 u$ m7 M  W0 V# V00:46:49.848                             : en:Chapter 10. `- p" O  p! N+ x) t
00:52:55.005                             : en:Chapter 11
; \1 s$ L& C/ u/ H- D  O01:01:48.496                             : en:Chapter 12' g* d# H, C  s# j4 h& ]
01:06:03.084                             : en:Chapter 13
, k  E* M/ r' k+ D+ w  |3 L01:11:44.800                             : en:Chapter 14
* L2 N- s( _$ M+ g# x: ~01:13:48.632                             : en:Chapter 15
' y+ |& @2 Q7 A3 d01:16:45.434                             : en:Chapter 16
* i. q7 v: E; Q! E01:24:31.399                             : en:Chapter 17" q8 j4 [2 E7 K$ ~2 X1 C9 ~
01:27:57.105                             : en:Chapter 18
7 t9 d5 M; b9 R. k% o01:38:19.810                             : en:Chapter 19& D8 C/ \' j6 D
01:43:31.038                             : en:Chapter 20- E# s& r- ?) C' @- H2 J# N
01:45:29.781                             : en:Chapter 21
" C2 n2 `& N5 y7 Z, N
游客,查看本帖隐藏内容请回复 | 加入VIP可免积分免回复 了解详情 | 还不是会员:点击获取邀请码 Invitation Code

0

主题

956

回帖

4984

积分

Sponsor

金币
168 枚
体力
2931 点
QQ
一见哈哈笑 发表于 2024-6-11 16:13:03 | 显示全部楼层
感谢楼主,感谢!

本版积分规则

小黑屋|手机版|Archiver|4K蓝光论坛

GMT+8, 2024-6-21 10:12

Copyright © 2001-2021, Gadaddy Cloud.

快速回复 返回顶部 返回列表