BluRayCD Forum

 找回密码
 立即注册【分享大片】
查看: 18|回复: 0
收起左侧

[蓝光原盘] 乌鸦/神探爱伦坡:黑鸦凶杀案 [REMUX无损版] The Raven 2012 1080p BluRaycd REMUX DTS-HD Master x264-BEN 25.58GB

[复制链接]

9255

主题

172

回帖

9万

积分

Post Share

金币
3204 枚
体力
28371 点

卓越贡献勋章

黄金嫖客 发表于 2024-7-8 23:25:01 | 显示全部楼层 |阅读模式
A fictionalized account of the last days of Edgar Allan Poe's life, in which the poet is in pursuit of a serial killer whose murders mirror those in the writer's stories.
  ?6 y. N9 V7 _3 F
8 A; Q! Z0 W+ k' y1 a 01.jpg % @" ?" i! ?7 Y( l

9 Q  Q1 l* f/ `: P# F$ q◎译  名 乌鸦/神探爱伦坡:黑鸦凶杀案(港)/爱伦坡悬案:渡鸦疑云(台)/神探爱伦坡:黑鸦疑云(台)% Q  Y2 z, I/ k' v+ s
◎片  名 The Raven
8 K/ i' \; K. X- E+ g◎年  代 2012. R. P/ c+ g9 U, z! v
◎产  地 美国/西班牙/匈牙利/塞尔维亚/ l8 ~7 Y3 e- g" w, t  _6 U. e
◎类  别 悬疑/惊悚/犯罪
! e8 v- q( J. ?8 C/ g, W0 w; ~+ ^◎语  言 英语
& Z0 F( O0 U8 h. a" q$ E◎上映日期 2012-03-09(英国)/2012-04-27(美国)
$ `3 L- u; Y, X) K  i◎IMDb评分  6.4/10 from 88,268 users/ k7 d$ k: M% x9 c/ g" ?
◎IMDb链接  https://www.imdb.com/title/tt1486192/% N' ~6 T8 [! B, {
◎豆瓣评分 6.6/10 from 14,487 users
0 `2 A. ^1 A- q◎豆瓣链接 https://movie.douban.com/subject/3914547/
- q9 M3 V0 d  W# h◎文件格式 x264 + DTS* Y  `- e: {% i  R
◎视频尺寸 1920 x 1080
2 z7 o- Q/ Q" T3 d5 e◎文件大小 1DVD 25.58 GiB+ X+ ]. c& i8 S$ w7 y4 r+ t
◎片  长 1 h 50 min
9 n6 H- a. k3 ^; g& x, E9 {. \0 \2 v◎导  演 詹姆斯·麦克特格 James McTeigue) F9 Q- }" R; ]( D( H' H
◎编  剧 Hannah Shakespeare 5 Q$ w( K/ C8 d, B  |  t
       本·利文斯顿 Ben Livingston
* z7 r- c! N5 g& u1 z! t◎音  乐 卢卡斯·比达尔 Lucas Vidal
1 r% F. o+ V2 L6 F◎演  员 约翰·库萨克 John Cusack. J9 M+ N9 k0 R1 W
       卢克·伊万斯 Luke Evans
  c+ i2 x+ O% J; h       爱丽丝·伊芙 Alice Eve$ a0 x% z# i" h: e
       布莱丹·格里森 Brendan Gleeson
: c1 ]: F( R& Z0 k9 Q$ L  k       凯文·麦克纳利 Kevin McNally7 C3 e( y0 L$ X) |! M
       奥利弗·杰森-科恩 Oliver Jackson-Cohen
# ]7 V/ a, W* k7 }- ~       山姆·哈兹尔丁 Sam Hazeldine | 饰 Ivan
4 T( L* H& c6 C       帕姆·费里斯 Pam Ferris+ C# K9 i* H7 I, N
       布兰登·柯伊尔 Brendan Coyle
# G4 [# z9 r8 E' v, `5 |* _) a       阿德里安·劳林斯 Adrian Rawlins
# J& \, A" t8 ]' t       大卫·勒格诺 Dave Legeno9 }: [' I: S6 A0 b
       迈克尔·香农 Michael Shannon
) q/ q! h; v- o7 u. D. L       查丽蒂·维克菲尔德 Charity Wakefield! e: D! ~/ p8 a! ~" E7 S2 u
       伊恩·维果 Ian Virgo& u0 x, \1 n( F$ D
       迈克尔·J·福蒂克 Michael J. Fourticq
- s% e( c! i, p. b# B       马特·戴维尔 Matt Devere. a- }" Q7 x, V0 ]4 I, p% @# p
       谢尔盖·特里富诺维奇 Sergej Trifunović
; Z* C# j! j, `9 D  E, u7 m4 D       Milos Djuricic % @+ B" B# P$ U7 N( k( I; `2 l
       博扬·佩里奇 Bojan Peric
. [( Z9 z: C9 ?( x) r( d/ R" ]       安娜·索夫雷诺维奇 Ana Sofrenovic: m; i- u' W& Q0 C0 ~1 [# x
       安德鲁·赫夫勒 Andrew Hefler. v( J' j. `) K' J% `
       László Konter
4 E+ ~  F: S0 V4 e, {0 H. D       Mark C. Phelan % v2 s9 s+ B1 E" A  G, p: `
       Ádám Földi* l( W8 P9 }& x5 t$ p$ X( [
       马泰·豪曼 Máté Haumann
- r& z3 ^8 z( ?) r! v$ N* R( B! \8 Q# P# e! H! I
◎简  介 
, K9 Q* M) y  g, n2 Y- c: h' P; I
: z9 U" X; x2 j5 G+ J  影片虚构了爱伦·坡死前“神秘”的5天里发生的事情。
/ a4 [8 G) k8 n4 C6 Q& L% b6 B6 {# w
  巴尔的摩发生了一件母女同时被害的残忍凶杀案,当地警官艾迈特(卢克·伊万斯 Luke Evans 饰)调查后发现凶手的犯罪手段和爱伦·坡(约翰·库萨克 John Cusack 饰)小说中的手段一模一样。正当爱伦·坡被叫去警局询问时发生了另一件凶手案,手法依旧和参考他的小说。了解到凶手的方法后,艾迈特邀请爱伦·坡担当顾问协助破案。而随着案件的进一步深入,艾迈特发现,爱伦·坡会成为这个残忍杀人凶手的下一个行凶目标。正当大家全力保护爱伦·坡的安全时,岂料凶手竟然绑架了的他情人艾米丽(爱丽丝·伊芙 Alice Eve 饰)。到底谁才是真正的凶手,爱伦·坡是不是能用自己的小说来揭开这场杀人的游戏呢?
; t* L% d9 |) Z
9 H0 v5 s% J) K4 w& q8 s- _0 b  When a madman begins committing horrific murders inspired by Edgar Allan Poe's works, a young Baltimore detective joins forces with Poe to stop him from making his stories a reality.
: A% J; ~! X# I$ l$ }% z" V) s% h) s
◎幕后揭秘  
& E. R/ U7 d, C  k' h- h
  b: I3 j- B% ]" ^3 S$ x8 I% b  《V字仇杀队》导演再拍恐怖电影* d! n( i% S8 \

: x  l. v% g; [- m! V/ X+ w  不管外界如何解读,詹姆斯·麦克提格的那部一鸣惊人的处女作《V字仇杀队》都是一部恐怖电影。虽然在此之后,麦克提格的发展并不一帆风顺,但是他还是在《乌鸦》中完成了对恐怖电影的又一次回归。对于影片中的哥特和恐怖这些风格化的元素,麦克提格并不陌生,因为在《V字仇杀队》中他就完美地展示了这些。麦克提格说:“恐怖电影的魅力是无穷无尽的,或许正因为如此,爱伦·坡才如此的经典。他的小说影响了每个人,影响了侦探小说、科幻小说和人们的审美等等。我被这个项目吸引来的原因很简单,就是因为其中有爱伦·坡和他的小说。一方面,这部电影讲述的是爱伦·坡生命中最后几天的故事;而另一方面,这部电影还改编了爱伦·坡的小说。对于我来说,这样的剧本和故事结构,太有吸引力了。这样的元素、剧情,对于一部古装片而言,非常的罕见和难得。”, D7 ~. Y( Q% B+ g' q0 c

% z  z4 m3 Y7 R6 K; G" v7 r* D  o  把一个连环杀手和一个知名作家的故事联系在一起,这并不是什么首创。但是在讲述爱伦·坡的故事中,这样的故事并不多见。影片导演詹姆斯·麦克提格坦言自己是爱伦·坡的粉丝,对于要把这么一个著名作家搬上银幕,他心里也很不安。麦克提格说:“我很喜欢爱伦·坡的诗歌,应该说是他的粉丝。对于爱伦·坡,我的情感是很复杂的,一方面他是文学名家;另一方面,他在这部电影里又扮演着一个犯罪分子的祖师爷的角色。这和汉尼拔那个角色有相似之处,但是又很不一样。所以,我只能按照最一般的办法去塑造爱伦·坡,去描绘和表现他。这样,应该才不会把他妖魔化或者是神化了。不过,归根到底,爱伦·坡并不是这部电影的重点,影片中的那种死亡的气氛和黑暗的感受才是。”
, A; G7 b2 T  _" W7 r2 v1 d+ y$ y& p9 }7 I
  约翰·库萨克扮演爱伦·坡8 `8 v5 f/ p! Z. `8 r2 e

$ @+ p6 K: S/ s" @; y! k& `: r9 D1 b  作为历史上赫赫有名的小说家和诗人,爱伦·坡的形象早已深入人心。虽然在这部电影里,编导并没有对爱伦·坡的形象进行颠覆,但是那种亦正亦邪,带有哥特元素的人物还是够其扮演者约翰·库萨克伤脑筋了。对于库萨克,麦克提格说:“在选择了好几个演员之后,我们才最终敲定了库萨克。我看中的是库萨克的气质和他的那种塑造角色的能力。在见到他之后,他对爱伦·坡的了解和熟悉程度早就超过了我的想象。和他谈妥扮演的事情之后,他又为这个角色做了很多的研究。我觉得,他真正地把自己放置到角色之中了。”
( u0 t8 r! I, M( G7 Z# s
4 B3 f/ B$ k: \$ Y6 L  谈及扮演爱伦·坡,库萨克说:“我做了很多的阅读,读了很多爱伦·坡的诗歌以及他的传记。我总是觉得诗人会比历史学家更懂得如何用文字去讲述历史。爱伦·坡就是这么一个人,他的文字,总是能恰如其分地反映出历史的真相和事件的本来面目。在电影中,爱伦·坡是一个聪明、谨慎的人。这么一个角色,留给我塑造角色的余地非常之大,而且这个故事也很有看头,无论是爱伦·坡、还是凶手,抑或是警长,都很有意思。片中的心理戏很多,主要都是在分析人物的心理、下一步的行动或者是按照他们的心理来设计下一部的计划。其实,电影中的爱伦·坡和警长,并不是新版的福尔摩斯和华沙的关系,这只是一种人物的互动和剧情而已。他们之间并不存在着什么不可或缺的合作者、帮手的关系。”
5 g1 Q  ^' i5 C0 U# z8 I: e
- D. l9 W% ~5 N+ a$ p
The.Raven.2012.1080p.BluRayCD.REMUX.DTS-HD.Master.x264-BEN
5 i) Y3 o$ P0 H) s1 e: e  g6 u& \! E; I( E! n' d# S3 W9 [
Video7 D& `  v$ o: C5 P1 g/ `" _  f( R- M5 m
ID                                       : 1
& U/ z* D  E  E) m) b5 f7 t& V/ AFormat                                   : AVC1 |- _3 K0 P! P' ~3 D
Format/Info                              : Advanced Video Codec& _$ U& {/ `0 ^0 y
Format profile                           : High@L4.1
8 l8 w% `% _7 F: K, d3 N& o! OFormat settings                          : CABAC / 3 Ref Frames$ r7 F9 P$ k. Y8 I
Format settings, CABAC                   : Yes
) @$ E* r6 {# Z: I* o' \Format settings, Reference frames        : 3 frames6 A( `4 M. P) b* H# l" x, }
Format settings, Slice count             : 4 slices per frame
* u+ D. c1 g) h* yCodec ID                                 : V_MPEG4/ISO/AVC
' L% c/ O% J& _: tDuration                                 : 1 h 50 min
) |5 l; B  o' EBit rate mode                            : Variable+ Y9 Q+ `1 n2 S# }) C- q
Bit rate                                 : 29.7 Mb/s" H/ t% v7 m  W
Maximum bit rate                         : 35.0 Mb/s+ E. L+ t# b; J
Width                                    : 1 920 pixels
. N9 V5 o. t% x3 f: w0 NHeight                                   : 1 080 pixels2 t& ^- P4 Y- l6 C
Display aspect ratio                     : 16:9
. y- Q! n4 K: f# R. \Frame rate mode                          : Constant
; N, ~" [. `$ ]  L4 t2 dFrame rate                               : 24.000 FPS
) |* V; H! u' k9 CStandard                                 : NTSC' b1 }. ]$ O" G0 U
Color space                              : YUV0 F+ `, [) p' q' s! m1 y
Chroma subsampling                       : 4:2:0
2 U& S, e) {" P7 SBit depth                                : 8 bits
9 u3 }: C$ H4 K1 U- n. pScan type                                : Progressive& n& x2 C* u: i$ `
Bits/(Pixel*Frame)                       : 0.597
  s; D/ i; ^$ Z" `Stream size                              : 22.9 GiB (89%)- F" D6 |/ I; A+ M" B. G; F. Q  H$ D
Title                                    : BEN.THE.MEN; i) O, \; h4 L$ q9 _8 l# H& h; V
Language                                 : English/ D# }5 S7 [8 }! p
Default                                  : Yes
( V) @; U) H6 v) L. e4 u9 i0 `Forced                                   : Yes
- G$ x& ?1 ]# x/ \3 n; M& o% y$ r8 GColor range                              : Limited
' G  S$ k* p( ]2 ~+ p, uColor primaries                          : BT.709* N- U$ {8 [* {5 u1 Y: w* u
Transfer characteristics                 : BT.709
1 A2 F5 E; T6 zMatrix coefficients                      : BT.709% Q- s5 }- Y, P8 }3 r& H
9 d2 Z- j' M- @; E
Audio #1
- P  I. U! t) X+ [+ oID                                       : 2/ C* r5 i+ H0 i" o5 I) I! }
Format                                   : DTS XLL
& \- _0 e. H; h3 S& [Format/Info                              : Digital Theater Systems7 s" |$ R7 ~. P/ a4 ?6 @' h
Commercial name                          : DTS-HD Master Audio* S8 @% P( n2 x% P
Codec ID                                 : A_DTS1 I7 q& w& |4 A( H
Duration                                 : 1 h 50 min; |2 |% a! _5 e
Bit rate mode                            : Variable* G4 B+ Z7 h/ i6 g# [  p$ e) e
Bit rate                                 : 3 291 kb/s- H4 Y3 z: K1 W( E4 O5 h
Channel(s)                               : 6 channels
4 d2 g- X! {$ n/ ~. w. k9 L- UChannel layout                           : C L R Ls Rs LFE' h6 v& o& |9 w+ i) C
Sampling rate                            : 48.0 kHz
- ?- v9 H' i$ q* Y6 B2 b  _Frame rate                               : 93.750 FPS (512 SPF)
4 r, d7 [5 b. Z3 k9 t; tBit depth                                : 24 bits
7 ?6 W- |% g9 `Compression mode                         : Lossless' h$ h! J. Q: b3 x
Stream size                              : 2.54 GiB (10%)! |6 K+ B4 b- k; q
Title                                    : BTM DTS-HD Master
8 j) x8 j, @* C2 ^: _Language                                 : English& ^$ S" ^4 ]% {
Default                                  : Yes
5 n5 V5 O$ b7 i% EForced                                   : Yes
( b: y" E: o/ Z- F: v1 a) F4 `3 X7 y2 F1 S
Audio #2, @: ]* Q' m! z2 }
ID                                       : 38 D# P0 n3 j* ]6 a7 Y/ [2 E
Format                                   : AC-3
6 h: h7 t; @1 |* ^! ~/ tFormat/Info                              : Audio Coding 3
; R- {6 i8 A( _Commercial name                          : Dolby Digital1 b. r  p% |# w2 l
Codec ID                                 : A_AC30 s) L& ~  ^" Y; Z- S3 Z  R
Duration                                 : 1 h 50 min
: Z- ?* s0 R( R* S* ?Bit rate mode                            : Constant9 g9 r3 l8 Y2 z6 j
Bit rate                                 : 192 kb/s' F) L0 u7 O8 G0 O5 z4 ^9 u
Channel(s)                               : 2 channels
* R+ I7 x& _# ^" oChannel layout                           : L R
4 `: E2 U/ S* n' ]# |Sampling rate                            : 48.0 kHz
2 x4 C" g- \: T, TFrame rate                               : 31.250 FPS (1536 SPF)& X% d; S% d) o# k/ m( ?/ I) Z
Compression mode                         : Lossy
  ]/ x' w9 Q9 @0 C1 MStream size                              : 152 MiB (1%)
( t, c* s9 C! q1 gTitle                                    : BTM DD 5.1( W6 c4 \6 V  O& o" q3 @$ G$ ?
Language                                 : English9 |! m  D! }/ ?% W' F
Service kind                             : Complete Main
7 q7 z2 O) I0 g7 m! W, YDefault                                  : No
2 u  b& s* |8 }Forced                                   : No
6 ~- Q# ~: e( B+ e4 q8 R! EDialog Normalization                     : -31 dB
# D. }. i8 M; C+ Ecompr                                    : -0.28 dB0 F+ Z/ o! }7 W" u8 t0 H
dialnorm_Average                         : -31 dB
  C5 \* E  f3 x3 ~+ M3 Xdialnorm_Minimum                         : -31 dB
" P& u+ T9 T6 O4 q9 udialnorm_Maximum                         : -31 dB3 H2 O8 T4 Y, U8 I$ M
3 d5 O9 e3 j, y+ t
ENG SUB ONLY

9 e! u, t3 C  {3 [4 w5 ]
游客,查看本帖隐藏内容请回复 | 加入VIP可免积分免回复 了解详情 | 还不是会员:点击获取邀请码 Invitation Code

本版积分规则

小黑屋|手机版|Archiver|4K蓝光论坛

GMT+8, 2024-7-21 06:24

Copyright © 2001-2021, Gadaddy Cloud.

快速回复 返回顶部 返回列表