BluRayCD Forum

 找回密码
 立即注册【分享大片】
查看: 89|回复: 2
收起左侧

[4K极清视频] 狂野之美:国家公园探险 [4K REMUX无损版] America Wild National Parks Adventure 2016 DOCU 2160p BluRaycd REMUX HEVC HDR DTS-HD MA TrueHD 7.1 Atmos-FGT 17.33GB & 19.80GB

[复制链接]

5588

主题

5937

帖子

6万

积分

Forum Moderator

金币
4529 枚
体力
25890 点

卓越贡献勋章VIP蓝光勋章

迅雷电影 发表于 2018-9-16 00:19:06 | 显示全部楼层 |阅读模式
01.jpg
$ z/ c1 `5 X8 [/ q# B
2 Y* x" k# l; a# _◎译  名 狂野之美:国家公园探险
5 q: O' A. [0 o' V◎片  名 National Parks Adventure / America Wild National Parks Adventure
  A/ f' y/ i7 ~0 [◎年  代 2016
' u" F' z+ C2 t8 n7 b, l  B◎产  地 美国) \( T2 k) T$ l5 J! O& N
◎类  别 纪录片/短片
: C2 V+ }% ~& d) @8 X◎语  言 英语& g0 E5 L4 l/ }( ^- `0 t
◎上映日期 2016-02-12(美国)6 d8 Q$ e6 s- u/ @5 a
◎IMDb评分  6.9/10 from 437 users* Q* N# `9 A% j
◎IMDb链接  https://www.imdb.com/title/tt5568164/
' _: O# T3 N' w- O/ W3 d◎豆瓣评分 8.9/10 from 151 users
: |' c! R# V. I+ {# C◎豆瓣链接 https://movie.douban.com/subject/26724827/* C) }) _$ t$ H& [0 x& @. [
◎文件格式 x265 + DTS + TrueHD
# a# U( m$ @, P: C◎视频尺寸 3840 x 2160
/ A9 h) H9 h1 Z  J3 L, K7 j◎文件大小 1DVD 17.33 GB & 19.80 GiB# U' @: c+ t9 |7 g( n) G+ R
◎片  长 43 min 25 s, b* e4 p9 J* x! K0 }
◎导  演 MacGillivray Freeman7 I: U" D) X. [- a6 u( [
9 e# ]6 y8 y/ m' |
◎简  介" c, T: ?" F' `9 W2 c7 J2 F  r, }3 t

2 y' i; W: ~! Q* a  H5 ?3 l2 n  Narrated by Robert Redford, this documentary tours the awe-inspiring landscapes, historic sites, and untamed wilderness of America's great parks.% o8 W8 A3 s% k4 r8 e

0 q+ @5 S+ Z  X2 Y' ~" o. m- I  Coinciding with the National Parks Centennial National Parks Adventure celebrates America's natural wonders. Narrated by Robert Redford it follows a trio ofadventurers and revisits Roosevelt and Muir's camping trip when the Park System was born.0 b! r* g% N' @1 v6 z, e3 D1 ~

% R/ r0 l& q8 S, A9 x0 M1 c5 v: }7 A4 E+ }1 Q7 f' c: \& k
1 e& o1 l& x; O* Z
Video1/ [8 F' W: ~% @4 x  }, d
ID : 1
, X" N5 n9 Q5 I2 o* t8 \' fFormat : HEVC
7 }6 `- i6 ?" Y  ?. W/ t, A" \Format/Info : High Efficiency Video Coding
5 ?( B" t2 I/ ?$ c; M+ iFormat profile : Main 10@L5.1@High
; ]: Q* E7 ]* ?Codec ID : V_MPEGH/ISO/HEVC$ y# ^) M/ I+ {- E
Duration : 43 min 25 s
% i2 {3 p( r+ p! R( X. d8 R7 ]  Z9 aBit rate : 39.8 Mb/s, s5 {. d! Q' _, q0 e* l4 M; m
Width : 3 840 pixels
& o0 _, F+ Q4 w/ x' O; }( ^Height : 2 160 pixels: ?1 j* t6 L7 Z8 P4 F
Display aspect ratio : 16:9
: O: S/ {9 l# c, a# [  DFrame rate mode : Constant
0 t4 q% R0 ^+ ^Frame rate : 23.976 (24000/1001) FPS
; m) I( n% ]$ m; I' w/ IColor space : YUV0 {6 h7 S( E  C* y3 J+ n  V
Chroma subsampling : 4:2:0, n" I6 Y( ~: N# I+ H, B3 k
Bit depth : 10 bits
4 a! e+ T3 b2 j$ O7 l, Y. `Bits/(Pixel*Frame) : 0.200* t6 y) o8 P: q5 ~5 l
Stream size : 12.1 GiB (70%)
7 }8 L. b# a! t- E  x7 C5 JTitle : America.Wild.National.Parks.Adventure.2016.DOCU.2160p.BluRayCD.REMUX.HEVC.SDR.DTS-HD.MA.TrueHD.7.1.Atmos-FGT
  |4 f7 D; `# k' ]8 s9 `Default : Yes
& H1 Q! |9 G( I7 vForced : No) X" l8 |: [7 Y* \+ p
Color range : Limited
' w8 j1 {. q( B; zColor primaries : BT.709  o1 {) w* N" a/ b; w$ \; Z5 l, O+ ]
Transfer characteristics : BT.709
4 E5 H) a: ]. S# f' M* w. C3 c% f) wMatrix coefficients : BT.709
* q$ d+ O( v! R6 V  Z: U) Y' l0 y; {5 X, X5 Z% [. L9 u
Audio #1. x3 {5 I0 |! s% \8 O$ D7 ]
ID : 2
7 l- K7 P* Z2 @/ o- m" j, vFormat : TrueHD, F. Z+ B  x% l. n
Format profile : TrueHD+Atmos / TrueHD
/ v* a5 e" P( E- l( b) i) KCodec ID : A_TRUEHD
9 o0 g: L) d& w7 d5 `Duration : 43 min 25 s
) K: F5 t: a+ aBit rate mode : Variable2 _- a! B. k0 u' z/ k
Bit rate : 4 365 kb/s
& Z; A. P4 _. ]: W% t3 uMaximum bit rate : 6 987 kb/s$ r! e+ F: \: D: S; n
Channel(s) : Object Based / 8 channels& x2 n- J0 J5 d, i& r
Channel positions : Object Based / Front: L C R, Side: L R, Back: L R, LFE' b5 X! c" N  D$ \2 ^$ i* `/ |
Sampling rate : / 48.0 kHz
5 S. J9 M* @+ aFrame rate : 1 200.000 FPS (40 SPF): ]8 b8 U9 {+ v. p7 ^8 g" b
Compression mode : Lossless
) U. M4 k. y9 pStream size : 1.32 GiB (8%)
! f% L' x8 x6 K: g' c, E( bTitle : America.Wild.National.Parks.Adventure.2016.DOCU.2160p.BluRaycd.REMUX.HEVC.SDR.DTS-HD.MA.TrueHD.7.1.Atmos-FGT
8 K8 X- `, _# U4 O; ]: VLanguage : English
7 i1 L( d) s' J/ r' ZDefault : Yes
  f! ~) f: o" c: Z0 Z/ H7 jForced : No0 p  y: o; g, V2 A# L- ?

$ M% n' J/ m' N, j4 ^1 b# PAudio #2
* T" y5 E' O. eID : 3. j8 c0 L5 E" F! @, B
Format : DTS
& ~1 f4 {, z1 L/ E# uFormat/Info : Digital Theater Systems
5 N! T) B& ?- e7 sFormat profile : MA / Core
: _' {6 n$ H* W& k& G2 ]Codec ID : A_DTS
8 X, C6 e4 L9 t$ m) {7 wDuration : 43 min 25 s" F7 ?! `/ ^3 B( S" t" H
Bit rate mode : Variable / Constant+ F) [' D5 D' h( }1 L1 i$ w" _- N6 ]0 P
Bit rate : 4 498 kb/s / 1 509 kb/s2 o# N8 p- J9 H6 u
Channel(s) : 8 channels / 6 channels! c- W$ p. B8 o
Channel positions : Front: L C R, Side: L R, Back: L R, LFE / Front: L C R, Side: L R, LFE
. k' v4 n  E; m# [Sampling rate : 48.0 kHz3 Q; b3 w; v, t' T7 [
Frame rate : 93.750 FPS (512 SPF)2 z+ ~2 g0 C  ~- N
Bit depth : 24 bits
" A+ {, H: s& `5 V" J' SCompression mode : Lossless / Lossy, f4 y: ^5 h* p" C  @: s
Stream size : 1.36 GiB (8%)
( q; F; K& [4 Z5 q1 V0 ~" v- lTitle : America.Wild.National.Parks.Adventure.2016.DOCU.2160p.BluRaycd.REMUX.HEVC.SDR.DTS-HD.MA.TrueHD.7.1.Atmos-FGT1 Q2 ?! _! J3 p$ T
Language : English
! {7 F+ f+ x; ~- J2 B; z6 ^( M0 j& oDefault : No
% ^) k# Y' o) [$ p5 nForced : No7 b3 C  i2 v- {$ T2 C

. ^8 m' ~5 v$ c- W0 S# b5 z( Y+ @Audio #3. s- Q- ?. n+ V2 g' m
ID : 4
8 z. b+ u3 @$ d! y" m9 gFormat : AC-3  z/ P( c  h0 U" X6 T  s" m
Format/Info : Audio Coding 3
- b4 _2 ]* p5 pCodec ID : A_AC3
% X0 S9 S- e: F- T6 t: c# WDuration : 43 min 25 s$ |: K! ^7 u, k# [4 C
Bit rate mode : Constant3 h8 W+ L2 l; t; o- r
Bit rate : 640 kb/s
1 z8 X' C) U! eChannel(s) : 6 channels6 n2 {4 Y; ]- W7 V  I$ b. P
Channel positions : Front: L C R, Side: L R, LFE& m! P; L2 W9 w2 Y
Sampling rate : 48.0 kHz) {4 Z4 e( m$ b
Frame rate : 31.250 FPS (1536 SPF)! |4 A2 [2 u1 p/ K  h1 j) T; z
Bit depth : 16 bits, k) X% `9 w% d3 i+ J& i
Compression mode : Lossy6 X7 Q* d3 H' y% n+ U
Stream size : 199 MiB (1%)
! T( Q) u- E( X4 ]# u: }. i# K7 yTitle : America.Wild.National.Parks.Adventure.2016.DOCU.2160p.BluRaycd.REMUX.HEVC.SDR.DTS-HD.MA.TrueHD.7.1.Atmos-FGT
, E* N3 ]9 W  y4 @& F$ ILanguage : English
3 z0 k) ?7 z0 Y& e8 x5 Z$ d$ d8 p# AService kind : Complete Main
/ c* O- h% P2 C3 }Default : No3 R( s  S1 C( {- ~+ t
Forced : No* W; D; m& m: I+ @* Z7 }1 ]9 M" P

$ U5 y, }1 N3 Z' q/ i0 [Audio #4" i7 I1 S, t+ o, D3 _
ID : 5( r- }: c$ p+ M! N' ~
Format : DTS2 @" Y8 |$ S$ D. X
Format/Info : Digital Theater Systems2 Q6 i0 r8 t9 d8 T" o4 p5 Q9 o
Format profile : MA / Core
" m0 Q1 f5 r. @4 mCodec ID : A_DTS
1 {! l6 v: p9 F( S& ?' Q( E9 i  y* _" HDuration : 43 min 25 s
" d/ h# E3 {) w" O- ?+ zBit rate mode : Variable / Constant
2 h& `! F! w" F; z4 c# g# u1 `Bit rate : 3 840 kb/s / 768 kb/s. @& F; G' n& d- o; |
Channel(s) : 6 channels4 Z. w2 X/ X: m* A  L. v0 G+ b/ j# o
Channel positions : Front: L C R, Side: L R, LFE
+ S, s9 q: J& [) V, KSampling rate : 48.0 kHz8 N& B8 X( r" B/ ?! q
Frame rate : 93.750 FPS (512 SPF)
4 j2 ^# u. O0 V5 \Bit depth : 24 bits" I) f/ |  U1 ?0 L5 W6 |2 G
Compression mode : Lossless / Lossy: G4 M+ z- ]" X$ l- L" k
Stream size : 1.18 GiB (7%)
( b) b" ^  G2 q8 FTitle : America.Wild.National.Parks.Adventure.2016.DOCU.2160p.BluRaycd.REMUX.HEVC.SDR.DTS-HD.MA.TrueHD.7.1.Atmos-FGT, f. y/ b+ A$ P, R
Language : French5 A" ^) G4 W7 C/ K  N3 {2 A7 \
Default : No( O6 P% y% `. X" t. [
Forced : No; s' W$ w$ W( p8 X; A9 E5 y2 h9 L# W
  o: C+ H6 L  y7 A
Audio #5
* s% p. F4 C  [; z8 M+ HID : 6
, l! u6 o# a' d! d2 w1 P! lFormat : DTS
% w% J" Y/ n+ ?# z, m- U7 p% F9 s6 LFormat/Info : Digital Theater Systems" o' R5 T  M' i: g7 g) R
Format profile : MA / Core4 i& y6 r/ p. S' C
Codec ID : A_DTS1 g- Q' L/ N2 c8 j
Duration : 43 min 25 s
2 {. S) E9 S4 L) N% lBit rate mode : Variable / Constant
6 e- f% y6 k' K  D% K, MBit rate : 3 840 kb/s / 768 kb/s* R; r! F6 N+ T! `$ p
Channel(s) : 6 channels# T- s! X% e3 H, y, w$ [/ z# M2 Y- w
Channel positions : Front: L C R, Side: L R, LFE! }  l! ~$ e- C' C# W  O
Sampling rate : 48.0 kHz
* }, T3 \; l7 \9 iFrame rate : 93.750 FPS (512 SPF). c1 c2 D' ]3 o" w: M  {) `
Bit depth : 24 bits( y! I2 |9 c7 b8 \, P2 ~
Compression mode : Lossless / Lossy
7 |; x9 h9 c! H5 H# @" v1 NStream size : 1.18 GiB (7%)
3 u6 \# t) A6 g/ }3 n( C1 u# BTitle : America.Wild.National.Parks.Adventure.2016.DOCU.2160p.BluRaycd.REMUX.HEVC.SDR.DTS-HD.MA.TrueHD.7.1.Atmos-FGT
0 h4 B" z/ Q% pLanguage : Spanish
! }, S7 N' L) SDefault : No
2 e( J0 I" v) ]$ V" a: aForced : No$ p1 a1 ?1 c& p5 Z0 ?& M
1 ]) F8 q4 m% ^
Text) R2 I' i, `( N5 e/ n" z
ID : 79 }+ k" p: m8 I. Y
Format : PGS
6 Y% s: c; C3 KMuxing mode : zlib1 a4 x0 N% {- R( e
Codec ID : S_HDMV/PGS4 p# J) {4 \3 M7 L
Codec ID/Info : Picture based subtitle format used on BDs/HD-DVDs. l+ H6 H$ h* i: W2 Z- g6 Q& O
Duration : 42 min 55 s
( _9 X3 o9 Q: Z6 i" nBit rate : 20.8 kb/s$ a& p# U) L; ^* ^8 i  C
Count of elements : 1154
% |0 K6 h  |% n- x) RStream size : 6.40 MiB (0%)
0 M( n( P" E: [Title : English-PGS
- ]9 z% L" @% M: yLanguage : English
1 @. u( v" t7 iDefault : Yes2 S& U6 n! a  V2 }' v, b
Forced : No
1 i. e/ i! G/ q) S
% A$ T* D5 z+ I; [( [% T, o3 YMenu4 ?( z3 L6 [, g
00:00:00.000 : en:Chapter 1
0 v8 {! m% ^0 Q! V2 p( G; f6 x00:03:46.351 : en:Chapter 22 P" A. |+ Y# r9 b3 M
00:06:26.010 : en:Chapter 3
' ~8 k  r. f  p( q8 ~00:08:34.555 : en:Chapter 4
# f5 g( n( c2 |$ H" a* t4 f- X1 t00:10:32.214 : en:Chapter 52 x6 Q1 u1 ?0 N) |5 p
00:15:50.240 : en:Chapter 6
7 a9 W) J& l% Q7 G% K00:18:46.124 : en:Chapter 71 s# Q) W5 }# R0 r& i
00:23:19.523 : en:Chapter 8% s, x+ y2 n0 l  _# ^
00:24:24.254 : en:Chapter 9& F9 w1 S% `; s% n+ P
00:29:59.297 : en:Chapter 10
5 Z8 J/ Q4 ?# ]  f9 @2 w% o00:33:36.597 : en:Chapter 11
. S: X6 ^. K, o00:36:01.617 : en:Chapter 123 X  B6 `2 _/ z3 s* V
00:39:09.221 : en:Chapter 13
2 G/ v1 J! D8 y0 U  i6 P00:42:38.180 : en:Chapter 14. H9 V8 @: e. B7 [- ?! n/ h

; E- g& R) c- ZVideo2
: L4 B* W4 ?1 p5 e" ?* ~0 o1 IID : 1
$ {! q" a# T- ?5 g4 `- ~0 @Format : HEVC
% S, i0 ?- G- CFormat/Info : High Efficiency Video Coding
! J+ H- ?+ E" i2 R8 MCommercial name : HDR10
% ^0 e0 J' L0 F6 QFormat profile : Main 10@L5.1@High: B- E5 Z  K# i( S, L" y
Codec ID : V_MPEGH/ISO/HEVC* s4 _; x% b; U2 T. i3 v
Duration : 43 min 25 s
/ X. w6 o( \  F6 P7 v1 ?Bit rate : 47.9 Mb/s# t; m( }+ c+ k- c, E
Width : 3 840 pixels
9 q& Q# C7 O+ Z5 K; NHeight : 2 160 pixels3 U. O7 {: J/ f3 k
Display aspect ratio : 16:9# H8 W3 O" B" ~& b$ r8 _
Frame rate mode : Constant
- u$ x7 p3 W9 g5 j4 @1 V8 `5 m0 vFrame rate : 23.976 (24000/1001) FPS( H+ Z( G5 L- I( Y
Color space : YUV8 ?) W; H' G. n- c% X8 ~, r
Chroma subsampling : 4:2:0 (Type 2)# U( v; D& ~% o, `
Bit depth : 10 bits4 _( v2 v) G  s; N  o1 Q, M
Bits/(Pixel*Frame) : 0.241* A/ O2 H' G+ x8 X- ]) `
Stream size : 14.5 GiB (73%)# Y( K2 r5 `0 X( T1 \% F. B
Title : America.Wild.National.Parks.Adventure.2016.DOCU.2160p.BluRaycd.REMUX.HEVC.HDR.DTS-HD.MA.TrueHD.7.1.Atmos-FGT
  S2 l, ?2 L- b4 C) QDefault : Yes
, x8 w6 ]6 Z- b, bForced : No
+ c# ]: ?6 B: F  EColor range : Limited
: p! J( P' F0 s1 r4 l0 EColor primaries : BT.2020' s; M7 t- ^1 G5 i# ]
Transfer characteristics : PQ( a6 s7 m2 O9 N& f
Matrix coefficients : BT.2020 non-constant9 e, c) Q5 t: m- d- a* ?1 c
Mastering display color primaries : R: x=0.680000 y=0.320000, G: x=0.265000 y=0.690000, B: x=0.150000 y=0.060000, White point: x=0.312680 y=0.329000# e. }: V- n" g3 h8 N  O, e
Mastering display luminance : min: 0.0000 cd/m2, max: 1000 cd/m21 k1 X5 F4 V; j$ L8 Y4 R% @% W- k2 y
Maximum Content Light Level : 304 cd/m23 l3 U$ M9 b: y4 B
Maximum Frame-Average Light Level : 99 cd/m2
6 y& n1 E; [* Z; b' C+ H; P6 g' Q( |" Q( B
Audio #1
3 n9 P4 T- v2 R/ }* P: z9 rID : 2
0 U% G8 c5 `. \% MFormat : TrueHD# C5 |9 w0 ?. V/ i: V' v
Format profile : TrueHD+Atmos / TrueHD, P) ~* w2 H! B' F6 ]
Codec ID : A_TRUEHD
2 x: Y2 L+ b( x6 X1 p# _9 c9 B) RDuration : 43 min 25 s7 ~" j6 w( R# w- ~0 ~( M
Bit rate mode : Variable
& D) r% P( f) {7 {$ W$ `Bit rate : 4 365 kb/s# v, e: \' p5 L; a  ?" t. j/ D- }
Maximum bit rate : 6 987 kb/s
" U0 Y. n0 I( c( b' u) J9 mChannel(s) : Object Based / 8 channels3 A/ D* z. J; t  H- F
Channel positions : Object Based / Front: L C R, Side: L R, Back: L R, LFE* J' Z2 U% U9 _. J# Z* i! U
Sampling rate : / 48.0 kHz
( Y4 ~& D1 E5 Z# d: G; FFrame rate : 1 200.000 FPS (40 SPF)) u, y4 ~2 S. w) H8 v  m! E
Compression mode : Lossless
. B# }$ s# d% V0 f2 i3 o6 M. XStream size : 1.32 GiB (7%)6 R+ x7 o0 x8 n2 u6 o5 G) ]. e6 u
Title : America.Wild.National.Parks.Adventure.2016.DOCU.2160p.BluRaycd.REMUX.HEVC.HDR.DTS-HD.MA.TrueHD.7.1.Atmos-FGT
" j" x) U; s5 r' u% g1 ]Language : English' R1 u$ U- O& {3 z% }, J: f
Default : Yes8 L9 |& I( A& K, B' N
Forced : No
5 z2 L6 q. h. }, v, b* m- r  O9 v6 L- P. Q0 l
Audio #2) }  K' O' S! ]
ID : 33 |/ B; i/ {. b1 i
Format : DTS4 e" Q1 C/ i0 ~2 d
Format/Info : Digital Theater Systems/ e/ c8 g+ M" k% a" z% z
Format profile : MA / Core
" z) ^, r0 |) Y% nCodec ID : A_DTS' A$ }" y/ i, O9 T0 p7 z2 \$ i9 E
Duration : 43 min 25 s
6 k* B/ ^) \2 m! q( r4 n2 |7 DBit rate mode : Variable / Constant! U; D1 f( Y* c2 T) S5 ?
Bit rate : 4 498 kb/s / 1 509 kb/s: i' v6 t; Q; o" _3 e
Channel(s) : 8 channels / 6 channels6 _! _3 a( V, w0 o
Channel positions : Front: L C R, Side: L R, Back: L R, LFE / Front: L C R, Side: L R, LFE1 u& S% {6 T1 M2 Z* {
Sampling rate : 48.0 kHz: `* w& Q7 X: O2 A) M( N
Frame rate : 93.750 FPS (512 SPF)
7 b/ i3 y1 L8 \3 Q2 c) BBit depth : 24 bits
! e; f% k( @: S8 \; m# c3 J6 z. fCompression mode : Lossless / Lossy
5 Z( v7 m" c) J9 p9 |( [5 pStream size : 1.36 GiB (7%)2 H! F8 Z2 Y# \; R
Title : America.Wild.National.Parks.Adventure.2016.DOCU.2160p.BluRaycd.REMUX.HEVC.HDR.DTS-HD.MA.TrueHD.7.1.Atmos-FGT, f) P/ i; f1 s; q3 `  E1 X
Language : English
+ i1 z' H: y, P9 G1 _Default : No
' q7 X' `' q0 mForced : No6 d  Q0 u% L5 U+ x' n# s

! Q  {2 u: s6 w+ _Audio #3
& m$ A" c, G: ~0 H  E- `" YID : 4
/ u( x9 f) |# n0 Z7 H; p4 K7 ]: J$ `4 M. IFormat : AC-39 k2 e( L, N$ k' M9 a  c& D
Format/Info : Audio Coding 3
) l; I, L; n  XCodec ID : A_AC3
6 e! p+ D7 o; ]Duration : 43 min 25 s3 M4 @7 G$ B3 J' C
Bit rate mode : Constant
: \+ o  ]9 Q- P8 g1 z, r1 aBit rate : 640 kb/s6 \+ @4 H' S% C
Channel(s) : 6 channels7 U6 J7 u0 ?0 O  T5 P3 c* b
Channel positions : Front: L C R, Side: L R, LFE" e; v( ^) t% T
Sampling rate : 48.0 kHz
+ u& u1 L7 ^. o- O; l' `Frame rate : 31.250 FPS (1536 SPF)0 z/ X5 G: E( V1 p5 ~& t3 K
Bit depth : 16 bits& F, s8 U" S$ u2 k( d5 q% v
Compression mode : Lossy
% Y( F3 A! j4 i/ B: J. T5 vStream size : 199 MiB (1%)" J) i3 e; P5 \3 f; u
Title : America.Wild.National.Parks.Adventure.2016.DOCU.2160p.BluRaycd.REMUX.HEVC.HDR.DTS-HD.MA.TrueHD.7.1.Atmos-FGT! `, w& j8 Q- C, p( E" s) G! r( ?
Language : English
( c. u9 A! g5 [% s- jService kind : Complete Main; ]( a9 z+ l# z( ~2 r0 t
Default : No
) S3 L( _( g+ E8 ^$ z& s( e% R& z% aForced : No1 q* X! L; H2 m! W# D

4 Q, I# W2 n9 IAudio #4' `* f2 J4 T/ O
ID : 5
; c* y- {& f/ M: D4 F2 WFormat : DTS
0 ?2 T& o& m/ g# J9 u' u5 {. i4 fFormat/Info : Digital Theater Systems9 K) l: j5 q1 H# z
Format profile : MA / Core! ^& V5 b4 Y9 k# J$ [, r
Codec ID : A_DTS" Z& n/ _7 K0 E
Duration : 43 min 25 s1 v! Z. r- q/ }  v- c* {
Bit rate mode : Variable / Constant
) v. ?* N) A; D/ C: w: A6 O$ wBit rate : 3 840 kb/s / 768 kb/s
" y6 N0 [5 Q+ o/ J6 y2 Z; q) sChannel(s) : 6 channels; \9 q0 d/ c" B6 z# d1 x  G
Channel positions : Front: L C R, Side: L R, LFE
8 z) ?# X# l8 c( i: a7 }# BSampling rate : 48.0 kHz
7 u* t8 \+ W' m0 a1 T' Z8 wFrame rate : 93.750 FPS (512 SPF)
! [6 T6 g* \* v, x9 NBit depth : 24 bits
: _$ v* Z  T, `( C# v. ICompression mode : Lossless / Lossy8 n. P! `/ W) P
Stream size : 1.18 GiB (6%)+ ~$ w! C; q3 s& V
Title : America.Wild.National.Parks.Adventure.2016.DOCU.2160p.BluRaycd.REMUX.HEVC.HDR.DTS-HD.MA.TrueHD.7.1.Atmos-FGT
2 `9 ?  }, r* \+ L$ V) b3 Q# sLanguage : French6 i& o* t$ k+ T, n
Default : No& s, b3 L9 h  s+ a4 F; \: z; v
Forced : No
  ^% h4 R% l6 {2 t, f! f0 l7 H) d8 d( C( t
Audio #5. M' S) h, ^/ l( w1 s/ S
ID : 6
8 |( Z4 ?9 V. ]; k# C0 OFormat : DTS7 K' E5 k+ ?% }' |- ]  D
Format/Info : Digital Theater Systems
2 d5 x$ o8 e) b; V/ YFormat profile : MA / Core) P/ N. }0 _* S! _
Codec ID : A_DTS6 q0 x( M; N) X( X2 y- h% u2 _
Duration : 43 min 25 s
- ^2 |: g* q; RBit rate mode : Variable / Constant- }2 P6 [& e7 y- u0 D
Bit rate : 3 840 kb/s / 768 kb/s0 L. b2 g% {2 q, j6 w  I( ~
Channel(s) : 6 channels
; |, E' m4 y& W# `Channel positions : Front: L C R, Side: L R, LFE
& y7 m) n' M( I5 z  v; TSampling rate : 48.0 kHz* U2 _! Y# H. ^
Frame rate : 93.750 FPS (512 SPF)
4 J6 E! r1 s' e2 VBit depth : 24 bits
+ I- [* _+ {% R5 F" g/ s7 FCompression mode : Lossless / Lossy1 f1 c( T8 O: h. q% X
Stream size : 1.18 GiB (6%)
# T: }# [, B% P) p- q' P" YTitle : America.Wild.National.Parks.Adventure.2016.DOCU.2160p.BluRaycd.REMUX.HEVC.HDR.DTS-HD.MA.TrueHD.7.1.Atmos-FGT
" Y+ q! c& {# Q1 W" C$ ILanguage : Spanish- f) l+ q" o( k" S. r& [) E& }2 A
Default : No& y+ i& `1 m0 F* F; {
Forced : No) g' t/ w( J  s- u/ B: Q$ }1 E& m% ^

( `: z- s) x5 N$ B  J' r6 `Text
4 U8 o8 O3 c* [" ?& GID : 7
' Q" I' R. Y$ J$ YFormat : PGS
! a8 L+ H) R% `1 aMuxing mode : zlib
+ j5 ]9 N& K$ a3 F# }+ K! \* `Codec ID : S_HDMV/PGS
% P0 {8 u2 b1 T- @Codec ID/Info : Picture based subtitle format used on BDs/HD-DVDs5 U, Q: u! I8 L! m
Duration : 42 min 55 s
% s: O& x0 V' N) @% ], F& B. k- I' iBit rate : 20.8 kb/s6 z. B, x1 T4 ^1 d* D
Count of elements : 1154) P, u+ t$ J, h( H
Stream size : 6.40 MiB (0%)1 V1 y8 x9 n6 D( H
Title : English-PGS
" l5 h' {, ^7 Q; aLanguage : English
' Q' s/ P3 }6 [+ E2 p! l; DDefault : Yes% \: F& x* }6 I' ~% ?1 [- X
Forced : No% }0 ?2 {1 E8 ?; \2 _* T

. [  R: ]/ E6 sMenu
9 E$ k8 A8 ~! u' L& Z( K" i00:00:00.000 : en:Chapter 1
2 j8 `+ z: e( m- |5 y00:03:46.351 : en:Chapter 2
6 O$ b: w6 p1 O0 ^1 U00:06:26.010 : en:Chapter 3% s8 H6 d8 C& q, ?9 p
00:08:34.555 : en:Chapter 44 @! w! j% R, H( a
00:10:32.214 : en:Chapter 5
, H0 M. h: c, U+ N00:15:50.240 : en:Chapter 6
- u: b. v) M& _& M' n! `2 E! x00:18:46.124 : en:Chapter 7
5 e3 H' o7 G3 q! K. W3 m  ]00:23:19.523 : en:Chapter 8- O  z! a. f- v4 N7 X
00:24:24.254 : en:Chapter 9
2 ^9 V* b: ?/ H: l( |00:29:59.297 : en:Chapter 10) b& M1 L0 E+ l; \/ F+ O5 k
00:33:36.597 : en:Chapter 11
, B8 |; d: k& S$ L& N. T6 i; r00:36:01.617 : en:Chapter 12
1 m% s$ s5 P- g3 ]& S00:39:09.221 : en:Chapter 13
9 j1 z) W6 r' |7 m: E6 e) Y$ m00:42:38.180 : en:Chapter 14
& F- e9 t4 @, ^* t: |  G* H8 Q
游客,查看本帖隐藏内容请回复 | 加入VIP贵宾可免积分免回复 了解详情 | 还不是会员:点击获取邀请码 Invitation Code

76

主题

3416

帖子

1万

积分

Sponsor

金币
1732 枚
体力
4888 点
lanpanshuma 发表于 2018-9-26 18:58:12 | 显示全部楼层
这么好的帖子不回对不起自己!
) e& n* q. g1 n: f5 f要想蓝光电影论坛发展好,资源多,就靠你我他!To the development of Blu-ray movies forum, resources and more depend on you and me!
/ W% U. [* ~  ~* {8 C3 {0 i& x4 z" [

0

主题

21

帖子

194

积分

Sponsor

金币
105 枚
体力
42 点
皮皮是只猪 发表于 2021-5-11 13:47:38 | 显示全部楼层
感谢楼主分享
$ B* [- p( h# b( l" ^- S) t

本版积分规则

小黑屋|Archiver|蓝光电影资源网

GMT+8, 2021-10-25 19:16

Copyright © 2001-2022, Tencent Cloud.

快速回复 返回顶部 返回列表