BluRayCD Forum

 找回密码
 立即注册【分享大片】
查看: 10|回复: 0
收起左侧

[2160P极清] 狂野之美:国家公园探险 [4K SDR高码版] America Wild National Parks Adventure 2016 DOCU 2160p BluRaycd x265 10bit SDR DTS-HD MA TrueHD 7.1 Atmos-SWTYBLZ 14.83GB

[复制链接]

6116

主题

6290

帖子

7万

积分

Post Share

金币
14356 枚
体力
20444 点

卓越贡献勋章

黄金嫖客 发表于 2021-9-15 05:45:43 | 显示全部楼层 |阅读模式
0 O2 P( Q) w- e/ y# J/ {- [1 i

5 i* s1 z! A' o◎片  名 National Parks Adventure / America Wild National Parks Adventure& N6 c# q0 }9 J* Y
◎译  名 狂野之美:国家公园探险
% E! _2 ]7 S$ A9 E◎年  代 2016
8 r8 w2 a4 E5 S; b◎产  地 美国
8 m8 X" N4 C% R  N◎类  别 纪录片/短片
+ ^4 J8 O8 G% {2 w' S◎语  言 英语
1 o' M8 K6 v* p- S◎上映日期 2016-02-12(美国)
6 C# ?* M1 _4 ?6 k8 N2 X+ n; ]% \◎IMDb评分  7.0/10 from 968 users' h1 M+ o, w. B% D  E5 v8 x1 Q
◎IMDb链接  https://www.imdb.com/title/tt5568164/
2 e6 [- ~$ h% W◎豆瓣评分 8.8/10 from 635 users
& A% U& ~( E: l9 _◎豆瓣链接 https://movie.douban.com/subject/26724827/4 [  f3 o  F/ H+ e- P
◎片  长 43 min2 G' v/ X+ t! j7 ^$ q, T3 D8 a2 |
◎导  演 MacGillivray Freeman
$ G% X! V, J* e8 J4 n9 N3 ~, @1 ?2 j
. x. }2 J+ F  I4 P) d* {. m◎简  介   
# o0 _3 e2 b5 \* p# {4 i8 ^
0 `1 g0 s) y8 c  恰逢国家公园百年纪念,国家公园探险活动庆祝美国的自然奇观。该片由罗伯特·雷德福(Robert Redford)讲述,讲述了三位冒险家的故事,并重温了罗斯福和缪尔在公园系统诞生时的露营之旅。% \  j3 l) j" J# ?
& m9 ], g- o% E
  Coinciding with the National Parks Centennial, National Parks Adventure celebrates America's natural wonders. Narrated by Robert Redford, it follows a trio of adventurers and revisits Roosevelt and Muir's camping trip when the Park System was born.
. J, p+ z+ t/ X* r6 R" S' c2 N% X, B6 A2 ~- k, D  a4 G
SWEATY BALLZ presents. `- \; u' I( {: R( S: o5 P7 r

2 X! m  S2 C" ?$ h% uAmerica.Wild.National.Parks.Adventure.2016.DOCU.2160p.BluRayCD.x265.10bit.SDR.DTS-HD.MA.TrueHD.7.1.Atmos-SWTYBLZ
) H2 `: j1 w$ c1 c, S1 M4 t" b( w( w, B
Video* Z6 ^6 h! a6 ~9 v6 S
ID                                       : 1
0 _& m8 b9 e4 @- b. ^Format                                   : HEVC
' D4 _) B( g) D* s- pFormat/Info                              : High Efficiency Video Coding' ~& ^* H( O1 A7 V, ]
Format profile                           : Main [email protected]@High
: b/ {5 j* H' ]9 \' yCodec ID                                 : V_MPEGH/ISO/HEVC
( z" Q: o8 v. SDuration                                 : 43 min 25 s6 r6 @+ b/ x! t3 n# C( \( T
Bit rate                                 : 38.7 Mb/s
- u5 w2 j5 r( p; I- P. GWidth                                    : 3 840 pixels
8 m- p9 ^1 A: K; X# K: bHeight                                   : 2 160 pixels7 x) \8 x3 w- H8 @
Display aspect ratio                     : 16:9
0 T0 o7 s1 T: u) D5 n+ X. c; `% w" e7 cFrame rate mode                          : Constant/ ^1 |9 `6 e# G" i+ U6 ]5 }
Frame rate                               : 23.976 (24000/1001) FPS7 w, L9 e( Q* A  {5 s& x* m" }
Color space                              : YUV6 G7 B( _6 a  L: u
Chroma subsampling                       : 4:2:0
4 @3 b* R$ Y4 XBit depth                                : 10 bits, E4 R: R) A# v* m6 W3 c1 W
Bits/(Pixel*Frame)                       : 0.194
- l) ?0 H% w4 E/ p) `' J' Z9 L7 [Stream size                              : 11.7 GiB (80%)( n4 c+ `# a& b- b
Title                                    : America.Wild.National.Parks.Adventure.2016.DOCU.2160p.BluRaycd.x265.10bit.SDR.DTS-HD.MA.TrueHD.7.1.Atmos-SWTYBLZ8 R- F  U$ Q0 l/ Z8 G$ }. i: u  K
Writing library                          : x265 2.8+54-79c76e42cb28:[Windows][GCC 7.3.1][64 bit] 10bit
) n8 K, B- s$ H' W( HEncoding settings                        : cpuid=1111039 / frame-threads=16 / numa-pools=20 / wpp / no-pmode / no-pme / no-psnr / no-ssim / log-level=2 / input-csp=1 / input-res=3840x2160 / interlace=0 / total-frames=0 / level-idc=51 / high-tier=1 / uhd-bd=0 / ref=3 / no-allow-non-conformance / repeat-headers / annexb / aud / hrd / info / hash=0 / no-temporal-layers / no-open-gop / min-keyint=1 / keyint=24 / gop-lookahead=0 / bframes=4 / b-adapt=2 / b-pyramid / bframe-bias=0 / rc-lookahead=25 / lookahead-slices=4 / scenecut=40 / radl=0 / no-intra-refresh / ctu=64 / min-cu-size=8 / no-rect / no-amp / max-tu-size=32 / tu-inter-depth=1 / tu-intra-depth=1 / limit-tu=0 / rdoq-level=0 / dynamic-rd=0.00 / no-ssim-rd / signhide / no-tskip / nr-intra=0 / nr-inter=0 / no-constrained-intra / strong-intra-smoothing / max-merge=2 / limit-refs=3 / no-limit-modes / me=1 / subme=2 / merange=57 / temporal-mvp / weightp / no-weightb / no-analyze-src-pics / deblock=0:0 / no-sao / no-sao-non-deblock / rd=3 / no-early-skip / rskip / no-fast-intra / no-tskip-fast / no-cu-lossless / no-b-intra / no-splitrd-skip / rdpenalty=0 / psy-rd=2.00 / psy-rdoq=0.00 / no-rd-refine / no-lossless / cbqpoffs=0 / crqpoffs=0 / rc=crf / crf=16.0 / qcomp=0.60 / qpstep=4 / stats-write=0 / stats-read=0 / vbv-maxrate=160000 / vbv-bufsize=160000 / vbv-init=0.9 / crf-max=0.0 / crf-min=0.0 / ipratio=1.40 / pbratio=1.30 / aq-mode=1 / aq-strength=1.00 / cutree / zone-count=0 / no-strict-cbr / qg-size=32 / no-rc-grain / qpmax=69 / qpmin=0 / no-const-vbv / sar=1 / overscan=0 / videoformat=5 / range=0 / colorprim=2 / transfer=2 / colormatrix=2 / chromaloc=0 / display-window=0 / max-cll=0,0 / min-luma=0 / max-luma=1023 / log2-max-poc-lsb=8 / vui-timing-info / vui-hrd-info / slices=1 / opt-qp-pps / opt-ref-list-length-pps / no-multi-pass-opt-rps / scenecut-bias=0.05 / no-opt-cu-delta-qp / no-aq-motion / no-hdr / no-hdr-opt / no-dhdr10-opt / no-idr-recovery-sei / analysis-reuse-level=5 / scale-factor=0 / refine-intra=0 / refine-inter=0 / refine-mv=0 / no-limit-sao / ctu-info=0 / no-lowpass-dct / refine-mv-type=0 / copy-pic=1 / max-ausize-factor=1.0 / no-dynamic-refine / no-single-sei* c( d2 K$ k! X1 n( f! z( M
Default                                  : Yes# R: }! X' r( k
Forced                                   : No
4 y# g% s1 K& \- s' Y- g& [3 r. n5 @0 @) @
Audio #1
* C+ v' D7 {- P- h' xID                                       : 24 P$ H; b  R) f" J* j. L" X
Format                                   : TrueHD
7 ?0 L( l* W4 f0 k+ rFormat profile                           : TrueHD+Atmos / TrueHD
% {9 G8 {/ Z& Y& T) j  R6 ?& W- {Codec ID                                 : A_TRUEHD% X. e5 ~9 g/ H% m6 n: q' \1 t" p
Duration                                 : 43 min 25 s
+ Z& D3 E2 `8 K% mBit rate mode                            : Variable
* W; x' y! {% n: ^7 J0 }2 [- y7 \Bit rate                                 : 4 365 kb/s' s* Y; J5 u# D4 j8 R  Q4 a1 v
Maximum bit rate                         : 6 987 kb/s
& x/ W  ]' C: D0 t+ P& JChannel(s)                               : Object Based / 8 channels( W$ s2 j3 ?  b0 C' p
Channel positions                        : Object Based / Front: L C R, Side: L R, Back: L R, LFE
( b7 R- z  h* K$ d7 K; b9 KSampling rate                            :  / 48.0 kHz
5 U* B2 Z" ?; ~0 e" b1 h: VFrame rate                               : 1 200.000 FPS (40 SPF)) k& B1 Q( v& |: L) l- y+ q1 y# r1 b
Compression mode                         : Lossless
. c2 N7 S( \1 [- W( r" }" kStream size                              : 1.32 GiB (9%)
3 U9 D2 b4 M* b! C* ]/ TTitle                                    : America.Wild.National.Parks.Adventure.2016.DOCU.2160p.BluRaycd.x265.10bit.SDR.DTS-HD.MA.TrueHD.7.1.Atmos-SWTYBLZ& z& M  n7 d/ f; k8 q( P, ~  }" m
Language                                 : English5 D! f' x( i" G: }5 ~, G- k/ `; L
Default                                  : Yes4 K- B0 |- B9 Z
Forced                                   : No
" o# T: _& O: |1 G  [# C4 f& A. l! c+ y" z" r/ x8 K6 B
Audio #2+ j: x- v1 S0 U+ ^
ID                                       : 3
  {6 y8 v5 y- W4 E# RFormat                                   : DTS
1 _2 a) N7 Q7 G: g; w7 r3 g0 _, vFormat/Info                              : Digital Theater Systems1 C  \6 d- e" a# C. q. D
Format profile                           : MA / Core  P8 J4 Y2 V7 b2 B
Codec ID                                 : A_DTS
' z! W5 s( l& Z) hDuration                                 : 43 min 25 s$ R) W2 D9 Y% f; e7 ?+ L& n" U
Bit rate mode                            : Variable / Constant& C6 o3 h  [. v6 q) q; z4 q
Bit rate                                 : 4 498 kb/s / 1 509 kb/s
, B0 X+ L7 U9 VChannel(s)                               : 8 channels / 6 channels8 e; w, u$ |3 O' w, s
Channel positions                        : Front: L C R, Side: L R, Back: L R, LFE / Front: L C R, Side: L R, LFE
! D8 u* {; }. S: k. {% n2 wSampling rate                            : 48.0 kHz
- \) g" l5 U3 y" Q& J3 c8 W  {Frame rate                               : 93.750 FPS (512 SPF)1 c! B# g9 i- Q5 X0 m7 q: @+ [
Bit depth                                : 24 bits
( ^  k9 S3 h" [$ j4 G6 _4 I0 zCompression mode                         : Lossless / Lossy7 u: s4 w/ I* z' B/ _6 `& b
Stream size                              : 1.36 GiB (9%)7 E6 l3 C/ a5 T: p; u  O
Title                                    : America.Wild.National.Parks.Adventure.2016.DOCU.2160p.BluRaycd.x265.10bit.SDR.DTS-HD.MA.TrueHD.7.1.Atmos-SWTYBLZ
$ [/ q2 S. M% t) D9 E5 hLanguage                                 : English3 R9 G  }5 P# B/ C9 Y8 t/ w( {
Default                                  : No
! ]7 ?8 C1 z$ I: A# g$ x1 eForced                                   : No* N% h+ c, G; m  ^
0 S% M2 f% M2 O5 {. J+ Q$ N: R
Audio #3
1 d, R) B; V7 ]( R5 N1 _ID                                       : 4+ @( K1 F. X  u
Format                                   : AC-30 p  O9 ^9 z. G" u$ h9 J1 Q
Format/Info                              : Audio Coding 3' t* Q$ a6 M7 f, Z* K; D
Codec ID                                 : A_AC3
+ `, X! ~' Z' e7 p  k/ C: }% g0 pDuration                                 : 43 min 25 s" K' o! P" w. T
Bit rate mode                            : Constant/ x: \5 w. j. u2 S& K9 h' l) o
Bit rate                                 : 640 kb/s2 M5 s9 U; Y7 A; r+ b7 X4 b
Channel(s)                               : 6 channels
  I% G4 ?' c- S9 G" XChannel positions                        : Front: L C R, Side: L R, LFE, I0 r1 L9 N0 ~, P- V- y2 V
Sampling rate                            : 48.0 kHz
! P. i9 f3 [- b3 H! |9 O6 I: gFrame rate                               : 31.250 FPS (1536 SPF)
# C' F% o! `! I. U' G- mBit depth                                : 16 bits; ]( T6 e7 |1 ~% T1 A3 t
Compression mode                         : Lossy5 h- E- O8 c" b0 ?8 r! W
Stream size                              : 199 MiB (1%)! @& i9 S" P& o' ^
Title                                    : America.Wild.National.Parks.Adventure.2016.DOCU.2160p.BluRaycd.x265.10bit.SDR.DTS-HD.MA.TrueHD.7.1.Atmos-SWTYBLZ
( P, ^/ o" o, G( X9 K9 |) uLanguage                                 : English
: E( }/ \- W: N& F4 f- x$ K* sService kind                             : Complete Main( L( D" E8 P7 \+ Z: k# o# K; Z
Default                                  : No% `+ S( h4 \7 Y, S2 }
Forced                                   : No' c7 t% a% c6 B" c9 p2 A- t

! z: S; A( L, ^Text #18 b2 v5 B) U& F8 u! t
ID                                       : 5
8 e' ^8 q( `, t* q# I4 r8 n. @Format                                   : UTF-8
0 M; |: J( n  B/ P& Z+ wCodec ID                                 : S_TEXT/UTF8+ V8 d) p% I' J: g/ X  A0 W
Codec ID/Info                            : UTF-8 Plain Text
& ~0 G- y3 J$ \2 j& PDuration                                 : 41 min 4 s
1 l) r9 q7 o. X3 l8 m1 k' UBit rate                                 : 33 b/s
2 c7 Z; D! `% QCount of elements                        : 3409 U; O8 V" O8 y- @
Stream size                              : 10.2 KiB (0%)
* ~' r# I& G9 i, z1 V1 B4 _Title                                    : English-SRT
  v1 }, K& }; z0 O" WLanguage                                 : English+ I$ \7 o% o% s: J" v
Default                                  : Yes
6 ?5 R2 \* c, f% x7 J/ d8 Z' WForced                                   : No$ o6 _6 M) A: ?8 I* S. A1 h2 F: F

1 x  w( C: v9 a4 k: GText #2
( U7 f& I" f! j. @: xID                                       : 6) E, i7 [. t' H0 v9 y- J
Format                                   : PGS0 x% ^# B, A3 ?& x6 N
Muxing mode                              : zlib% u7 ?6 ~& c. a9 f6 D
Codec ID                                 : S_HDMV/PGS
. f1 {& K* P  |. }1 x3 ~& ACodec ID/Info                            : Picture based subtitle format used on BDs/HD-DVDs" z; r: Z& R  X/ [5 G# E
Duration                                 : 42 min 55 s4 G0 W5 v3 C! w) {# F" N: B
Bit rate                                 : 20.8 kb/s8 W9 C0 A8 q) m+ c
Count of elements                        : 1154
& X1 K% \2 N5 y/ ]  ]+ L5 ^Stream size                              : 6.40 MiB (0%)0 T' L; |9 B! {2 }* |! G+ r
Title                                    : English-PGS
5 g  L* W/ k* aLanguage                                 : English( Z; v/ i; A! p/ _. ?
Default                                  : No+ U# R$ e3 _( B
Forced                                   : No
% ?$ G4 N' W3 I1 s
2 v6 u# ~1 Z% P" TMenu( E# [2 t3 f  P
00:00:00.000                             : en:Chapter 1
- e- B. z0 `" h00:03:46.351                             : en:Chapter 28 d0 t5 b- s& T
00:06:26.010                             : en:Chapter 3
. n. t6 x  y3 H7 K- `00:08:34.555                             : en:Chapter 4
) U1 H! p3 N" n6 F00:10:32.214                             : en:Chapter 59 c0 a; m4 y7 C4 R" U
00:15:50.240                             : en:Chapter 6
% p$ l8 Y! B9 q6 x$ T, S$ |00:18:46.124                             : en:Chapter 7
7 a- A  j" X2 S4 _  j$ `8 u00:23:19.523                             : en:Chapter 8
4 C; z1 M6 k& {+ [- ~  J$ d4 N" `' k00:24:24.254                             : en:Chapter 98 o: y. W" c0 @9 H7 D, j6 |! E! o: d
00:29:59.297                             : en:Chapter 103 \. E  C5 \8 h" B5 G3 c2 |3 _
00:33:36.597                             : en:Chapter 112 C% m* e! m) Q$ g! O9 H0 d0 \2 q
00:36:01.617                             : en:Chapter 121 d: v4 ^( L6 A" s6 E$ @5 T
00:39:09.221                             : en:Chapter 13
# A2 u, j6 ^3 p4 M) `0 J. f00:42:38.180                             : en:Chapter 14
3 e. W1 S& h4 @
游客,查看本帖隐藏内容请回复 | 加入VIP贵宾可免积分免回复 了解详情 | 还不是会员:点击获取邀请码 Invitation Code

本版积分规则

小黑屋|Archiver|蓝光电影资源网

GMT+8, 2021-9-25 23:47

Copyright © 2001-2022, Tencent Cloud.

快速回复 返回顶部 返回列表