BluRayCD Forum

 找回密码
 立即注册【分享大片】
查看: 11|回复: 0
收起左侧

[2160P极清] 狂野之美:国家公园探险 [4K HDR高码版] America Wild National Parks Adventure 2016 DOCU 2160p UHD BluRaycd X265 10bit HDR TrueHD 7.1 Atmos-WhiteRhino 9.74GB

[复制链接]

6116

主题

6290

帖子

7万

积分

Post Share

金币
14356 枚
体力
20444 点

卓越贡献勋章

黄金嫖客 发表于 2021-9-15 05:32:33 | 显示全部楼层 |阅读模式

3 Y3 b  c- J' T6 _, i( q
, E' O  T4 }4 ]# N$ @( a◎片  名 National Parks Adventure / America Wild National Parks Adventure2 T* K% s  V8 W8 Z. [' D) o
◎译  名 狂野之美:国家公园探险: Z3 V% U" j2 S; v
◎年  代 2016
! y2 o2 D; c# d5 Q1 t. v◎产  地 美国
! |/ S& x" M$ r4 p, K2 C- K◎类  别 纪录片/短片
& m8 S" r  A0 [◎语  言 英语
) r/ s5 ?/ f+ x, R+ p◎上映日期 2016-02-12(美国)
5 B3 r9 `- y! E* E6 o! i◎IMDb评分  7.0/10 from 968 users) L9 q; G( ^4 i1 w' h
◎IMDb链接  https://www.imdb.com/title/tt5568164/
4 p1 I% k$ o3 P" f- d◎豆瓣评分 8.8/10 from 635 users
2 Y0 H# v5 P; Y0 [' I5 s◎豆瓣链接 https://movie.douban.com/subject/26724827/
# y. O$ q$ E8 a6 C: [1 c' c◎片  长 43 min8 [  ~. L/ j- M* H
◎导  演 MacGillivray Freeman
3 n0 V2 j/ H( _9 Q' a* C" A$ _' N6 Y; {/ G! O7 s
◎简  介   
* Y! E3 v: t1 t$ f: g& k- h5 o+ w- i) L* Y% {
  恰逢国家公园百年纪念,国家公园探险活动庆祝美国的自然奇观。该片由罗伯特·雷德福(Robert Redford)讲述,讲述了三位冒险家的故事,并重温了罗斯福和缪尔在公园系统诞生时的露营之旅。
# S6 c; H% x, o6 L. j, U6 t1 z, u( a) T' z7 i1 J
  Coinciding with the National Parks Centennial, National Parks Adventure celebrates America's natural wonders. Narrated by Robert Redford, it follows a trio of adventurers and revisits Roosevelt and Muir's camping trip when the Park System was born.
# q+ p& S. s' ?1 F
8 _+ T" I' W- C/ i2 s
Video/ E& c# c) N8 o) }+ x9 G
ID                                       : 11 v. m( S* f) J, N4 |4 I& d2 T8 G
Format                                   : HEVC
+ m' m+ S6 e. |" R1 K' fFormat/Info                              : High Efficiency Video Coding
7 y1 L; {$ d' Y  c( `' u7 n( bCommercial name                          : HDR10
% i7 n2 S1 j, d0 W& H5 BFormat profile                           : Main [email protected]@High* r  M0 J! ^0 m1 g. M
Codec ID                                 : V_MPEGH/ISO/HEVC
3 ~) N+ Q' U6 W4 n- O$ nDuration                                 : 43 min 25 s
9 y( i: W1 }. m9 `- ~Bit rate                                 : 21.9 Mb/s
* ^. O! c$ ?( ]. n% }% UWidth                                    : 3 840 pixels
. T) x3 ]7 ~4 ^& G: BHeight                                   : 2 160 pixels
1 k, Z: e: b/ s/ aDisplay aspect ratio                     : 16:9: F& |; m* a- @( P4 f9 _, G
Frame rate mode                          : Constant
# H2 }; m2 Q# F6 C+ e. C) m% T  MFrame rate                               : 23.976 (24000/1001) FPS: H9 k3 A# `: R
Color space                              : YUV3 @+ y: x9 Y3 }5 w
Chroma subsampling                       : 4:2:0 (Type 2)% _4 J& k% u* s. L
Bit depth                                : 10 bits3 o$ X* K0 t* g% N/ q
Bits/(Pixel*Frame)                       : 0.110
0 F" ^& m) g: V# CStream size                              : 6.64 GiB (71%); }9 G2 W, i& S6 B0 {% I5 |6 ]+ @& B
Writing library                          : x265 2.8+10-703eade86b53:[Windows][MSVC 1914][64 bit] 10bit
8 _( B8 F1 x- e1 vEncoding settings                        : cpuid=1111039 / frame-threads=6 / numa-pools=36 / wpp / no-pmode / no-pme / no-psnr / no-ssim / log-level=2 / input-csp=1 / input-res=3840x2160 / interlace=0 / total-frames=62472 / level-idc=51 / high-tier=1 / uhd-bd=1 / ref=4 / no-allow-non-conformance / repeat-headers / annexb / aud / hrd / info / hash=0 / no-temporal-layers / no-open-gop / min-keyint=1 / keyint=24 / gop-lookahead=0 / bframes=4 / b-adapt=2 / b-pyramid / bframe-bias=0 / rc-lookahead=25 / lookahead-slices=4 / scenecut=40 / radl=0 / no-intra-refresh / ctu=64 / min-cu-size=8 / rect / no-amp / max-tu-size=32 / tu-inter-depth=1 / tu-intra-depth=1 / limit-tu=0 / rdoq-level=2 / dynamic-rd=0.00 / no-ssim-rd / signhide / no-tskip / nr-intra=0 / nr-inter=0 / no-constrained-intra / no-strong-intra-smoothing / max-merge=3 / limit-refs=3 / limit-modes / me=3 / subme=3 / merange=57 / temporal-mvp / weightp / no-weightb / no-analyze-src-pics / deblock=-3:-3 / no-sao / no-sao-non-deblock / rd=4 / no-early-skip / rskip / no-fast-intra / no-tskip-fast / no-cu-lossless / no-b-intra / no-splitrd-skip / rdpenalty=0 / psy-rd=2.00 / psy-rdoq=1.00 / no-rd-refine / no-lossless / cbqpoffs=0 / crqpoffs=0 / rc=crf / crf=17.0 / qcomp=0.60 / qpstep=4 / stats-write=0 / stats-read=0 / vbv-maxrate=160000 / vbv-bufsize=160000 / vbv-init=0.9 / crf-max=0.0 / crf-min=0.0 / ipratio=1.40 / pbratio=1.30 / aq-mode=1 / aq-strength=1.00 / cutree / zone-count=0 / no-strict-cbr / qg-size=32 / no-rc-grain / qpmax=69 / qpmin=0 / no-const-vbv / sar=1 / overscan=0 / videoformat=5 / range=0 / colorprim=9 / transfer=16 / colormatrix=9 / chromaloc=1 / chromaloc-top=2 / chromaloc-bottom=2 / display-window=0 / master-display=G(13250,34500)B(7500,3000)R(34000,16000)WP(15634,16450)L(10000000,0) / max-cll=304,99 / min-luma=0 / max-luma=1023 / log2-max-poc-lsb=8 / vui-timing-info / vui-hrd-info / slices=1 / no-opt-qp-pps / no-opt-ref-list-length-pps / no-multi-pass-opt-rps / scenecut-bias=0.05 / no-opt-cu-delta-qp / no-aq-motion / hdr / hdr-opt / no-dhdr10-opt / no-idr-recovery-sei / analysis-reuse-level=5 / scale-factor=0 / refine-intra=0 / refine-inter=0 / refine-mv=0 / no-limit-sao / ctu-info=0 / no-lowpass-dct / refine-mv-type=0 / copy-pic=1 / max-ausize-factor=1.0 / no-dynamic-refine / no-single-sei- \  K/ q0 _6 {7 W9 a
Default                                  : Yes7 j1 }. r. R: P) _  X, b! V0 j
Forced                                   : No' t  f* l& U, @& ~9 S
Color range                              : Limited
# o# d( J! K6 |, m$ y! m3 XColor primaries                          : BT.2020
7 T" i+ Q" y. ?2 U0 S4 dTransfer characteristics                 : PQ
3 k7 ]/ J% ~3 h) C. @: A& ^9 |; o+ hMatrix coefficients                      : BT.2020 non-constant
. l# e& g! _+ Y* b& |; ?4 R1 f$ e- EMastering display color primaries        : R: x=0.680000 y=0.320000, G: x=0.265000 y=0.690000, B: x=0.150000 y=0.060000, White point: x=0.312680 y=0.329000
9 E8 t2 {$ r6 KMastering display luminance              : min: 0.0000 cd/m2, max: 1000 cd/m28 f8 ]( }0 g6 ~
Maximum Content Light Level              : 304 cd/m2
9 G& m1 I4 t$ h* h' t# _Maximum Frame-Average Light Level        : 99 cd/m29 _  I8 d0 N  ~% }8 r* \7 r

6 ~$ U3 Q, @8 z. }) s4 s/ `Audio #1
: t% t7 H) z6 c  CID                                       : 26 g- X6 t5 ?0 ?' B- [3 c) C9 @
Format                                   : TrueHD
. L7 t8 ^: \  E- UFormat profile                           : TrueHD+Atmos / TrueHD5 A4 |) `7 ?' T
Codec ID                                 : A_TRUEHD
# x9 _/ Z3 ^) J+ T4 x' S4 j0 mDuration                                 : 43 min 25 s" J& [1 R* R+ f! u+ C
Bit rate mode                            : Variable
8 |4 e. G( {6 o# TBit rate                                 : 4 365 kb/s
; R; l( z8 m# k9 O, x: pMaximum bit rate                         : 6 987 kb/s
3 q' g7 |2 i5 b0 DChannel(s)                               : Object Based / 8 channels
0 I0 I& X# W2 J' VChannel positions                        : Object Based / Front: L C R, Side: L R, Back: L R, LFE8 u1 j: K5 h- Y2 n
Sampling rate                            :  / 48.0 kHz
$ i7 L' ^5 X0 u& ^5 jFrame rate                               : 1 200.000 FPS (40 SPF)6 A' X- V1 X+ }' H
Compression mode                         : Lossless
; x+ d. r' M" A2 K, g$ XStream size                              : 1.32 GiB (14%)
5 c, i" X! Z( BLanguage                                 : English
' V/ {& ?4 h1 S; G/ GDefault                                  : Yes2 I) ]& K/ t0 _# Z' b. ^( e- D& g7 {
Forced                                   : No* C+ W% P4 I, z
, j6 b! Z2 ^7 g& E
Audio #21 N- H: Q$ }7 O. W( ~6 r) e
ID                                       : 3
/ W) X/ `( o1 Y6 G3 DFormat                                   : AC-3
2 ?: v, B) Z2 p9 n" D( KFormat/Info                              : Audio Coding 38 B1 I! C% l; a" @. c* |
Codec ID                                 : A_AC31 S- @- J! `4 {3 K4 @; Z4 P+ l9 h
Duration                                 : 43 min 25 s5 I, c) F* @2 k
Bit rate mode                            : Constant
4 t+ A/ i( w3 F' M% RBit rate                                 : 640 kb/s6 l& ^$ W( M- |0 r5 i& X2 ]+ T
Channel(s)                               : 6 channels
; ^: l& L1 u  q7 u( }: O7 g* ?Channel positions                        : Front: L C R, Side: L R, LFE3 R% f7 _2 J0 j+ Z" N3 V
Sampling rate                            : 48.0 kHz
; |  q) h4 o1 ~& YFrame rate                               : 31.250 FPS (1536 SPF)6 P% f, I6 J8 _
Bit depth                                : 16 bits
- G; ~5 w$ _+ d- c8 tCompression mode                         : Lossy
5 C" u" d+ k9 ]& OStream size                              : 199 MiB (2%)
$ f, F1 M8 R. a# ?8 w! }" g, DLanguage                                 : English
) w7 I, `7 A) Z2 CService kind                             : Complete Main
/ q! J0 g. \9 @# T' `/ VDefault                                  : No
2 @, \! R8 g4 X/ V$ z8 q/ a/ TForced                                   : No
& w4 J0 E& L4 V: E, c" {4 P2 B0 q8 ?5 v: q  [6 J* X
Audio #35 X: A% s1 [* k
ID                                       : 4
- g+ s: @, H9 B7 a! s; d/ xFormat                                   : DTS
: E, C- d3 t& k  {- [3 r* i! aFormat/Info                              : Digital Theater Systems& `) `) l+ Y* q- o. D
Format profile                           : MA / Core) L! ~" o1 o0 U+ X. E$ F, \
Codec ID                                 : A_DTS
9 B( z- e( Z8 [Duration                                 : 43 min 25 s
' \0 {! \. _- A+ P* vBit rate mode                            : Variable / Constant
2 |  b# m0 z+ j& Z+ BBit rate                                 : 4 060 kb/s / 1 509 kb/s! J3 H1 Z# Y1 O5 ]- u) x! \) R# Q' N
Channel(s)                               : 6 channels
( S" s' t; @9 DChannel positions                        : Front: L C R, Side: L R, LFE
; D' Q2 D7 A' P7 c* sSampling rate                            : 48.0 kHz
/ Z4 T, j2 ^, b) d) l" j) U( @$ yFrame rate                               : 93.750 FPS (512 SPF)
- I" F2 Q4 b7 }/ RBit depth                                : 24 bits* X6 W; y% S7 G, w
Compression mode                         : Lossless / Lossy
4 w% @  Z0 a2 M8 Q' Y3 PStream size                              : 1.23 GiB (13%)
( {  J* z7 [5 S# NLanguage                                 : English1 t) \0 ]& H3 |
Default                                  : No
, v" k( }/ ]4 b* c( r3 ?& z9 ]3 rForced                                   : No5 v3 H5 ^( P, W! g& q& N' `" D2 K' V

7 H3 B! r9 O; J9 O$ e+ H" x4 aText
4 I& t7 x% o: \( Z! \ID                                       : 5
+ s5 s( X$ `8 R, ?Format                                   : PGS8 A4 g) I& S  c* Y0 U; B
Muxing mode                              : zlib
) w, Y8 T; a' ~* L" m; [+ GCodec ID                                 : S_HDMV/PGS6 C* p" {5 }8 X) {
Codec ID/Info                            : Picture based subtitle format used on BDs/HD-DVDs0 e7 D( H, I( P0 m* n
Duration                                 : 42 min 56 s
* Q; q7 O/ K6 Z0 Z' `" j7 E( O/ b7 ?* mBit rate                                 : 20.8 kb/s. ?) f$ q$ v/ D/ w/ N
Count of elements                        : 1154
9 P( O# P: |1 u& u- aStream size                              : 6.40 MiB (0%)# k! v. ]/ p2 K* |& D7 @# H
Language                                 : English! |7 [3 C1 R1 Q' b4 |4 x
Default                                  : No% e9 u4 Q. y1 n4 M
Forced                                   : No
5 L8 D( ?. W+ \1 ^1 |2 s6 G1 L5 f. Q9 q1 B4 u3 \
Menu/ z0 G8 |* }9 l% b$ a  {9 ?
00:00:00.000                             : en:00:00:00.000
8 ^. {0 V+ W( o1 `5 l# ?00:03:46.351                             : en:00:03:46.3512 N# Y- A5 e7 H' v$ N
00:06:26.011                             : en:00:06:26.011
$ w' T# B. d$ |2 a* y00:08:34.556                             : en:00:08:34.556. |7 ^5 h; k5 Y- g; g, m
00:10:32.215                             : en:00:10:32.2156 U% D+ M. W7 g  h# p' ^
00:15:50.241                             : en:00:15:50.2414 U" G" p* B' S# }
00:18:46.125                             : en:00:18:46.1254 Z5 G: c! b9 Y- a9 r; g9 ]- w* {
00:23:19.523                             : en:00:23:19.523
5 X: E1 c( y3 Y2 w00:24:24.254                             : en:00:24:24.254
8 O" T9 E5 _& \* R& v0 F, o00:29:59.297                             : en:00:29:59.297+ Q& j8 _* X4 s! ~
00:33:36.598                             : en:00:33:36.598% k6 e2 L% ^0 X0 z5 }
00:36:01.618                             : en:00:36:01.618) {# g! k- C6 M4 d
00:39:09.222                             : en:00:39:09.2228 Q) F# Y) Y7 @9 a3 Z; B
00:42:38.181                             : en:00:42:38.181

+ Y4 h7 F+ U" L7 ^
游客,查看本帖隐藏内容请回复 | 加入VIP贵宾可免积分免回复 了解详情 | 还不是会员:点击获取邀请码 Invitation Code

本版积分规则

小黑屋|Archiver|蓝光电影资源网

GMT+8, 2021-9-26 00:14

Copyright © 2001-2022, Tencent Cloud.

快速回复 返回顶部 返回列表