BluRayCD Forum

 找回密码
 立即注册【分享大片】
查看: 53|回复: 2
收起左侧

[科幻恐怖] 透明人1/透明人魔/隐形人 Hollow Man 2000 DC 1080p BluRaycd x264-DEFiNiTE 7.95GB & 10.0GB

[复制链接]

8559

主题

8753

帖子

7万

积分

Forum Moderator

金币
12756 枚
体力
11513 点

卓越贡献勋章

24小时 发表于 2018-9-30 04:55:13 | 显示全部楼层 |阅读模式
01.jpg
0 k6 y! ]* o  Y, |) m( F
, U4 X/ Q, ^! s" {4 ^1 {◎译  名 透明人/透明人魔/隐形人
9 R- {+ D5 r( D5 D8 Y, e/ H. i2 O◎片  名 Hollow Man" l( H& Q. r7 a, b: R) H
◎年  代 2000
$ ~6 l& `$ U! y2 R0 L◎国  家 美国/德国+ B/ T/ e6 E( {
◎类  别 动作/科幻/惊悚
: ^, X! C) Q7 s" V◎语  言 英语5 x# _3 T9 Q4 p2 T
◎上映日期 2000-08-044 X/ i9 r) z- I" _! Z- l' @" ?
◎IMDb评分  5.7/10 from 111,751 users
5 H* N6 l/ o5 M. H' r: `◎IMDb链接  https://www.imdb.com/title/tt0164052/
* X& m8 ~9 }' [+ S& Y◎豆瓣评分 6.6/10 from 37,695 users' L& s- o+ b7 x' H
◎豆瓣链接 https://movie.douban.com/subject/1293470/6 @0 S$ a4 p, C3 w2 k
◎片  长 1 h 59 min
! \$ [8 H' R/ \; R7 w◎导  演 保罗·范霍文 Paul Verhoeven1 X& X/ n* z8 V" C  ?8 ^0 ]
◎编  剧 安德鲁·W·马洛 Andrew W. Marlowe
4 G6 t% J5 _1 N4 N       盖瑞·斯科特·汤普森 Gary Scott Thompson
* ?% H& R& ?8 N1 k5 |% a! c◎主  演 凯文·贝肯 Kevin Bacon% R  o' e0 }* M! Z: g) Z/ H
       伊丽莎白·苏 Elisabeth Shue
- U& ^2 o  `1 _8 @, _" X" l3 Z       乔什·布洛林 Josh Brolin  D& b# h) y; \/ z4 b, _4 X( @
       金·迪肯斯 Kim Dickens. A. f  J& p* w7 O* C
       格雷戈·格伦伯格 Greg Grunberg9 B$ b- a3 c6 `6 O4 o
       罗娜·迈特拉 Rhona Mitra
6 s( ^3 ~# W  e5 o, ~
; P) m- X7 |7 d7 K- x◎简  介       e) v) R2 J8 G

2 j$ b' t% ], ?4 A  隶属于美国军方的某神秘机构,正在进行着一项隐形技术的研究。科学家塞巴斯蒂安·凯恩(凯文·培根 Kevin Bacon 饰)是这支小组的主要负责人,经过多年的努力,他们的研究在动物身上已经初见成效。急功近利的塞巴斯蒂安无视药物的不稳定性,执意在自己身上尝试。该药物的隐形效果非常出色,但是塞巴斯蒂安却无法恢复正常。为此,他的搭档琳达·福斯特(伊莉莎白·舒尔 Elisabeth Shue 饰)和马特·肯辛顿(乔希·布鲁林 Josh Brolin饰)抓紧解药的开发,而塞巴斯蒂安却越来越喜欢隐形的感觉,透明的状态让他可以为所欲为。为了保持现有状态,他变得丧心病狂……9 R/ U& S; o  D

8 Z# H. q% K6 \/ _5 }  本片荣获2001年美国科幻恐怖电影学院最佳特效奖、2000年洛迦诺国际电影节观众奖。
+ `( p% _$ S1 N; T9 y. p5 h3 G" L  X+ c& v. D# ^" A* ]* P
  When the leader of a team of scientists volunteers to be the test subject for their experiment in human invisibility he slowly unravels and turns against them with horrific consequences.7 f1 u% {; I, Z3 e, k) t) G4 G
* Q& T0 q' v; t1 q4 [% _( f
◎获奖情况$ n1 G/ {: }/ g# C

9 A& T/ c. e) Y. h- J  第73届奥斯卡金像奖 (2001)
. B2 |3 e9 }, {  最佳视觉效果(提名) 斯科特·E·安德森 / 斯科特·斯多克迪克 / 克雷格·海斯 / 斯坦·帕克斯
6 b" ^8 L+ J' _+ e1 z" K% S5 l
# n( z$ h! ]+ ~1 {. y
4 P6 p8 b' L- F. t  a7 Y
& g9 o/ ^/ a5 m2 ^' i$ s: W; N4 |) }; S# _  ]$ C& m9 e) y/ T( C* C
Video
- `. o! v# d) p) _3 E* dID                                       : 1' I0 D! |* X+ D' u  }1 M/ m
Format                                   : AVC1 T8 J. r+ P' r. |# ^% [7 }
Format/Info                              : Advanced Video Codec
5 W% K( m0 z; S$ _% a9 \Format profile                           : High@L4.1
% `  E2 B- W; uFormat settings, CABAC                   : Yes9 T7 _: p+ ^# ~8 l$ }) P
Format settings, ReFrames                : 4 frames
0 b) A  I, S: n/ O& k9 I) HCodec ID                                 : V_MPEG4/ISO/AVC; y: ~$ [# s& A; [* H6 |* @
Duration                                 : 1h 59mn
$ A: _5 \' j5 l5 F6 v8 D0 CBit rate mode                            : Variable  d7 v" `9 @/ J. |+ L- |
Bit rate                                 : 12.2 Mbps2 L8 v1 r' U  y( f& \
Maximum bit rate                         : 40.0 Mbps
1 s# z) n0 f* `! {Width                                    : 1 920 pixels" ^  y+ c7 W3 a- e+ b; p5 z' q
Height                                   : 1 040 pixels$ t7 I5 ?) V7 t2 W+ H
Display aspect ratio                     : 1.85:1$ `4 ^/ u0 Q9 ]& x- l
Frame rate mode                          : Constant. p; G& H4 I7 p2 z+ X
Frame rate                               : 23.976 (24000/1001) fps- x6 d. S6 g3 n0 S6 j  i
Color space                              : YUV  a4 U; P3 M' h) H7 H
Chroma subsampling                       : 4:2:0
! ~4 i# P& b/ n8 PBit depth                                : 8 bits
3 q* `/ O! ^; w# }Scan type                                : Progressive
9 ^# p+ f' y. T- nBits/(Pixel*Frame)                       : 0.256
* L# D( V: m0 ]% H6 F, ]( b2 yStream size                              : 10.2 GiB (93%)2 H) E9 b: G: i' a+ b! H# B
Writing library                          : x264 core 80 r1376 3feaec2* ^( q: t( e0 M2 ~
Encoding settings                        : cabac=1 / ref=4 / deblock=1:-2:-2 / analyse=0x3:0x113 / me=umh / subme=9 / psy=1 / psy_rd=0.7:0.0 / mixed_ref=1 / me_range=32 / chroma_me=1 / trellis=0 / 8x8dct=1 / cqm=0 / deadzone=6,6 / fast_pskip=1 / chroma_qp_offset=-2 / threads=3 / sliced_threads=0 / nr=0 / decimate=1 / mbaff=0 / constrained_intra=0 / bframes=4 / b_pyramid=2 / b_adapt=2 / b_bias=0 / direct=3 / wpredb=1 / wpredp=2 / keyint=240 / keyint_min=24 / scenecut=40 / rc_lookahead=80 / rc=crf / mbtree=1 / crf=19.5 / qcomp=0.70 / qpmin=10 / qpmax=51 / qpstep=4 / vbv_maxrate=50000 / vbv_bufsize=62500 / ip_ratio=1.10 / aq=1:0.91 [6 J8 Z7 o# Z1 G7 K
Language                                 : English/ r5 ?, P. P( Y: Z: N8 V
Default                                  : Yes
- z! o' Z3 b7 |6 a: W* uForced                                   : No
4 V; e6 _: f+ hColor range                              : Limited
% U! O4 a0 s/ z1 R5 t) uMatrix coefficients                      : BT.7096 f1 H1 {6 U. `  R- [. u: Z- V, z
; L3 M$ \( ]# f4 E
Audio2 K# p. l! v/ s2 x3 Q7 u
ID                                       : 2
5 e4 i: z( v$ d! _3 a3 v1 K+ f- ZFormat                                   : AC-3
7 D7 j( V* I0 j# V3 A+ M2 CFormat/Info                              : Audio Coding 3& s+ e' q. P+ c! F
Mode extension                           : CM (complete main)
/ W- P0 x* ^0 V: fFormat settings, Endianness              : Big3 P& G9 O4 ^* m3 x( v; v
Codec ID                                 : A_AC3
- i' X' f6 e$ _8 C. k+ `0 nDuration                                 : 1h 59mn
, g/ `4 e; |0 Y# S* E) Q# m) X# iBit rate mode                            : Constant1 k( d! L& N/ @# [+ ~
Bit rate                                 : 640 Kbps5 v# `( p1 a  C
Channel(s)                               : 6 channels* e3 N; T# V# z2 Y# e
Channel positions                        : Front: L C R, Side: L R, LFE
5 z( k, P& e4 V5 Y0 JSampling rate                            : 48.0 KHz
5 }+ A+ D+ {& K/ K9 X+ A. |Frame rate                               : 31.250 fps (1536 spf)
* j9 Y3 M8 v* _$ ~% @Compression mode                         : Lossy
2 _- A* m* \  X! J  Q& J/ m0 yStream size                              : 546 MiB (5%)
1 T7 ^" N2 }# TLanguage                                 : English* g" ]  r8 [) `  P4 k
Default                                  : Yes
* z% p8 O: c3 y: x- v7 P  l* [Forced                                   : No
  m1 {6 g- @+ ?7 F
/ r# }) U7 d9 gText( H1 {& u0 V' ]7 u$ A
ID                                       : 3# ?0 a' k3 G6 B3 L
Format                                   : UTF-8
& n/ a3 I1 E3 p% d4 sCodec ID                                 : S_TEXT/UTF80 b/ c/ D$ H' D# i! N, r
Codec ID/Info                            : UTF-8 Plain Text0 p. t) m5 G, [0 r' G
Title                                    : English- h: U) a) ]4 M, I. T2 N" F+ K
Language                                 : English
; s; F4 ^5 e( }Default                                  : No0 ^% G" I6 P; B/ v) X
Forced                                   : No
5 z# ?9 Q! W0 R# {5 W( X" c7 t) S' l7 T; A$ |
Menu- }( J8 x4 U; ?, v
00:00:00.000                             : :00:00:00.000
9 F) ]- M( e* ]3 Q% |8 J9 I1 K. l00:08:56.494                             : :00:08:56.494
. @6 A, ^. T9 b! @- Q/ l: T00:12:55.149                             : :00:12:55.149
( T; G: ~8 Y4 `! K: \6 Q00:22:41.068                             : :00:22:41.068$ g0 W/ S" _  x8 m$ q6 E+ |
00:28:52.105                             : :00:28:52.1058 R1 I; Z" S; S6 w2 h- N
00:36:02.243                             : :00:36:02.243% @: D5 ~6 C+ h/ A! a  m: @' T. [7 g
00:47:28.262                             : :00:47:28.262/ z9 L% l$ ^+ f8 p* z) ]) e
00:50:47.628                             : :00:50:47.628) H! d  [. }% q' w. O6 m) T
00:59:09.963                             : :00:59:09.9636 I7 ~" W5 A. `( ?" v- s+ O! p
01:09:29.874                             : :01:09:29.874* g" d0 X6 _. h! h% W
01:12:29.971                             : :01:12:29.971% B* H3 O" d6 i
01:23:45.979                             : :01:23:45.979
. H2 y+ q( y. @* f* \* Z01:29:45.797                             : :01:29:45.797
2 B* ]* L8 c9 R$ E$ m8 B( T; E01:36:08.972                             : :01:36:08.972
5 r' d- f9 P3 u, Z3 G. W( M0 f01:42:31.937                             : :01:42:31.9375 [# K4 T  e# o( N9 t9 g( J
01:46:36.473                             : :01:46:36.473
$ ~4 a0 R5 ^- p* k3 ^5 i
% w: p/ J' f; x8 ~5 N$ ?5 w
6 Y4 O, F& e1 E4 e* C1 F
7 U  m3 i  i# g3 I0 e6 w3 Q

& }# o6 t) i1 _' t  @; U+ q6 ]1 K( t  l* f
9 Q6 a# o6 C  m4 I+ L1 w
游客,查看本帖隐藏内容请回复 | 加入VIP贵宾可免积分免回复 了解详情 | 还不是会员:点击获取邀请码 Invitation Code

相关帖子

0

主题

655

帖子

3327

积分

Sponsor

金币
35 枚
体力
1932 点
xpg050811 发表于 2018-9-30 11:39:33 | 显示全部楼层
谢谢楼主分享

0

主题

874

帖子

3328

积分

Sponsor

金币
66 枚
体力
1682 点
BlueCharlie 发表于 2018-10-3 10:40:40 | 显示全部楼层
感谢楼主无私的分享!

本版积分规则

小黑屋|Archiver|蓝光电影资源网

GMT+8, 2022-1-23 20:35

Copyright © 2001-2022, Tencent Cloud.

快速回复 返回顶部 返回列表