BluRayCD Forum

 找回密码
 立即注册【分享大片】
查看: 41|回复: 0
收起左侧

[动漫动画] 真人快打传奇:蝎子的复仇 Mortal Kombat Legends Scorpions Revenge 2020 1080p AMZN WEBRip DDP5.1 x264-TEPES 3.99GB

[复制链接]

5370

主题

5747

帖子

5万

积分

Post Share

金币
12863 枚
体力
10056 点

卓越贡献勋章

mvods 发表于 2020-4-17 15:38:51 | 显示全部楼层 |阅读模式

# h( ?1 W+ W( P$ K/ U
" u, H# A6 h% Z3 r◎译  名 真人快打传奇:蝎子的复仇/真人快打:魔蝎的复仇(台)+ d4 j- O" U9 B/ C* ~+ v& G& P
◎片  名 Mortal Kombat Legends: Scorpions Revenge
+ ^* {4 X2 F* N& ]8 Y, f/ c1 h% P* R◎年  代 2020
3 h8 W3 H2 r4 z3 G& ^" J& J◎产  地 美国9 z& ]( ]4 x7 r$ Z
◎类  别 动作/动画/冒险- r  g6 H. q8 s
◎语  言 英语- \- e2 S0 ]% O  P6 B
◎上映日期 2020-04-12(美国)
% i* V4 i; w* [# K6 j! l◎IMDb评分  7.6/10 from 2,071 users. n: V8 f7 G( P# Z, L' l* i) s
◎IMDb链接  https://www.imdb.com/title/tt9580138/
, ]' }+ c5 h8 ^7 r  a- m9 e7 \2 H◎豆瓣评分 7.3/10 from 828 users" g6 s( r) ^6 s. [7 j7 _  I
◎豆瓣链接 https://movie.douban.com/subject/34875588/
9 r% R9 o* I8 p' Y5 S6 p. B◎片  长 1 h 20 min9 z; @; X) ]; s$ e  i
◎导  演 伊桑·斯波尔丁 Ethan Spaulding
9 Q5 t/ _! f& d8 A" X◎编  剧 杰瑞米·亚当斯 Jeremy Adams / Ed Boon2 G5 f/ J  _) B! {
◎主  演 Grey Griffin5 y- |9 ?+ ?0 C, u2 f; r, [
      詹妮弗·卡朋特 Jennifer Carpenter! J, C! |% q9 U% L/ \9 q
      乔尔·麦克哈尔 Joel McHale3 x' F5 p+ c2 M" [: u5 A
      凯文·迈克尔·理查德森 Kevin Michael Richardson
( R5 l" ]  P- y; Y+ q
9 G( Y4 _5 H; q◎标  签 动画 | 动作 | 2020 | 美国 | 暴力 | 动漫 | 剧情 | 冒险
" K1 h9 o5 V, A, g0 \0 X6 t, v9 o
◎简  介
$ e+ \1 p3 D& e& T: X
# Q3 V3 e8 M7 [) a9 P2 k   聚焦了异世界和地球之间的千载难逢的比赛,这场比赛将最终决定地球和人类所有的公民的命运。地球保护者雷电必须聚集其领域最伟大的战士,以从邪恶的尚宗手上保卫地球,从而结束所有战斗。
- y$ q% P8 `4 H. k7 g& T9 X9 @% H' o  b! d: \( a
  Plot unknown. Reportedly an animated project based molikan.com on the long-running Mortal Kombat Video game franchise.
; j, ~6 Z3 {* k' c% _; Q
Video
0 l6 Q: C3 R5 ]/ V1 }: XID : 1
0 u. i- D; h2 i8 M7 O" K; bFormat : AVC
2 T: q5 G! v* iFormat/Info : Advanced Video Codec
1 v1 ?2 g' }/ [$ YFormat profile : High@L4
3 \3 F4 Q; A4 C$ c* d2 aFormat settings : CABAC / 4 Ref Frames
' i! O# d( Q2 uFormat settings, CABAC : Yes$ l: B6 s  r, d" F1 a
Format settings, Reference frames : 4 frames4 q. a( N& W# r  ~7 Z+ Q
Codec ID : V_MPEG4/ISO/AVC
4 J$ [+ q( L9 Q0 q/ ?5 xDuration : 1 h 20 min
: ~4 n. U& z  B- m* E) T) Q1 \; nBit rate mode : Constant
, H# }4 C( x1 P- q- i; Z' oBit rate : 6 490 kb/s
% V2 z) c  |; ?  ]6 g) bNominal bit rate : 10 000 kb/s% }' h2 N- }& m* K& J
Width : 1 920 pixels
5 |  R& D( z9 c, gHeight : 1 080 pixels
# O  U4 H: @; y2 n1 C8 EDisplay aspect ratio : 16:98 i7 L3 R! t6 Y- {$ }
Frame rate mode : Constant
0 m; n; ]8 x+ s  P: `Frame rate : 23.976 (24000/1001/189150) FPS# m& ^- N( E% m
Color space : YUV- d- ?) P: g9 p. S
Chroma subsampling : 4:2:0
" E8 s& I2 t8 f+ }5 WBit depth : 8 bits8 }* ~( o$ |, _8 B
Scan type : Progressive
/ a& Z- k# e9 aBits/(Pixel*Frame) : 0.131; t6 a: V" Q; E! F: _
Stream size : 3.63 GiB (91%)% Y3 b2 U7 |5 O$ n4 d1 ?$ T" o
Default : Yes: |( Q: h* u7 g0 k+ `0 g/ J+ b+ R
Forced : No
9 h/ a8 d) S# J5 _Color range : Limited1 Z$ B! M9 R! @5 w
Color primaries : BT.709
/ u3 T8 b0 Q  {Transfer characteristics : BT.7091 e/ c7 A- O7 u: U" S: p
Matrix coefficients : BT.7098 M: D  B6 w0 T4 n! |+ I! Q

( y8 \. m( I* K9 ^2 zAudio
6 P3 ~4 a! b' q* OID : 2- K5 C( a5 Y: l0 I2 q9 J
Format : E-AC-3) w; S5 b- S* c# I& _6 B
Format/Info : Enhanced AC-3
7 R* y6 r8 i& ]$ J4 U) X* K' `- fCommercial name : Dolby Digital Plus2 ]* s7 {! V5 Z" }% i5 [
Codec ID : A_EAC3; P6 q* x( r) V2 N$ h8 H1 Y! |% y
Duration : 1 h 20 min
4 R) \, D% q9 O  {- VBit rate mode : Constant
; Z  v# z6 i! o$ Q  ?; UBit rate : 640 kb/s
, h3 n1 W, _0 Z- U5 |* o! ]# PChannel(s) : 6 channels" d7 T$ f% N) H) h8 c) r+ `
Channel layout : L R C LFE Ls Rs
/ J$ N3 K/ V( j+ PSampling rate : 48.0 kHz
5 E& S4 ^5 x) `+ D  Y# cFrame rate : 31.250 FPS (1536 SPF)8 E7 A* ?$ X: A# f
Compression mode : Lossy
9 n( b- c$ I; x# T" w9 x- aStream size : 367 MiB (9%). x/ r1 v& ]' i( H9 e3 h
Language : English- b" o3 y9 S! [
Service kind : Complete Main- x+ a, b+ P/ p  w1 T
Default : Yes( c) ]& T% G/ p' G
Forced : No7 H% z1 j) V% N* n' i3 `- u

4 K1 W$ L/ e% |( rText #19 G% g7 G. _! i: {
ID : 3
, f# U- K% v; k( Q4 {* L1 BFormat : UTF-8
1 ~$ Q6 g) M% K3 R3 T  BCodec ID : S_TEXT/UTF86 I0 Y1 p/ S5 i  S* M$ u
Codec ID/Info : UTF-8 Plain Text( ?7 z0 U" v! a9 O
Duration : 1 h 17 min2 W5 P$ x% y& @: R* h
Bit rate : 38 b/s4 q$ f. ?8 C' J' u  X
Count of elements : 8688 u1 b9 h+ c/ q+ f. j( M9 ^
Stream size : 21.6 KiB (0%)
0 F/ \# \( W! ?& VLanguage : English9 ~; m& Y) G9 S7 A+ f
Default : No
+ d8 S5 m' W7 f! i1 a# m# DForced : No
1 K7 B! k& y  A# h& }9 l1 E1 P) k! E3 H2 A9 \& N
Text #2# p" ?$ x2 ^8 f/ D
ID : 41 s6 h8 a2 [6 l1 S
Format : UTF-8
7 r4 L/ C0 j( {- D9 _Codec ID : S_TEXT/UTF8' s$ v& P9 A! Q0 Z' }0 q
Codec ID/Info : UTF-8 Plain Text; f, G2 a; o1 \! D+ |5 z
Duration : 1 h 17 min: O* G! C3 O3 `( |
Bit rate : 44 b/s
& ?  E* [' H* r" e+ ^Count of elements : 10607 M( b! j- Z  m: T! l  k
Stream size : 25.3 KiB (0%)
& [; ?( s, `& q: C" CTitle : SDH8 b/ g9 V, ^1 V. B# U' B
Language : English
4 X/ v) C  H: S  }7 r8 E; SDefault : No
  N. U4 N$ |# [Forced : No
, ?8 Y* s/ b- ~* V4 h
游客,查看本帖隐藏内容请回复 | 加入VIP贵宾可免积分免回复 了解详情 | 还不是会员:点击获取邀请码 Invitation Code

本版积分规则

小黑屋|Archiver|蓝光电影资源网

GMT+8, 2021-6-13 22:01

快速回复 返回顶部 返回列表