BluRayCD Forum

 找回密码
 立即注册【分享大片】
查看: 23|回复: 0
收起左侧

[2160P极清] 真人快打传奇:蝎子的复仇 [4K SDR高码版] Mortal Kombat Legends Scorpions Revenge 2020 2160p BluRaycd x265 10bit & 8bit SDR DTS-HD MA 5.1-SWTYBLZ 10.45GB & 10.24GB

[复制链接]

5622

主题

5796

帖子

6万

积分

Post Share

金币
12801 枚
体力
19309 点

卓越贡献勋章

黄金嫖客 发表于 2020-5-19 17:33:34 | 显示全部楼层 |阅读模式
01.jpg
+ ]* W& [# {. w5 L4 m6 U' e* [6 A
! @6 W# A( C3 B5 Q' i" z◎片  名 Mortal Kombat Legends: Scorpions Revenge' _3 a( }) M- X2 u3 x/ h- u# o
◎译  名 真人快打传奇:蝎子的复仇/真人快打:魔蝎的复仇(台)
- x1 S3 T5 q$ Y: `" p; e◎年  代 2020# o% ?7 U" \" z1 H6 w
◎产  地 美国
: }$ q- \" e+ H, w& m+ f) \◎类  别 动作/动画/冒险
/ h2 f1 N4 r; H: m  [◎语  言 英语+ ?) h. P6 Y7 ~* q4 P) y4 f  I
◎上映日期 2020-04-12(美国)3 T: K$ V( T& v# b' O3 w& }0 R* g1 t
◎IMDb评分 7.5/10 from 5,462 users
: {' q! A; E$ m- ~0 b◎IMDb链接 https://www.imdb.com/title/tt9580138/; T5 q2 u4 _( I
◎豆瓣评分 7.3/10 from 2,890 users
! ?: |3 o9 M: G: p0 Z◎豆瓣链接 https://movie.douban.com/subject/34875588/5 P) h5 S& G2 q8 Y' ]1 o
◎片  长 1 h 19 min
1 o! _& h2 S/ O, [5 W5 Y◎导  演 伊桑·斯波尔丁 Ethan Spaulding& L) e5 C" F# W
◎编  剧 杰瑞米·亚当斯 Jeremy Adams! B9 \7 V* h* d) o
       Ed Boon
4 y0 B) [# P; m& L◎主  演 Grey Griffin
% y5 ]1 |2 ?8 s       詹妮弗·卡朋特 Jennifer Carpenter! Y% }, t, n" s! j% \2 I
       乔尔·麦克哈尔 Joel McHale
% \* @7 \8 @6 h* ^% P$ M$ U, [       凯文·迈克尔·理查德森 Kevin Michael Richardson
! l/ z" H" `# q% N$ M3 h$ N; l" P2 q+ j3 U6 J! i, z/ d7 i2 e
◎标  签 动画 | 动作 | 2020 | 美国 | 暴力 | 动漫 | 剧情 | 冒险
' ?; j- }5 {+ A  y
& F8 r7 V/ @( j& {◎简  介
: K% T7 y. U- U; c; }, v$ t5 m5 l
2 ~, D2 F: U' J  聚焦了异世界和地球之间的千载难逢的比赛,这场比赛将最终决定地球和人类所有的公民的命运。地球保护者雷电必须聚集其领域最伟大的战士,以从邪恶的尚宗手上保卫地球,从而结束所有战斗。
: d/ s2 b4 d2 i/ Y) x3 n& I: L8 `0 R# D6 ?- [4 }6 Y& x
   After the vicious slaughter of his family by stone-cold mercenary Sub-Zero, Hanzo Hasashi is exiled to the torturous Netherrealm. There, in exchange for his servitude to the sinister Quan Chi, he’s given a chance to avenge his family – and is resurrected as Scorpion, a lost soul bent on revenge. Back on Earthrealm, Lord Raiden gathers a team of elite warriors – Shaolin monk Liu Kang, Special Forces officer Sonya Blade and action star Johnny Cage – an unlikely band of heroes with one chance to save humanity. To do this, they must defeat Shang Tsung’s horde of Outworld gladiators and reign over the Mortal Kombat tournament. Prepare to witness all of the bone-crushing action in this riveting Mortal Kombat Legends animated feature!
7 D) T- O6 r7 _& ?$ M, p
* N7 t9 |, H( A( v1 }' o
SWEATY BALLZ presents
' m+ P( ?: O9 a
- k" |: f$ }9 X" l! r* `( p2 aMortal.Kombat.Legends.Scorpions.Revenge.2020.2160p.BluRayCD.x265.10bit.SDR.DTS-HD.MA.5.1-SWTYBLZ6 u4 t; Q: s* ^! O  U
Converted from 10 bit HDR to 10 bit SDR using tripple mixed Hable-Reinhard-JJ per scene+frame analysis algorithm$ C' S$ X) _  O; e
Screenshots are 8bit SDR
- F$ T! H. g+ R0 J: b
+ P5 ^( M! X1 |- T& D' Y  IVideo
& o  S* Y% H7 BID                                       : 1
( X8 }- c- e' x1 w: n0 \5 \0 sFormat                                   : HEVC8 {# {9 V! ^. }2 T. ^) [9 p/ a
Format/Info                              : High Efficiency Video Coding) [  B* @6 F: |. S
Format profile                           : Main 10@L5.1@High2 a( A; o5 \- G1 w/ f
Codec ID                                 : V_MPEGH/ISO/HEVC
. h4 h3 [7 Z9 L) t) nDuration                                 : 1 h 19 min
6 J! n7 e+ f: y9 `, d+ UBit rate                                 : 15.5 Mb/s& z, K1 J2 J% J; U4 Z3 B# t* T
Width                                    : 3 840 pixels
( {4 R5 M2 L$ C7 O: M& yHeight                                   : 2 160 pixels4 q5 x' O) a$ t* h+ c6 v( G
Display aspect ratio                     : 16:9  S: C* b" |; S9 T( a9 v
Frame rate mode                          : Constant/ D3 D& B6 G. H' y$ H0 a
Frame rate                               : 23.976 (24000/1001/37687) FPS$ N" X9 }+ n' T0 W
Color space                              : YUV: L: ?% O6 C' f
Chroma subsampling                       : 4:2:0
, C" z3 b; E0 l/ w5 l0 C3 xBit depth                                : 10 bits
- U$ ~: L& S" R6 W; J" MBits/(Pixel*Frame)                       : 0.078! G3 M( x* ^8 {3 x% W6 P2 c
Stream size                              : 8.66 GiB (83%)
, L  j& K6 y# h' U! N1 KTitle                                    : Mortal.Kombat.Legends.Scorpions.Revenge.2020.2160p.BluRaycd.x265.10bit.SDR.DTS-HD.MA.5.1-SWTYBLZ
0 l* F  G' P  |Writing library                          : x265 3.0+1-ed72af837053:[Windows][GCC 8.2.0][64 bit] 10bit" ~( @; X7 _, j( w0 {6 h
Encoding settings                        : cpuid=1111039 / frame-threads=6 / numa-pools=40 / wpp / no-pmode / no-pme / no-psnr / no-ssim / log-level=2 / input-csp=1 / input-res=3840x2160 / interlace=0 / total-frames=115042 / level-idc=51 / high-tier=1 / uhd-bd=0 / ref=3 / no-allow-non-conformance / repeat-headers / annexb / aud / hrd / info / hash=0 / no-temporal-layers / no-open-gop / min-keyint=1 / keyint=24 / gop-lookahead=0 / bframes=6 / b-adapt=2 / b-pyramid / bframe-bias=0 / rc-lookahead=25 / lookahead-slices=4 / scenecut=40 / radl=0 / no-splice /  no-intra-refresh / ctu=64 / min-cu-size=8 / no-rect / no-amp / max-tu-size=32 / tu-inter-depth=1 / tu-intra-depth=1 / limit-tu=0 / rdoq-level=0 / dynamic-rd=0.00 / no-ssim-rd / signhide / no-tskip / nr-intra=0 / nr-inter=0 / no-constrained-intra / strong-intra-smoothing / max-merge=2 / limit-refs=3 / no-limit-modes / me=1 / subme=2 / merange=57 / temporal-mvp / weightp / no-weightb / no-analyze-src-pics / deblock=1:1 / no-sao / no-sao-non-deblock / rd=3 / no-early-skip / rskip / no-fast-intra / no-tskip-fast / no-cu-lossless / no-b-intra / no-splitrd-skip / rdpenalty=0 / psy-rd=0.40 / psy-rdoq=0.00 / no-rd-refine / no-lossless / cbqpoffs=0 / crqpoffs=0 / rc=crf / crf=14.0 / qcomp=0.60 / qpstep=4 / stats-write=0 / stats-read=0 / vbv-maxrate=160000 / vbv-bufsize=160000 / vbv-init=0.9 / crf-max=0.0 / crf-min=0.0 / ipratio=1.40 / pbratio=1.30 / aq-mode=1 / aq-strength=0.40 / cutree / zone-count=0 / no-strict-cbr / qg-size=32 / no-rc-grain / qpmax=69 / qpmin=0 / no-const-vbv / sar=1 / overscan=0 / videoformat=5 / range=0 / colorprim=2 / transfer=2 / colormatrix=2 / chromaloc=0 / display-window=0 / max-cll=0,0 / min-luma=0 / max-luma=1023 / log2-max-poc-lsb=8 / vui-timing-info / vui-hrd-info / slices=1 / opt-qp-pps / opt-ref-list-length-pps / no-multi-pass-opt-rps / scenecut-bias=0.05 / no-opt-cu-delta-qp / no-aq-motion / no-hdr / no-hdr-opt / no-dhdr10-opt / no-idr-recovery-sei / analysis-reuse-level=5 / scale-factor=0 / refine-intra=0 / refine-inter=0 / refine-mv=0 / refine-ctu-distortion=0 / no-limit-sao / ctu-info=0 / no-lowpass-dct / refine-analysis-type=0 / copy-pic=1 / max-ausize-factor=1.0 / no-dynamic-refine / no-single-sei / no-hevc-aq / qp-adaptation-range=1.00* l4 i% ^! L, Q9 U; J
Default                                  : Yes# I5 z3 E/ c" P
Forced                                   : No' P+ x! F3 r6 N" k# O
! d) I+ d* k6 n. g2 s
Audio #1
; _+ i% O! A" C5 @+ |ID                                       : 29 I4 g& M# `. ~, p3 I" I& R
Format                                   : DTS XLL: {( U8 ^% P" K" _+ L) h* l" _
Format/Info                              : Digital Theater Systems% A% C+ i4 d+ G( l# `/ q
Commercial name                          : DTS-HD Master Audio
6 c8 g7 j9 W/ X- LCodec ID                                 : A_DTS
( q- ~% Y7 M2 jDuration                                 : 1 h 19 min' }. b% ]3 t5 A" h: `, s! B. E5 V
Bit rate mode                            : Variable
8 m, [3 U1 G: IBit rate                                 : 2 398 kb/s# L8 N' p" j2 R8 @' @
Channel(s)                               : 6 channels
: M* F7 u4 `& }* V% T- iChannel layout                           : C L R Ls Rs LFE
3 G& o# g6 A& r" k2 r/ @/ V+ rSampling rate                            : 48.0 kHz
2 O4 f3 Q/ ~$ VFrame rate                               : 93.750 FPS (512 SPF)
5 y/ k5 U% ]8 L+ tBit depth                                : 16 bits
  p% B  H0 p) p! k0 eCompression mode                         : Lossless. ]( Y3 x/ |! U& N
Stream size                              : 1.34 GiB (13%): h2 H+ p9 D% B1 U8 O3 v( t
Title                                    : Mortal.Kombat.Legends.Scorpions.Revenge.2020.2160p.BluRaycd.x265.10bit.SDR.DTS-HD.MA.5.1-SWTYBLZ) F4 |1 `7 e' Z+ L
Language                                 : English
% H5 X8 i, L/ s( r, k% ZDefault                                  : Yes4 w' v( {, C: F3 [% d
Forced                                   : No
' h; u$ U( r) Z5 i" s: l: S: @( Z" O0 V/ I5 q9 Q  T/ w9 W* K$ `
Audio #2
  _) Y6 |) M# x5 o" p2 d3 e* SID                                       : 3
/ g; S- U) Y$ @! _9 PFormat                                   : AC-3
  }4 x$ G' p$ K, y; M& l+ \Format/Info                              : Audio Coding 3
5 h' w( @6 L' h. B* UCommercial name                          : Dolby Digital( x# O- K2 d  }
Codec ID                                 : A_AC3. E) k; @0 J7 @+ v$ ^, X
Duration                                 : 1 h 19 min
4 z; j* O+ I+ ~1 d% sBit rate mode                            : Constant! l# J) W3 h5 b* r8 t" J
Bit rate                                 : 640 kb/s, s& [# z  j. ?( d' O
Channel(s)                               : 6 channels6 [3 c  B4 x+ c5 `2 u" x/ q
Channel layout                           : L R C LFE Ls Rs
3 b, _/ c; c( \; r, b" nSampling rate                            : 48.0 kHz
& m) B2 O) v* y5 mFrame rate                               : 31.250 FPS (1536 SPF)
( l0 e0 s9 t0 ]- q, RBit depth                                : 16 bits
7 i1 g' j+ Z, P! p3 ~: V1 g+ ]% _Compression mode                         : Lossy% A* |& s/ w; Y
Stream size                              : 366 MiB (3%)
* V2 O. j- |& DTitle                                    : Mortal.Kombat.Legends.Scorpions.Revenge.2020.2160p.BluRaycd.x265.10bit.SDR.DTS-HD.MA.5.1-SWTYBLZ
: I/ V/ o7 ~5 y6 q% I$ f. s: M3 P  K+ A& GLanguage                                 : English3 Q+ t6 F) ~  f7 X
Service kind                             : Complete Main! i* Y' Q5 J7 T) S9 h0 j/ w3 W
Default                                  : No6 m- }" C8 B2 L# u1 n' K1 y8 X
Forced                                   : No
( d# B) \) C. S* F+ g3 r
5 Y, b5 R" `1 `3 X0 RText #1/ A" x& q2 u% F" a7 V
ID                                       : 4/ K+ h3 s4 a& U) r% n7 S; y% L
Format                                   : UTF-8' d/ r0 T0 \$ t3 W; ^$ a
Codec ID                                 : S_TEXT/UTF8
& s& f  t# E. }Codec ID/Info                            : UTF-8 Plain Text5 ~# v1 Q3 \( N: l! C( Z( n
Duration                                 : 1 h 17 min
7 H9 r' ^" z! @2 ~: lBit rate                                 : 37 b/s
2 M9 ~* _# D2 @# \1 sCount of elements                        : 864
4 ~$ N: U/ q8 F4 ?7 }  I0 _Stream size                              : 21.4 KiB (0%)
: d, }) \9 N) \* Q: {3 C: ?Title                                    : English-SRT
# p% B' O' D& z5 o/ K! s( h! TLanguage                                 : English/ U3 ^  z7 o( d
Default                                  : Yes5 ^/ B8 T( K$ ]- Y5 b
Forced                                   : No& ^* h% B% [' t. k2 P
( K6 U) |/ J6 \" _1 \
Text #2
9 q5 ?& l+ ^; l' L. pID                                       : 5% s3 s$ n3 D( C+ ?0 H4 c
Format                                   : PGS
5 ~8 j9 h  K; S$ x0 e0 ^+ xMuxing mode                              : zlib0 D9 h" m8 l7 Q" u: i0 ]9 @- I
Codec ID                                 : S_HDMV/PGS
4 t4 u2 K. u6 A5 H. SCodec ID/Info                            : Picture based subtitle format used on BDs/HD-DVDs
; ~- S, L1 u3 w6 G' W: [Duration                                 : 1 h 17 min  x, [" W* S: d
Bit rate                                 : 27.0 kb/s
5 I1 q; ^- ]( HCount of elements                        : 2120) c1 c: c  \8 e2 D
Stream size                              : 14.9 MiB (0%)9 r& P7 e+ e9 D+ O" O5 L
Title                                    : English-PGS
6 s2 @, |7 g4 O  \( g3 ?$ GLanguage                                 : English) i4 f6 \2 V: Y/ f
Default                                  : No' P* \) M. \: R& }/ D* \& g
Forced                                   : No; O/ r( d# T$ M* D
) u' f. u) C/ N. l9 Q
Text #3
6 d7 F4 @2 ?' D( ]: G2 yID                                       : 6
- G" k6 b- E. U$ kFormat                                   : PGS; @/ _" B: _+ ^7 F9 ?3 F8 Z2 L
Muxing mode                              : zlib
' E8 i9 c! V* B( ?3 j8 mCodec ID                                 : S_HDMV/PGS
. u0 o4 f% v& Y+ b; N+ l: m, lCodec ID/Info                            : Picture based subtitle format used on BDs/HD-DVDs
, J# Y! [( D$ z3 E, a. ADuration                                 : 1 h 19 min6 p0 m% d2 C- t/ w: ?
Bit rate                                 : 21.7 kb/s) {2 u- A% W4 f
Count of elements                        : 1662
6 w; G: p( G* Q$ H( fStream size                              : 12.3 MiB (0%)$ k, M5 h5 ~: q! G4 S
Title                                    : Dutch-PGS# n! f) |9 p. m& ~( w" Q/ f
Language                                 : Dutch1 F2 E, x- F) S# ?
Default                                  : No/ h+ e6 M; M! `) E# J
Forced                                   : No) K/ ^8 x5 F7 h5 ]
0 a8 e/ g5 b% I2 U% I) }, J3 b
Text #4
6 \' `" |& Y4 R# K3 LID                                       : 7
8 m4 V) v4 I3 z4 m9 i9 cFormat                                   : PGS
" V% ]( d; y1 E: `; `2 J1 C4 l! lMuxing mode                              : zlib
8 {+ a! a+ E7 k7 n- X# _0 a" XCodec ID                                 : S_HDMV/PGS& ^' X$ d- F4 X: D, ?4 y
Codec ID/Info                            : Picture based subtitle format used on BDs/HD-DVDs
$ I& D( @! V7 f  d5 d" x. X  MDuration                                 : 1 h 19 min% R  ?" U  M' `8 T4 ^
Bit rate                                 : 23.7 kb/s
3 w1 }+ {: q( E% V7 H) f! _; {$ R* ~0 cCount of elements                        : 1718
2 @, s$ N4 x9 K) ^1 g$ VStream size                              : 13.5 MiB (0%). J4 O. z2 {9 }) J3 W" `
Title                                    : French-PGS9 s4 P/ M% f3 m8 @
Language                                 : French
9 {! ?  B+ l9 V# jDefault                                  : No
. ?/ G, v1 {: rForced                                   : No
; I4 R0 p8 y4 g, P2 l& p6 \1 n: O  C" A
Text #5
  [! ~0 o! E# z; v* B, H6 X8 yID                                       : 86 U/ v, H; O4 I0 R! f
Format                                   : PGS
- D% G( |: g; s3 q+ p: H  c1 w6 CMuxing mode                              : zlib# ~/ C1 w7 N% V+ _8 R, n- Y% I
Codec ID                                 : S_HDMV/PGS3 i. H) b+ @+ r
Codec ID/Info                            : Picture based subtitle format used on BDs/HD-DVDs  P' \$ K" _) B: Z; |
Duration                                 : 1 h 17 min, Z7 s0 b& c7 V" N& E) Y
Bit rate                                 : 31.5 kb/s
4 m# K* i, ?9 a% N5 c  V5 fCount of elements                        : 2118
, o- E; |" s8 I  g2 O5 uStream size                              : 17.4 MiB (0%)# Y* O# t. c# l! o7 |& F
Title                                    : German-PGS
' Q' Y! `3 Y3 v/ C; |& jLanguage                                 : German; D2 t+ i, W* y9 a5 v
Default                                  : No* y% @+ B# {+ o2 [% y
Forced                                   : No
- \, u( s; {: D/ {. W  O' j7 I: V8 B6 z% c
Text #6) m# q2 D& D/ Q
ID                                       : 9
, ]+ k0 ^+ N# f3 U& f7 dFormat                                   : PGS
6 _5 ^1 X9 _6 D) F2 _3 q2 n. G- xMuxing mode                              : zlib
% u' n, L$ Y% L1 m: FCodec ID                                 : S_HDMV/PGS
2 h! [  ^, D2 K2 E6 ]Codec ID/Info                            : Picture based subtitle format used on BDs/HD-DVDs
2 P5 p$ e; J" R. g9 y9 LDuration                                 : 1 h 19 min$ h$ v, m: x( d% @, z4 Y
Bit rate                                 : 22.1 kb/s
8 S5 P* c$ [$ d& b" k( CCount of elements                        : 1714
+ y  r8 w" ?' r$ Y( e2 KStream size                              : 12.6 MiB (0%)! ^3 ~- t& E3 h
Title                                    : Spanish-PGS1 S# I9 w) T. b  w, T9 W
Language                                 : Spanish
( ~" F8 C- n$ s. P3 UDefault                                  : No, D& q/ L+ W, o' M2 ^3 M2 S! @
Forced                                   : No! W- [; ?) j& R; s3 ]9 E
" u, x3 ]4 m! P/ }! u7 q
Menu. ?4 D; }% ~; e; M
00:00:00.000                             : en:Chapter 01/ W" S0 X0 E5 p, Y$ _* m9 G8 |1 z' V
00:09:21.978                             : en:Chapter 02
& P" G3 B1 `" j1 ~3 q00:19:53.567                             : en:Chapter 03
6 Y( z8 j8 D6 ?; t/ a00:28:12.107                             : en:Chapter 044 s$ {! d4 Q+ O4 M
00:35:54.277                             : en:Chapter 05/ ~3 y; g9 n4 ?
00:45:51.082                             : en:Chapter 06( {4 C8 u- q  r4 c* L3 w. K1 ?
00:55:18.690                             : en:Chapter 07
0 C3 x9 Z& O6 \0 u1 P. H% Y) @) I01:04:28.448                             : en:Chapter 083 u" }. S* F2 E4 X: n# }+ O
01:13:56.724                             : en:Chapter 09
, K9 ~. O$ N4 ~/ u/ d) T1 c01:17:22.429                             : en:Chapter 10
SWEATY BALLZ presents ( w7 f/ [8 V" a! E6 f/ d" C
, G3 k! ]; N: ]6 @2 k0 @# W5 {
Mortal.Kombat.Legends.Scorpions.Revenge.2020.2160p.BluRaycd.x264.8bit.SDR.DTS-HD.MA.5.1-SWTYBLZ
, a8 \' r1 |. S- O$ ?5 E. `Converted from 10 bit HDR to 8 bit SDR using tripple mixed Hable-Reinhard-JJ per scene+frame analysis algorithm6 M3 q$ D5 o9 I3 m# n8 w
0 T/ _4 O$ B  W2 |, T1 \! c! ?" o
Video
' }# A- g2 N4 U9 |6 Q7 x. z+ A* rID                                       : 1- N+ s% a1 o2 L
Format                                   : AVC
- P# S- y  K$ \1 h, \Format/Info                              : Advanced Video Codec
* s- {  n: d7 ^' V$ G1 \7 C0 ]Format profile                           : High@L5.13 b) X1 w. e8 T1 A, Q" C+ A8 Z
Format settings                          : CABAC / 5 Ref Frames3 ^5 F  F+ A# |+ R
Format settings, CABAC                   : Yes
* |/ U$ z* s% Q1 p+ y: j1 B5 \Format settings, Reference frames        : 5 frames2 k9 ?; Q+ c5 s0 C: I
Codec ID                                 : V_MPEG4/ISO/AVC
0 l* _9 [7 u! Q1 PDuration                                 : 1 h 19 min2 L$ s5 _. V2 p: [1 d# g
Bit rate                                 : 15.1 Mb/s
( V( E' c$ G0 ?' }Width                                    : 3 840 pixels& U3 `- `) X4 |4 E
Height                                   : 2 160 pixels: g2 `7 C! T* D4 n$ r! x4 z
Display aspect ratio                     : 16:9
* e& T; Y( `9 F/ FFrame rate mode                          : Constant
$ c! `; U, j/ E$ A+ Y2 d5 s0 t5 Z' M) cFrame rate                               : 23.976 (24000/1001/37687) FPS9 G2 E( y7 v- w7 ]+ O3 b
Color space                              : YUV
: Q+ \5 ^# t  JChroma subsampling                       : 4:2:0$ V0 P0 x: j2 T
Bit depth                                : 8 bits9 N# I3 |  y' H% K5 `0 G7 O
Scan type                                : Progressive
/ Q2 S! j: H( G# S% J8 ]  jBits/(Pixel*Frame)                       : 0.076
. `- Q9 }. T0 QStream size                              : 8.44 GiB (83%)& Y9 p0 R% b! x2 o' O
Title                                    : Mortal.Kombat.Legends.Scorpions.Revenge.2020.2160p.BluRaycd.x264.8bit.SDR.DTS-HD.MA.5.1-SWTYBLZ
2 C; A$ \3 i8 Z. {% yWriting library                          : x264 core 157 r2935 545de2f3 s4 `6 n7 D  j2 e& B6 z- j
Encoding settings                        : cabac=1 / ref=5 / deblock=1:1:1 / analyse=0x3:0x113 / me=umh / subme=10 / psy=1 / psy_rd=0.40:0.00 / mixed_ref=1 / me_range=48 / chroma_me=1 / trellis=2 / 8x8dct=1 / cqm=0 / deadzone=21,11 / fast_pskip=1 / chroma_qp_offset=-2 / threads=48 / lookahead_threads=5 / sliced_threads=0 / nr=0 / decimate=0 / interlaced=0 / bluray_compat=0 / constrained_intra=0 / bframes=5 / b_pyramid=2 / b_adapt=2 / b_bias=0 / direct=3 / weightb=1 / open_gop=0 / weightp=2 / keyint=250 / keyint_min=23 / scenecut=40 / intra_refresh=0 / rc_lookahead=50 / rc=crf / mbtree=1 / crf=16.0 / qcomp=0.60 / qpmin=0 / qpmax=69 / qpstep=4 / ip_ratio=1.40 / aq=1:0.60
" S  ^9 g4 X2 ]; J3 UDefault                                  : Yes
# t6 g1 D+ R7 B- G# g% B: Y# k: RForced                                   : No
( t( |1 y* ~$ G! s4 j
; X, h; B, o# T0 B4 p. wAudio #1
4 t) Y* s4 r, C7 pID                                       : 2
2 L# B, {5 K& ]7 a, I( s: MFormat                                   : DTS XLL! n+ z7 L& f0 B& C( v! Q
Format/Info                              : Digital Theater Systems
+ s7 S5 k5 _: aCommercial name                          : DTS-HD Master Audio
- I+ X9 v8 T+ p3 s  f, O# f7 LCodec ID                                 : A_DTS
7 {" z7 c9 x$ f8 I3 v7 sDuration                                 : 1 h 19 min, E& r6 n& P6 \& Z2 N, I" Z! `% S
Bit rate mode                            : Variable( E) l, a; z1 u, t4 B0 t; l" A8 O3 O
Bit rate                                 : 2 398 kb/s. ]+ I6 q5 o; d
Channel(s)                               : 6 channels
2 a6 `6 a; Q- I# u+ KChannel layout                           : C L R Ls Rs LFE
# p- E( C9 w# t. _* j+ B" sSampling rate                            : 48.0 kHz, ?( ], E0 b$ }1 ^  z' K
Frame rate                               : 93.750 FPS (512 SPF)
" p8 u" r9 r' K8 M5 GBit depth                                : 16 bits. P1 N9 D3 n- F$ }# p
Compression mode                         : Lossless
! ^) _  t/ \( hStream size                              : 1.34 GiB (13%)
4 I# d. n9 [4 ~5 F2 R% ATitle                                    : Mortal.Kombat.Legends.Scorpions.Revenge.2020.2160p.BluRaycd.x264.8bit.SDR.DTS-HD.MA.5.1-SWTYBLZ, |8 w+ u2 e1 c: `' A
Language                                 : English
1 v; s8 K  |& I* vDefault                                  : Yes+ F) G+ u. ~& b3 ^. T
Forced                                   : No
! G4 u6 B% v$ }' I
* L: ^; V4 a- }$ C% b: z5 U& F( xAudio #2
7 I+ ?+ v- S& uID                                       : 31 T# w. P9 C) O5 j* m8 ~
Format                                   : AC-3
9 P4 F/ M- k7 Y& q5 \' [Format/Info                              : Audio Coding 39 e- ~6 {, l  c/ E% A
Commercial name                          : Dolby Digital! O, U8 _  z. u9 h
Codec ID                                 : A_AC3- h: s$ e  u& s) ?+ v$ b/ ?, u
Duration                                 : 1 h 19 min
! D0 W* X$ |/ d- H2 r! r( Q4 TBit rate mode                            : Constant
) V1 w& B4 C$ R' v( sBit rate                                 : 640 kb/s
5 T& [" s5 [6 M0 R- W/ y5 g$ HChannel(s)                               : 6 channels
7 \& K' S+ s: l0 ]Channel layout                           : L R C LFE Ls Rs9 o2 P6 j5 q& p
Sampling rate                            : 48.0 kHz, H6 v( j; ^' N
Frame rate                               : 31.250 FPS (1536 SPF)
5 _7 P/ G. G" }; u: hBit depth                                : 16 bits
& q7 g3 G- r7 W4 O- s; A- d, i9 JCompression mode                         : Lossy
- n- S  v, U, \! CStream size                              : 366 MiB (4%)
& F  b8 s/ H8 O7 nTitle                                    : Mortal.Kombat.Legends.Scorpions.Revenge.2020.2160p.BluRaycd.x264.8bit.SDR.DTS-HD.MA.5.1-SWTYBLZ
6 p2 Y2 v6 t. i8 Q/ y+ l8 q$ FLanguage                                 : English
" W  M# d, r' D3 Z2 v. KService kind                             : Complete Main9 e0 ^+ f  P6 Q) U
Default                                  : No) U6 U. c  u+ h
Forced                                   : No' U/ B& i6 @- ^; A
. d6 M! i5 d' X; d$ r
Text #1* W' P: ^+ r0 N) E) l
ID                                       : 4
7 K9 L" W# I# `* jFormat                                   : UTF-86 H  U) m$ z8 L" W
Codec ID                                 : S_TEXT/UTF8
2 u- E% [& j4 JCodec ID/Info                            : UTF-8 Plain Text
. _# q" T7 o$ O$ O+ z+ F$ g' jDuration                                 : 1 h 17 min3 Y2 r5 J4 q$ R& H
Bit rate                                 : 37 b/s
3 B( Y$ D) t' w5 {Count of elements                        : 864
/ f! S2 s% d3 r5 ^Stream size                              : 21.4 KiB (0%)
& q  _1 N# S! Z8 y" N* v: UTitle                                    : English-SRT
; A; A- _- ?4 x! C1 m- [Language                                 : English
$ ~3 _% C# E% ~9 d5 [Default                                  : Yes5 f" {  t0 z' j' g5 \' v
Forced                                   : No
6 A# ?3 Y, A3 I, d( }1 h- B4 s6 X0 u% E) u
Text #2
9 V! [. B( }8 R5 S; @( U1 i* {' JID                                       : 58 w6 a& o# E, j  {$ {$ c1 Z
Format                                   : PGS2 x  j, K4 e7 G% t2 s5 ~8 |0 A
Muxing mode                              : zlib% m1 \. J! b. I" q& f2 l) L. r& E
Codec ID                                 : S_HDMV/PGS6 i8 `( c; G( M. n) n
Codec ID/Info                            : Picture based subtitle format used on BDs/HD-DVDs( J) e8 I' ]* X$ n, u( `  `3 i
Duration                                 : 1 h 17 min  r6 V* Y% }+ R' E6 ^
Bit rate                                 : 27.0 kb/s( z& t. F% c) H' |! F& j6 u5 O
Count of elements                        : 2120
! D0 |# C/ b1 {/ r! R4 \7 ]Stream size                              : 14.9 MiB (0%)
: q8 e2 E: N( N" G) MTitle                                    : English-PGS4 Z( E  @3 f& L: B
Language                                 : English1 s  i9 c, p, J* ~
Default                                  : No- ?8 m9 W+ e" ^* s+ R  N+ w
Forced                                   : No, s" o4 O4 G7 O, P3 _
/ b9 s. O, f! a+ s
Text #3
! O2 a; c8 i& J  m% d% iID                                       : 6+ r9 c3 V) n0 Z( a% p3 R6 p
Format                                   : PGS
+ ]) n4 d" W' P9 g/ oMuxing mode                              : zlib3 m% ]2 d* P  k' T% p( u0 P8 \5 _
Codec ID                                 : S_HDMV/PGS- j6 n, M. `& N1 P7 Y! a) z/ N
Codec ID/Info                            : Picture based subtitle format used on BDs/HD-DVDs9 |2 f( X. l. L! Y# b/ X: U9 a
Duration                                 : 1 h 19 min
9 W1 B9 q! _( N4 JBit rate                                 : 21.7 kb/s
: A. L; |$ m9 n3 P4 DCount of elements                        : 1662; E3 L1 j. \! N8 G3 m6 W. s# E
Stream size                              : 12.3 MiB (0%)4 v& o9 U9 h9 i2 V. ]
Title                                    : Dutch-PGS
* A  o1 g8 Z: r* D2 B: M) p% y! `% LLanguage                                 : Dutch( B  W. l( y: N( ?' m7 S! A7 s
Default                                  : No6 ^  U1 r; H0 f) B' [, P5 y
Forced                                   : No
5 P8 S) D0 ?0 k% t3 a" ~* @" v6 u) _- f+ `- ^4 {0 y
Text #43 @9 W+ [; Y- }6 t# D5 G! m
ID                                       : 7
7 p$ _9 D. w5 I( v: @: ]" ^Format                                   : PGS( C7 N+ ]9 q2 ]" ?" ]7 X9 k9 x
Muxing mode                              : zlib9 D# g* |! _/ i& p6 a; W; W7 ^
Codec ID                                 : S_HDMV/PGS( G4 Z9 X) C) H* T- Q* d
Codec ID/Info                            : Picture based subtitle format used on BDs/HD-DVDs
. s- y& v" t  eDuration                                 : 1 h 19 min
$ e6 u! P# z/ ~3 y& yBit rate                                 : 23.7 kb/s
8 |8 R. B# Q+ M. |; t. t7 VCount of elements                        : 1718
; L+ n/ `, `6 `3 S9 SStream size                              : 13.5 MiB (0%)7 W& M3 z7 N' R& y& i7 U7 I+ J
Title                                    : French-PGS6 d! ~; s4 \$ s  x4 U' |" t0 ^
Language                                 : French* K: \. K8 @4 H4 O' x9 g1 ^! H
Default                                  : No& B- u1 }* V! [
Forced                                   : No$ z0 @" [4 z8 j  m6 T# \# n5 ^% N

; f0 g* c5 d% S# PText #5$ ~6 I2 P( o9 Z+ C
ID                                       : 8
/ i) }1 c3 _* j; yFormat                                   : PGS
$ e, B9 s; I1 L# kMuxing mode                              : zlib$ f( D; T4 }  g$ g& @
Codec ID                                 : S_HDMV/PGS
7 t* }2 E% C. g8 h$ d' TCodec ID/Info                            : Picture based subtitle format used on BDs/HD-DVDs
, j" ?4 v" V5 E5 k0 ~Duration                                 : 1 h 17 min
) Y( r0 m( S% t  O- |1 PBit rate                                 : 31.5 kb/s: E0 m& r( o. k8 N! S+ I: z, [
Count of elements                        : 2118
+ g$ i) U# ~& ]6 g, j" R* a  gStream size                              : 17.4 MiB (0%)
" L8 Y) H) f$ G4 eTitle                                    : German-PGS
! k1 Y& O) e- y  {4 P% b( N6 ?  O7 |Language                                 : German
! S; i8 g' x% \- jDefault                                  : No
/ j3 g" Q0 z) h. jForced                                   : No6 ]" T  ~/ `* u- g& U$ p
4 T0 }; N" k3 a
Text #6. R3 S+ d, u: g! q) ~
ID                                       : 9/ b; C! p7 i" U6 y+ r4 V4 n
Format                                   : PGS
9 f3 D% i' D  ?7 R1 FMuxing mode                              : zlib. X. j; @/ I4 ]! Q) ^4 m
Codec ID                                 : S_HDMV/PGS- E/ u) {* B, j# L, V$ B$ X0 ]: \
Codec ID/Info                            : Picture based subtitle format used on BDs/HD-DVDs
( T8 N, j& ^) F5 n6 d' j  Z7 _Duration                                 : 1 h 19 min
9 T% U8 s' G. T  s5 B3 mBit rate                                 : 22.1 kb/s
( S" l2 i9 _1 }' a2 JCount of elements                        : 1714
) W9 C! P' q# G" P. t. L  rStream size                              : 12.6 MiB (0%): z, ], p/ }; Z+ H  D
Title                                    : Spanish-PGS* N0 k4 d* v! m8 D6 Q
Language                                 : Spanish
7 Z  M" A6 \: |6 d# H( iDefault                                  : No
. i! j# m9 c& s" OForced                                   : No
0 W  o( k9 V2 V1 F& l! Z/ {4 p7 S7 g# L. Y" E$ D
Menu
2 M% f+ H5 P9 o. {  k2 T; {$ P00:00:00.000                             : en:Chapter 01. b" ?& ]$ d7 k- ~; _- `  m! v
00:09:21.978                             : en:Chapter 02
, k4 Y$ X' H8 e* }00:19:53.567                             : en:Chapter 03: I  B( X/ u+ _6 ^$ h
00:28:12.107                             : en:Chapter 04' S# n5 {2 f  n# V5 N+ T) W9 g! w
00:35:54.277                             : en:Chapter 05
; a9 R: b* e# ^  L; {& }3 C( [0 b* b00:45:51.082                             : en:Chapter 066 f6 U. K' X2 o! e$ o* ^# {
00:55:18.690                             : en:Chapter 07
$ }4 f! S! L; b% G; C01:04:28.448                             : en:Chapter 08
+ X+ s, C" t0 y/ r1 o$ M- d9 G; O01:13:56.724                             : en:Chapter 09
9 |# n, m% ?0 q9 e, ~- ?" ^01:17:22.429                             : en:Chapter 10

  g  j9 m+ o4 Z5 ^8 h/ W' Z
游客,查看本帖隐藏内容请回复 | 加入VIP贵宾可免积分免回复 了解详情 | 还不是会员:点击获取邀请码 Invitation Code

本版积分规则

小黑屋|Archiver|蓝光电影资源网

GMT+8, 2021-6-13 21:25

快速回复 返回顶部 返回列表