BluRayCD Forum

 找回密码
 立即注册【分享大片】
查看: 37|回复: 0
收起左侧

[动漫动画] 真人快打传奇:蝎子的复仇/真人快打:魔蝎的复仇 Mortal Kombat Legends Scorpions Revenge 2020 1080p BluRaycd x264-YOL0W 6.20GB

[复制链接]

8149

主题

8343

帖子

6万

积分

Forum Moderator

金币
11816 枚
体力
10534 点

卓越贡献勋章

24小时 发表于 2020-4-18 07:55:34 | 显示全部楼层 |阅读模式

  k5 O& r4 h  q- D. M6 x% Z3 Q: H
◎译  名 真人快打传奇:蝎子的复仇/真人快打:魔蝎的复仇(台)
, {; \% Q3 h. y  n  j3 S6 d3 H; H3 p5 D◎片  名 Mortal Kombat Legends: Scorpions Revenge6 d8 x* d, _1 ]7 l5 p
◎年  代 2020# m& H' {! m7 w, ]/ s
◎产  地 美国
5 i) y, l! ?3 X8 ~+ g) d: p1 e◎类  别 动作/动画/冒险
! Q& l4 r9 `& a8 m  W* ]+ b◎语  言 英语6 n; d4 \. k+ C+ J# a
◎上映日期 2020-04-12(美国)' S. k8 _) K+ G( R5 l5 E* H6 G8 Z
◎IMDb评分 7.6/10 from 2,394 users: M/ x3 {3 x- E% u
◎IMDb链接 https://www.imdb.com/title/tt9580138/( t0 v! Y& D. n; [7 p9 A$ U
◎豆瓣评分 7.3/10 from 977 users, W3 P/ t" {  I7 d) o3 _  S
◎豆瓣链接 https://movie.douban.com/subject/34875588/
8 e/ I( f, y: V8 L+ k: N) v3 i# ?◎片  长 1 h 19 min
( b: F' g) I( @1 D' H◎导  演 伊桑·斯波尔丁 Ethan Spaulding! \1 T0 `: [- ]: k
◎编  剧 杰瑞米·亚当斯 Jeremy Adams$ f4 c3 r- r" Q# E: e7 A1 d
       Ed Boon
) l- V2 w0 d. u" J9 w◎主  演 Grey Griffin  {0 Y, v  h1 m
       詹妮弗·卡朋特 Jennifer Carpenter/ y3 Z! ^4 q0 v& r5 }1 ~
       乔尔·麦克哈尔 Joel McHale6 C1 B  o' y; A. D+ ~
       凯文·迈克尔·理查德森 Kevin Michael Richardson! O( G+ L+ ~( }& m# `- W
  J/ {4 h% e& D% {3 w0 U2 m
◎简  介
. _, z( g  B. V; `, ^8 d! w, V) n9 Y4 r! H
  聚焦了异世界和地球之间的千载难逢的比赛,这场比赛将最终决定地球和人类所有的公民的命运。地球保护者雷电必须聚集其领域最伟大的战士,以从邪恶的尚宗手上保卫地球,从而结束所有战斗。 . J& m0 b# ?$ Y: A9 h( C
" o% p$ n3 H/ w* D5 i4 B
  Plot unknown. Reportedly an animated project based molikan.com on the long-running Mortal Kombat Video game franchise.
4 p( \9 L4 l& B, R# J5 ^; M2 F4 ~
Video' \- ^& b1 Z8 i+ f7 n
ID                                       : 1
7 R% z. K8 o7 [0 d3 g. n- x6 uFormat                                   : AVC, q) n  {1 C& C% W
Format/Info                              : Advanced Video Codec
4 U4 O7 u5 H. l8 BFormat profile                           : High@L4.1% d4 B1 ~" f1 F+ o7 r9 R
Format settings                          : CABAC / 4 Ref Frames
9 V1 h' _' w9 k  G5 `) jFormat settings, CABAC                   : Yes
( @+ R2 c: g& J$ h( U& LFormat settings, Reference frames        : 4 frames) b- _3 J6 @$ }
Codec ID                                 : V_MPEG4/ISO/AVC
( L" j4 o- y% z. h5 h6 zDuration                                 : 1 h 19 min
: v2 K1 X) V4 [3 j, k5 Y6 vBit rate                                 : 8 538 kb/s) D1 Z3 A  a4 g  V) C) C
Width                                    : 1 920 pixels
. X7 [& G& W& S0 L/ sHeight                                   : 1 080 pixels* q7 O4 [& K3 X* s) T7 x; r3 U
Display aspect ratio                     : 16:95 `7 U4 V2 O. g
Frame rate mode                          : Constant
5 l9 \7 z4 f$ s+ W/ E7 S4 S; UFrame rate                               : 23.976 (24000/1001/37687) FPS6 y& G' Y  D4 X5 G
Color space                              : YUV/ l* c: I0 g0 ]" b
Chroma subsampling                       : 4:2:0% ?6 y& m, x% K- h/ x
Bit depth                                : 8 bits
1 u' K  k1 R0 N, ~; F2 gScan type                                : Progressive
' q) b) {% E/ O; _! R+ e. G& _6 fBits/(Pixel*Frame)                       : 0.172$ D4 B. r5 T' ]) J
Stream size                              : 4.77 GiB (77%)- A- W* ]* v6 A# d% `
Writing library                          : x264 core 159 r2991 1771b55
( H/ I/ V' \5 Z1 ]4 G) G  e7 lEncoding settings                        : cabac=1 / ref=4 / deblock=1:1:1 / analyse=0x3:0x133 / me=umh / subme=10 / psy=1 / psy_rd=0.80:0.00 /  mixed_ref=1 / me_range=24 / chroma_me=1 / trellis=2 / 8x8dct=1 / cqm=0 / deadzone=21,11 / fast_pskip=0 / chroma_qp_offset=-2 / threads=12 / lookahead_threads=2 / sliced_threads=0 / nr=0 / decimate=0 / interlaced=0 / bluray_compat=0 / constrained_intra=0 / bframes=8 / b_pyramid=2 / b_adapt=2 / b_bias=0 / direct=3 / weightb=1 / open_gop=0 / weightp=2 / keyint=250 / keyint_min=23 / scenecut=40 / intra_refresh=0 / rc=crf / mbtree=0 / crf=18.1 / qcomp=0.60 / qpmin=0 / qpmax=69 / qpstep=4 / ip_ratio=1.40 / pb_ratio=1.30 / aq=3:0.90: ~( {& b; n) Q6 H1 {+ _: g
Language                                 : English
* s% B* T4 R' nDefault                                  : Yes
" n( ^. Z2 N7 n  d, PForced                                   : No# r6 l# N& c2 X5 T' C* q; p# B$ \& i
Audio #1+ F4 s' p, _3 o* D& G
ID                                       : 2
9 ~) X$ Y7 C; W+ n2 o- N( _* R$ uFormat                                   : DTS XLL
6 ~. D7 a. |: T4 RFormat/Info                              : Digital Theater Systems; a) H0 ^7 e) M! v  m5 a
Commercial name                          : DTS-HD Master Audio
, N4 c- v- h, A: SCodec ID                                 : A_DTS
) X  B8 M& G* a9 s  sDuration                                 : 1 h 19 min
' B; n) J& x, S& w7 v+ M. nBit rate mode                            : Variable: }- W& Z+ B- K/ u0 W9 M, K
Bit rate                                 : 2 398 kb/s2 _6 O$ l7 _3 w" |1 s. g6 \+ l
Channel(s)                               : 6 channels
) P# v6 [. U. W  k5 V; X! i7 aChannel layout                           : C L R Ls Rs LFE
( L( A# v) Q# p' SSampling rate                            : 48.0 kHz6 S0 ^0 d# [" k; _
Frame rate                               : 93.750 FPS (512 SPF)) \. O3 U+ \. O# r/ N- r# k) |
Bit depth                                : 16 bits# B; |7 p, m7 W0 l* y5 x/ ^  M
Compression mode                         : Lossless- Q* P4 B0 q  F7 p' f
Stream size                              : 1.34 GiB (22%)4 n. A4 n+ X* W5 ?
Title                                    : English& X# f4 I+ Y2 C
Language                                 : English% r) Q5 z) y, y0 s& r: o3 e
Default                                  : Yes
9 w1 B+ e- H4 n. t' Z5 TForced                                   : No
& k+ q7 L6 ]1 G0 }* \( c8 _Audio #21 A* }; G: s, z' Y& S4 ?* f1 j+ E
ID                                       : 3
5 y" R& s. X. H9 z0 B1 YFormat                                   : AAC LC
6 U0 k9 ]$ D5 s4 qFormat/Info                              : Advanced Audio Codec Low Complexity+ D$ O" ?& y7 j& Q; O& z" y
Codec ID                                 : A_AAC-2
9 J$ c/ C& ]( L) W" ~Duration                                 : 1 h 19 min! C1 e& k. R) r: K
Bit rate                                 : 105 kb/s
7 m7 _# _9 W9 l. yChannel(s)                               : 2 channels
% T5 Y. E( B7 L. T0 c% k- e- dChannel layout                           : L R3 d. P* d. D) |* z0 ]
Sampling rate                            : 48.0 kHz
7 f( o5 Z" v4 P" AFrame rate                               : 46.875 FPS (1024 SPF)
1 Y' ~8 v/ [( b) q  N8 ECompression mode                         : Lossy
2 [0 }+ X; q5 }  {1 ?) kDelay relative to video                  : 9 ms, O- _" \8 A& y8 o% D/ }. K
Stream size                              : 60.2 MiB (1%)+ l4 I$ _/ y' P/ `8 Z, @3 `
Title                                    : Commentary by producer Rick Morales and writer Jeremy Adams9 ~9 z$ N6 \4 W' L0 l- o* p7 {
Language                                 : English) `0 s3 X2 R% \: }( S  U4 t7 S. X  X
Default                                  : No
4 M# [$ p5 R  i! ]Forced                                   : No
$ P/ y6 G0 t7 e. k* gText #1
1 d6 p/ O( @/ c7 p$ n: {  jID                                       : 4
, _! p) ?' k( f" o- ~8 p3 SFormat                                   : PGS& t7 Z4 A. ~  N
Muxing mode                              : zlib. k- F' T  v. ]
Codec ID                                 : S_HDMV/PGS
+ h# N% `1 A" QCodec ID/Info                            : Picture based subtitle format used on BDs/HD-DVDs
9 o: r/ z# O# y# H/ s/ \Duration                                 : 1 h 17 min
9 v( ^/ @! k6 w* L2 w3 G; Q/ e8 \Bit rate                                 : 28.6 kb/s
7 O+ `& x% W0 S9 i  U  b* rCount of elements                        : 2120
9 N- d& j+ q; d. H9 yStream size                              : 15.8 MiB (0%)! Z- K: k! w2 F, E; u
Language                                 : English
9 |& ^& j1 [  U: y2 [Default                                  : No3 {+ ?' S8 Q  G2 W6 q! d; k; w3 h. d
Forced                                   : No7 E' m( C  G* |4 u7 W
Text #25 K3 H* a. M! M( E2 }5 A! u' x
ID                                       : 59 p- H  W- g( A1 \9 c& P. Q% ]8 v! u2 d
Format                                   : PGS. p/ E6 F" J( _# A& w# M
Muxing mode                              : zlib1 B; G* L# t: P4 X% P; @; i
Codec ID                                 : S_HDMV/PGS( ~2 _# {& Y+ F
Codec ID/Info                            : Picture based subtitle format used on BDs/HD-DVDs
6 v' [* d/ l4 j; \/ ]Duration                                 : 1 h 19 min2 F2 m) I4 B+ R) h! G, K+ S8 N
Bit rate                                 : 25.2 kb/s
/ A% R: I) e6 oCount of elements                        : 1718
% F. Z$ A& E: E& PStream size                              : 14.3 MiB (0%)" ^6 D5 @6 {0 p. s
Language                                 : French+ n4 |7 w& g; H  |6 [6 c$ N3 M
Default                                  : No
/ t- f  `& C! l$ M. z8 kForced                                   : No
$ H" u1 K9 L6 r% Y- h+ BText #3: N" _9 P# Q) B
ID                                       : 6
( `  n6 A8 H2 g0 J! \; S- \; v4 \& x( nFormat                                   : PGS( N2 U( @& Q, ~/ s4 Y
Muxing mode                              : zlib
) z, x0 H1 z0 C% G; d. NCodec ID                                 : S_HDMV/PGS6 ?6 d& N9 W' n4 @! ?
Codec ID/Info                            : Picture based subtitle format used on BDs/HD-DVDs! j8 T% r! o6 K6 P* p( O
Duration                                 : 1 h 17 min  h' h8 ^. }; F3 t
Bit rate                                 : 33.4 kb/s
/ D, v7 q9 ]2 A- ?+ _/ ZCount of elements                        : 2118
$ t# g9 Z( B0 s; \: DStream size                              : 18.5 MiB (0%)
: I5 Y7 t6 H! K1 d# j6 l6 XLanguage                                 : German, O! n1 m6 C% c: V
Default                                  : No( O& `, W4 D5 T4 D
Forced                                   : No
( N9 S( H1 O8 S5 p8 ]Text #4% ?# C% v2 D& b6 k1 F5 I0 {9 N
ID                                       : 77 `8 W2 g* u# K8 Y% x5 J) c
Format                                   : PGS) q' E6 m  M# l! c' k$ `
Muxing mode                              : zlib
* C6 r- v1 @5 t) eCodec ID                                 : S_HDMV/PGS
. v4 i) t1 X6 ]4 A, B- Y( sCodec ID/Info                            : Picture based subtitle format used on BDs/HD-DVDs6 j4 E$ }! h: `9 T0 w
Duration                                 : 1 h 19 min
% Z' n; f0 {! ~& j3 oBit rate                                 : 23.0 kb/s
( S: N4 r7 H9 y" d+ y& \Count of elements                        : 1664
9 D1 v, k% \; c0 E3 H8 P) JStream size                              : 13.1 MiB (0%)2 Z4 e3 W+ X) x5 H# W$ z
Language                                 : Dutch, N  c& x0 [$ M
Default                                  : No
+ d$ `1 w8 u# S  j4 m( s/ d* O/ M0 aForced                                   : No
7 F( A9 H9 ]) y" jText #5- {  O" {8 C0 D9 p# P$ @
ID                                       : 8
3 N7 X5 `8 n* D. f( n. p4 oFormat                                   : PGS
4 [- O8 ]& r2 W; {Muxing mode                              : zlib
  A7 n3 n( x+ J, \Codec ID                                 : S_HDMV/PGS
# i8 P. N# l/ o3 _/ @/ Z& W4 FCodec ID/Info                            : Picture based subtitle format used on BDs/HD-DVDs. i! |; ]0 ?6 O
Duration                                 : 1 h 19 min
! P6 D3 V+ U- a* B1 ]6 YBit rate                                 : 23.4 kb/s0 B4 b1 b1 ]1 ^1 e7 \
Count of elements                        : 1714
, d# ~/ ~0 C0 x, X+ L3 P# YStream size                              : 13.3 MiB (0%)
5 @* y& z% o1 }. \- YLanguage                                 : Spanish5 |4 ]! W6 W9 }3 q1 T
Default                                  : No
  ]1 h" C" `" Z9 ]( h1 Q* QForced                                   : No# e& |( \9 N2 Z5 g0 p' A
Text #6
9 b0 O9 W* J6 D9 c. m6 m0 `ID                                       : 9
, P' b6 J' Y+ u, r) O) i, fFormat                                   : PGS
$ y5 U( T, {# N6 l! _; f/ _5 JMuxing mode                              : zlib8 w! t# \# j) l5 D$ a" h" \- c; V; _
Codec ID                                 : S_HDMV/PGS  T- c  |: E5 R
Codec ID/Info                            : Picture based subtitle format used on BDs/HD-DVDs8 z) K6 y5 d+ o0 m" U+ N
Duration                                 : 83 ms" s+ K2 K: L/ c$ j, }+ j# E2 \
Bit rate                                 : 6 746 b/s; P( m- i' O4 O# K7 Q+ S
Count of elements                        : 2
5 d$ B' z+ _( W* J( iStream size                              : 70.0 Bytes (0%)7 p/ L7 C/ b) x0 I  d
Language                                 : German  U% K& V; }1 j8 Y  Z" g" B! ]3 j: a
Default                                  : No
- J0 N" H- ~9 f8 eForced                                   : No
/ P9 U- e2 ?5 W5 a- F1 {" I/ R# G2 KMenu
; j" E0 ~, j' u% q00:00:00.000                             : en:Chapter 017 h5 K. {  o+ I( j1 K8 }7 ?( F
00:09:21.978                             : en:Chapter 02
4 ^, V1 I" v2 J. {' m; _6 e00:19:53.567                             : en:Chapter 03( l9 A- \2 g; S6 t6 T+ B8 J8 @1 f
00:28:12.107                             : en:Chapter 04
0 k3 a& f. N8 [00:35:54.277                             : en:Chapter 05
% |8 d: }* [7 Q4 P* P# E2 J( {00:45:51.082                             : en:Chapter 06
% K2 [2 C9 [1 L% c6 _00:55:18.690                             : en:Chapter 07
8 A  V  I  s/ ^: A8 J" Q9 |9 h2 A! V01:04:28.448                             : en:Chapter 08
; D$ a: h* I1 T& g1 B1 i01:13:56.724                             : en:Chapter 09
) S1 W( x* ]6 V9 D5 p01:17:22.429                             : en:Chapter 10
5 g0 q; \" P* Z5 H) b
3 m4 k  k7 J1 `# a6 V
游客,查看本帖隐藏内容请回复 | 加入VIP贵宾可免积分免回复 了解详情 | 还不是会员:点击获取邀请码 Invitation Code

本版积分规则

小黑屋|Archiver|蓝光电影资源网

GMT+8, 2021-6-13 22:28

快速回复 返回顶部 返回列表