BluRayCD Forum

 找回密码
 立即注册【分享大片】
查看: 40|回复: 0
收起左侧

[动漫动画] 真人快打传奇:蝎子的复仇/真人快打:魔蝎的复仇(台) Mortal Kombat Legends Scorpions Revenge 2020 720p BluRaycd x264-YOL0W 2.90GB

[复制链接]

8149

主题

8343

帖子

6万

积分

Forum Moderator

金币
11816 枚
体力
10534 点

卓越贡献勋章

24小时 发表于 2020-4-18 08:00:51 | 显示全部楼层 |阅读模式
01.jpg
" z/ S+ t; r. ^6 ^$ y! L% v, o" c% f7 N1 _! S' n
◎译  名 真人快打传奇:蝎子的复仇/真人快打:魔蝎的复仇(台)% F: _1 q6 r+ I0 c! q' {0 v
◎片  名 Mortal Kombat Legends: Scorpions Revenge
1 U0 O5 L3 ^+ L2 l' L7 N: c. b◎年  代 2020
1 C6 r3 u: Q: x◎产  地 美国9 A# q: i) V; O: |" M" Y2 _; T% R: I. V' V
◎类  别 动作/动画/冒险
0 ?  H1 w. D5 K◎语  言 英语' d6 t& m' L' Q: Q$ \  I
◎上映日期 2020-04-12(美国)3 e! X8 u3 Y- r& J
◎IMDb评分 7.6/10 from 2,394 users$ n4 l& R. I* Z& t" ]1 p& C" d
◎IMDb链接 https://www.imdb.com/title/tt9580138/; h! ?& N! S4 W+ p$ o3 u) c/ v
◎豆瓣评分 7.3/10 from 977 users
" B& G: E; ?& ^8 `' D  _◎豆瓣链接 https://movie.douban.com/subject/34875588/6 [& [4 v2 {0 m) O& K
◎片  长 1 h 19 min# ~1 g- m5 _% o! {% q
◎导  演 伊桑·斯波尔丁 Ethan Spaulding
, p$ z/ X+ Z1 y% X+ Z- ~◎编  剧 杰瑞米·亚当斯 Jeremy Adams. y1 t4 k/ l; ^/ \* }
       Ed Boon
" I; R: W& [6 z# Z1 [% z1 U◎主  演 Grey Griffin+ K6 L' h4 _+ f* Q( Q! L/ t! z* p
       詹妮弗·卡朋特 Jennifer Carpenter
. Z% A# j. w( i7 E       乔尔·麦克哈尔 Joel McHale
% Y# M' U. H! v3 x$ X! L       凯文·迈克尔·理查德森 Kevin Michael Richardson
: y9 p7 Z2 {/ u  ?0 G, `! V& k2 N7 G/ b( d
◎简  介
1 S! G' h( b# M5 j5 I/ C
* t, n5 i; G5 z8 W- y   聚焦了异世界和地球之间的千载难逢的比赛,这场比赛将最终决定地球和人类所有的公民的命运。地球保护者雷电必须聚集其领域最伟大的战士,以从邪恶的尚宗手上保卫地球,从而结束所有战斗。
3 s. T* D( Y+ q4 w4 L5 L8 H
6 F/ W; [2 B5 f8 S% y8 |  Plot unknown. Reportedly an animated project based molikan.com on the long-running Mortal Kombat Video game franchise.
9 v+ Y, p/ S* @3 s
Video! ^; _1 g! g; `8 H) F( y* C1 u
ID                                       : 17 x9 c: h, G& ]
Format                                   : AVC
; {4 i- Q2 X9 K: s$ A8 WFormat/Info                              : Advanced Video Codec
0 n6 w* q, S9 q% W( Y* K# cFormat profile                           : High@L4.1  ~$ \& \  K8 n7 E
Format settings                          : CABAC / 9 Ref Frames, j: r; E/ i4 L( S4 ~- [
Format settings, CABAC                   : Yes
  G& b% l5 ]4 dFormat settings, Reference frames        : 9 frames; }! ^! R4 O: }9 ?, ~$ y! G# J! y
Codec ID                                 : V_MPEG4/ISO/AVC7 U: z7 Y1 U7 I% _! @
Duration                                 : 1 h 19 min
5 Z$ X* p. T! y2 S$ \Bit rate                                 : 4 394 kb/s5 f  _/ @5 r; @/ y
Width                                    : 1 280 pixels
- h6 A2 [  |2 ?* j2 ?Height                                   : 720 pixels
" M# _- P5 O* O* V! N* r* MDisplay aspect ratio                     : 16:9, _) s" ^6 ?7 I2 D  [
Frame rate mode                          : Constant5 Q# b1 H4 A+ C) E% j! b
Frame rate                               : 23.976 (24000/1001/37687) FPS2 |; q9 t2 E6 X, Y' u6 w4 L
Color space                              : YUV+ V* G8 j! p# i6 I
Chroma subsampling                       : 4:2:0
5 z: c1 C8 s. P+ C6 x; XBit depth                                : 8 bits
; z; U2 e6 s% X, |( yScan type                                : Progressive& X: M) T! r" w: }- j8 u
Bits/(Pixel*Frame)                       : 0.199" J8 j" h& ]0 D, D0 U  \, ]9 s
Stream size                              : 2.46 GiB (85%)
3 w$ h3 W# B2 ]' G, N! z8 z( s* T) HWriting library                          : x264 core 159 r2991 1771b55$ K- }) |5 h' w, \4 P
Encoding settings                        : cabac=1 / ref=9 / deblock=1:1:1 / analyse=0x3:0x133 / me=umh / subme=10 / psy=1 / psy_rd=0.80:0.00 /  mixed_ref=1 / me_range=24 / chroma_me=1 / trellis=2 / 8x8dct=1 / cqm=0 / deadzone=21,11 / fast_pskip=0 / chroma_qp_offset=-2 / threads=12 / lookahead_threads=2 / sliced_threads=0 / nr=0 / decimate=0 / interlaced=0 / bluray_compat=0 / constrained_intra=0 / bframes=8 / b_pyramid=2 / b_adapt=2 / b_bias=0 / direct=3 / weightb=1 / open_gop=0 / weightp=2 / keyint=250 / keyint_min=23 / scenecut=40 / intra_refresh=0 / rc=crf / mbtree=0 / crf=15.8 / qcomp=0.60 / qpmin=0 / qpmax=69 / qpstep=4 / ip_ratio=1.40 / pb_ratio=1.30 / aq=3:0.90
) ]3 p4 l  M7 U1 R" I/ N* G4 K0 gLanguage                                 : English; f3 {* Y, y: |1 I
Default                                  : Yes
, C* L0 N' G) t3 M7 U9 MForced                                   : No5 \) Z" {* \3 u% H. o0 l
Audio #1% M  E; _8 W4 J5 a; i
ID                                       : 2
, i# `/ p' s7 U5 P/ `( F+ b' ZFormat                                   : AC-3
# A  p* V- j4 e7 ?1 v8 p2 XFormat/Info                              : Audio Coding 37 ?' T0 h* \# @# _
Commercial name                          : Dolby Digital
$ T" c$ l  w+ g2 D: D8 @Codec ID                                 : A_AC3
' q: d% |% ~& [$ ]6 k9 {2 f" ^Duration                                 : 1 h 19 min
+ Y& V! |. }1 ?- PBit rate mode                            : Constant
( P9 q) q7 h& P9 D, \Bit rate                                 : 640 kb/s
' r2 Q1 u- |, ]: L% {Channel(s)                               : 6 channels8 c6 B* L1 r9 G, P
Channel layout                           : L R C LFE Ls Rs  }9 r/ p! j( Z4 p8 \  j
Sampling rate                            : 48.0 kHz' y; N2 ]0 |! B* i
Frame rate                               : 31.250 FPS (1536 SPF)
0 T3 M' X% ~0 W4 p/ o& I! S9 A. uBit depth                                : 16 bits
, k8 s8 {& }9 J8 PCompression mode                         : Lossy
% j$ c1 n: u8 W9 FStream size                              : 366 MiB (12%); ^2 \2 j6 k4 e) s( g* D4 ]
Title                                    : English: v* f& C- a" r  e( |+ `
Language                                 : English
8 K+ p0 @* V* `; bService kind                             : Complete Main+ b- l7 K$ p8 {+ p- e( R! F
Default                                  : Yes- i" Y. v- o& E1 P# [, }
Forced                                   : No% d1 `5 s- g; T0 q
Audio #2
) [* h2 r) v% L% _ID                                       : 3$ W" D2 `  o, m' M6 o
Format                                   : AAC LC% u5 C$ k# b6 l2 c; |* N, {/ i
Format/Info                              : Advanced Audio Codec Low Complexity2 s# }$ I' l- m& N/ t( c) B
Codec ID                                 : A_AAC-2
: e2 K$ J" _) ~8 @7 hDuration                                 : 1 h 19 min
) i" @+ R& Z$ J, ABit rate                                 : 105 kb/s
8 h9 `) t( C# Y# t) tChannel(s)                               : 2 channels
( J) C+ p+ z2 H6 RChannel layout                           : L R8 @  h, \. p; S4 M
Sampling rate                            : 48.0 kHz4 x8 L2 @0 w7 {2 n! V( x( C
Frame rate                               : 46.875 FPS (1024 SPF)
# E, s# |! }2 q4 M) a9 yCompression mode                         : Lossy$ `) _3 ]" |5 d: f9 A
Delay relative to video                  : 9 ms
4 t& u8 x& q4 h( E1 [$ z. h+ t/ sStream size                              : 60.2 MiB (2%)) p; T' K0 L' Y8 w' Z
Title                                    : Commentary by producer Rick Morales and writer Jeremy Adams- ~" M9 J" ?+ j, Q
Language                                 : English
1 Q, Q3 e% p  E2 z6 W4 l9 x, [Default                                  : No+ a8 V/ _3 O; C  r3 g
Forced                                   : No4 U  d9 x* c5 p+ f, Q2 V
Text #12 D* ^" f8 v, s, f* D
ID                                       : 44 K% \% g1 H/ i
Format                                   : PGS
$ V$ B, O) R0 x) {9 EMuxing mode                              : zlib
0 v. d6 Y7 |2 e; h  |  v: BCodec ID                                 : S_HDMV/PGS
0 x1 R' s2 q% [% D( WCodec ID/Info                            : Picture based subtitle format used on BDs/HD-DVDs
0 e; m, }( ^$ |Duration                                 : 1 h 17 min& u& L- [: E$ \3 k, `. l
Bit rate                                 : 28.6 kb/s# J% V& b4 s" h2 p/ _2 m" a6 u3 o
Count of elements                        : 2120. b) \' p/ a) V* i
Stream size                              : 15.8 MiB (1%)9 c) U% x/ M( q7 \
Language                                 : English
# v; z6 ?: u8 x+ o5 dDefault                                  : No4 e! @6 I; S0 D
Forced                                   : No
1 i2 E3 O& g' XText #2
# G6 f  R8 U" L) T  zID                                       : 56 V; N2 h0 Y: D% [
Format                                   : PGS
& |' n, X  \, o5 q; b3 Z8 v3 zMuxing mode                              : zlib
, ?: x7 D, q# _1 {  o/ g. \Codec ID                                 : S_HDMV/PGS
1 \( V- s& h' f2 N/ N4 VCodec ID/Info                            : Picture based subtitle format used on BDs/HD-DVDs8 i! ~* F3 U% z5 L( s3 Z
Duration                                 : 1 h 19 min; u- n  `) }( ?) j- E# U7 u; T
Bit rate                                 : 25.2 kb/s) P9 n8 Y, W* I: T7 c
Count of elements                        : 1718
" H6 G3 r- n3 P: M2 t( K0 GStream size                              : 14.3 MiB (0%)* |# ?- W$ P7 g' x1 H
Language                                 : French2 S& t4 H! u* U5 S) d
Default                                  : No' h4 K/ ]4 V# g1 M
Forced                                   : No7 ]; w9 K. b7 T# v6 W  g  Z% m
Text #3
. @7 B, w: |1 _" i: w( H% P* ]1 SID                                       : 6
) d! h* X2 r& g9 M, ~  ~  mFormat                                   : PGS. x7 \( X9 ?. P0 y+ ?. A
Muxing mode                              : zlib% O. b. O* M( i* B# C6 q( {
Codec ID                                 : S_HDMV/PGS9 |/ i9 h8 H- A  ^0 n, \
Codec ID/Info                            : Picture based subtitle format used on BDs/HD-DVDs
5 Q+ Q- i& _1 K8 U9 O6 aDuration                                 : 1 h 17 min, ?/ `/ @# P5 l+ ?$ n
Bit rate                                 : 33.4 kb/s6 w4 I( j7 m" f( V. ^
Count of elements                        : 2118
' \. Z' T7 a5 }" F. U2 W/ @2 g3 ?4 [Stream size                              : 18.5 MiB (1%)8 j4 d4 L; G5 t- h7 u2 w2 v
Language                                 : German% G! H1 u' n$ M4 h3 H- f9 G8 M$ i5 U
Default                                  : No6 I7 r5 _6 e: L9 V, M1 J# I
Forced                                   : No
* f0 u% j9 `% H7 d$ M1 XText #4
6 d! @! ^) y& A- k2 J( IID                                       : 7
7 L2 e( R4 D1 {0 O, cFormat                                   : PGS
' |& P; }& q4 _8 P& PMuxing mode                              : zlib
/ W- ~* D. ^4 x1 S9 @: y) TCodec ID                                 : S_HDMV/PGS
) r0 ~. S! l' u* a  ACodec ID/Info                            : Picture based subtitle format used on BDs/HD-DVDs- B/ P* {7 p9 s7 d5 p  J
Duration                                 : 1 h 19 min
' L$ l  N5 T7 H; ]  DBit rate                                 : 23.0 kb/s$ I4 s! `9 p5 B9 \: C
Count of elements                        : 1664
" p* X  W  ~3 X! }) UStream size                              : 13.1 MiB (0%)9 O! @; T. q+ e% c6 X8 X
Language                                 : Dutch
0 x& }& |6 e3 a5 @9 c4 x6 TDefault                                  : No
3 M) c1 P$ k+ F' O3 f" j8 e, q2 B0 zForced                                   : No
! R5 ^& C) j' P/ e- |4 {Text #5
0 V# s! u) N4 {  c' e( KID                                       : 8- H: v! ^* Y6 h& v$ K- O: D$ u
Format                                   : PGS
7 V& K( ?3 {3 Q5 l! A1 UMuxing mode                              : zlib+ V1 {- i7 X" \* u
Codec ID                                 : S_HDMV/PGS
7 w4 |- \8 E" p+ F, SCodec ID/Info                            : Picture based subtitle format used on BDs/HD-DVDs6 D9 i7 U/ M  i3 X
Duration                                 : 1 h 19 min, a! p( M) N( F8 g7 q" P$ W
Bit rate                                 : 23.4 kb/s
6 {# B" P" i: j" |+ {  qCount of elements                        : 1714
1 i' E" F) v, r4 R# H. p/ zStream size                              : 13.3 MiB (0%)
$ j+ V4 ]6 a, G7 O" W  D, iLanguage                                 : Spanish! t5 ~( s* Q* Z. V0 Q* f
Default                                  : No
% ]4 H( k4 ~0 Q( v' B2 n, x$ P$ CForced                                   : No
/ H" ?/ s5 t: y+ r( ], W4 AText #6; y% M* r5 D* W7 ?
ID                                       : 9
- S$ x" L( r. U/ yFormat                                   : PGS
- w# k! m/ j- ]' HMuxing mode                              : zlib0 S1 \9 ~# D7 e4 Q0 o. b
Codec ID                                 : S_HDMV/PGS
5 U2 t( U; \: m0 R* |Codec ID/Info                            : Picture based subtitle format used on BDs/HD-DVDs* D8 w  K, l( v8 n6 P0 \/ j. k6 P
Duration                                 : 83 ms
$ n$ u$ D8 t% G# }# bBit rate                                 : 6 746 b/s
: n2 }$ z! |. O4 @Count of elements                        : 2. d/ K: [: q' c6 D. b! k, J5 @
Stream size                              : 70.0 Bytes (0%)
) {' K, e5 D* \% K  n3 v4 vLanguage                                 : German2 _" i5 S$ s0 V8 F; o" a$ }4 @
Default                                  : No- |+ Z; W$ v3 N' P% D
Forced                                   : No
" Y- H9 d2 u! F  E& ]Menu
6 I/ g, t  R7 j* B00:00:00.000                             : en:Chapter 01% Z/ G1 B  @5 @8 J( Z
00:09:21.978                             : en:Chapter 02
1 \- b8 t# S) L. O$ Z00:19:53.567                             : en:Chapter 038 @( M+ R" O) {5 U! t- z
00:28:12.107                             : en:Chapter 04
( r6 }% g- Y* D1 _, Z00:35:54.277                             : en:Chapter 05
0 c4 R# x& v/ Z  S00:45:51.082                             : en:Chapter 062 {' P; U8 h# P/ T; b8 |1 |% f5 ?
00:55:18.690                             : en:Chapter 07$ {3 N; E* ?# C" Z- N; \
01:04:28.448                             : en:Chapter 08
# Y" z1 x/ V( b7 M: X01:13:56.724                             : en:Chapter 09. A; n5 q, m  M
01:17:22.429                             : en:Chapter 10

- I4 p5 R) r/ @- Y8 k' k8 w% [! K% |5 E1 R$ x) i; Z0 E& G
游客,查看本帖隐藏内容请回复 | 加入VIP贵宾可免积分免回复 了解详情 | 还不是会员:点击获取邀请码 Invitation Code

本版积分规则

小黑屋|Archiver|蓝光电影资源网

GMT+8, 2021-6-13 21:51

快速回复 返回顶部 返回列表