BluRayCD Forum

 找回密码
 立即注册【分享大片】
查看: 172|回复: 9
收起左侧

[蓝光原盘] 真人快打传奇:蝎子的复仇 [REMUX原盘] Mortal Kombat Legends Scorpions Revenge 2020 1080p BluRaycd REMUX AVC DTS-HD MA 5.1-FGT 10.40GB

[复制链接]

8149

主题

8343

帖子

6万

积分

Forum Moderator

金币
11816 枚
体力
10534 点

卓越贡献勋章

24小时 发表于 2020-4-22 15:42:51 | 显示全部楼层 |阅读模式
01.jpg
; u6 T' g$ y6 C' ^/ X9 Z  u
9 h# O0 }7 P5 E( H! m3 F9 x◎译  名 真人快打传奇:蝎子的复仇/真人快打:魔蝎的复仇(台)' Q5 J  j' B( n, i- f* W
◎片  名 Mortal Kombat Legends: Scorpions Revenge+ t# v: z9 {' |$ t  P* r; ^
◎年  代 2020
# w$ N: K: w. P( O% a* n4 {◎产  地 美国' T' S, l+ C7 f" Q" _
◎类  别 动作/动画/冒险
" n- y' K1 c/ N# o0 d: x◎语  言 英语" q) k* w7 F( C* h' ~& g4 g7 E4 _
◎上映日期 2020-04-12(美国)
- P7 V4 z& ~2 Z" ^; {  x6 c◎IMDb评分 7.5/10 from 3,788 users; Q  n# ]' |+ s1 P& o0 X. D8 b
◎IMDb链接 https://www.imdb.com/title/tt9580138/
& `0 `; _9 v9 y" j3 a2 F1 m/ x◎豆瓣评分 7.3/10 from 1,895 users4 J- F$ h- K( U# }0 S" c% `
◎豆瓣链接 https://movie.douban.com/subject/34875588/
2 o! K; V; `; c6 s1 B◎文件格式 x264 + DTS 3 B+ |+ ^  I. [  u0 D( i. w4 c
◎视频尺寸 1920 x 10801 j# \; {& Y# |
◎文件大小 1DVD 10.43 GiB
$ c5 N8 R9 o  T+ y! m8 e◎片  长 1 h 19 min/ J6 L! N) V6 U
◎导  演 伊桑·斯波尔丁 Ethan Spaulding
, s% k& ]9 @) m◎编  剧 杰瑞米·亚当斯 Jeremy Adams) q8 K% @$ G6 E. b3 H
       Ed Boon
( d6 R( e# t: L8 _' d◎主  演 Grey Griffin0 ~( M' \; T! Y$ S# i6 U/ _
       詹妮弗·卡朋特 Jennifer Carpenter
1 }: W: W7 Y; Q( a       乔尔·麦克哈尔 Joel McHale  K% r4 w& t2 N( O. ^. U9 b
       凯文·迈克尔·理查德森 Kevin Michael Richardson2 C/ W% d3 D" d
" d9 v3 V0 E* P- b5 B
◎简  介7 ]- b# V4 D, X' F* Z$ E( t

: c' i. ?/ G9 J  Plot unknown. Reportedly an animated project based on the long-running Mortal Kombat Video game franchise. $ v. o2 Z1 L& ?  Z3 J: W; E4 [

9 B( O: Y9 X( Y/ C8 M  聚焦了异世界和地球之间的千载难逢的比赛,这场比赛将最终决定地球和人类所有的公民的命运。地球保护者雷电必须聚集其领域最伟大的战士,以从邪恶的尚宗手上保卫地球,从而结束所有战斗。
" Q8 J. [) k8 _# h' N8 f$ B
, S2 e: p6 \- Q9 V0 t+ p. Q/ x& y  Plot unknown. Reportedly an animated project based molikan.com on the long-running Mortal Kombat Video game franchise.4 y: ~$ @6 Z+ v4 `, R

  K/ X- c8 M! m( b* }0 t
Video
2 d& P- h/ l. k% R: i4 t( D. XID                                       : 1' U) ~1 f  D3 X
Format                                   : AVC! G$ L- e6 b2 |4 Y  _, {- n5 K6 K: n
Format/Info                              : Advanced Video Codec% f* [, o; g; R9 I: D
Format profile                           : High@L4.1$ ^9 g5 t9 Z+ Z1 S# N
Format settings                          : CABAC / 4 Ref Frames
( i' k, `- v# y  R" i+ J% l* dFormat settings, CABAC                   : Yes
( b- W6 ?9 m! r' G6 A* r+ nFormat settings, Reference frames        : 4 frames9 [; @" n0 y# v5 y
Codec ID                                 : V_MPEG4/ISO/AVC
; j7 K. L# F2 L8 u& h& tDuration                                 : 1 h 19 min$ v% X1 J/ s2 @& z! e
Bit rate mode                            : Variable: N7 i6 k7 n+ r3 u
Bit rate                                 : 14.9 Mb/s8 g5 J$ J9 c; A
Maximum bit rate                         : 37.0 Mb/s
2 E- K. _1 L5 H& P8 UWidth                                    : 1 920 pixels5 `8 i+ `. S* a
Height                                   : 1 080 pixels
. j; s' \0 q. V+ u3 y) tDisplay aspect ratio                     : 16:9' n0 P' o1 \' c  o9 p% `
Frame rate mode                          : Constant8 `7 \2 K! T" _" f: k
Frame rate                               : 23.976 (24000/1001/37687) FPS  s( e  T8 G1 G6 }
Color space                              : YUV
% W/ L2 ?. v; {& Y. p( JChroma subsampling                       : 4:2:0# ]6 }8 j& q+ j7 ?; {% p& A
Bit depth                                : 8 bits
. u' L2 z. s& }+ s6 T$ M, z* sScan type                                : Progressive  V# M8 j9 j7 {# g3 L6 R  u
Bits/(Pixel*Frame)                       : 0.301
. Q2 C* ?5 m3 j9 L$ D! YStream size                              : 8.35 GiB (80%)
: w7 b$ e8 E* OTitle                                    : Mortal.Kombat.Legends.Scorpions.Revenge.2020.1080p.BluRayCD.REMUX.AVC.DTS-HD.MA.5.1-FGT1 z3 r6 p9 `5 }: P" M8 e8 l) {
Language                                 : English6 R5 R; }4 D) l' \8 m6 j
Default                                  : No
* k7 a( R" {& z) [0 v; xForced                                   : No
/ a2 A; P9 ]( C- U
$ L* @/ u0 l! s1 L( N, p0 K/ m% ~Audio #1
0 E( o# G) Y  lID                                       : 21 r! W8 J% k: ?1 v6 a
Format                                   : DTS XLL
! q" @0 C  a* x7 _6 r/ G, Y* c; xFormat/Info                              : Digital Theater Systems
4 @, M9 c% b8 x: Z) tCommercial name                          : DTS-HD Master Audio
+ u0 ]9 `9 K8 a6 `( H% {Codec ID                                 : A_DTS, P1 Y$ g: S; }9 ^
Duration                                 : 1 h 19 min
4 x! B$ t5 T* B! ]# ~" l0 tBit rate mode                            : Variable
' h2 n- }/ D+ b1 n! R( sBit rate                                 : 2 398 kb/s
) |* \# R2 G% b+ Z# M2 [Channel(s)                               : 6 channels
! U8 f7 m  {- ]Channel layout                           : C L R Ls Rs LFE
" V& S; U( k1 {2 n' j) j, O4 OSampling rate                            : 48.0 kHz9 K' q5 M: Q% x. p1 G9 @
Frame rate                               : 93.750 FPS (512 SPF)+ Q" j2 f. W4 z. `- [" Q* |
Bit depth                                : 16 bits1 X  {2 d: p& k! A2 I  ]& T, M; {
Compression mode                         : Lossless
' p, `( T' f! G# d$ ^0 LStream size                              : 1.34 GiB (13%)
+ e1 L! j! D* H/ L. C* }Title                                    : Mortal.Kombat.Legends.Scorpions.Revenge.2020.1080p.BluRaycd.REMUX.AVC.DTS-HD.MA.5.1-FGT
. @! H2 @1 V% G9 G% v/ uLanguage                                 : English$ L' Q, i7 C* T: `( P4 d( q2 W
Default                                  : Yes- W# m4 H3 A' r
Forced                                   : No
# ?) y8 {7 q5 R- J+ m& C2 g$ W% u' B) R2 Z5 |
Audio #2" ?! s, f2 Y/ Y8 x
ID                                       : 3, P! S4 g- @, Q) Q+ |+ w( ?" `
Format                                   : AC-3" n# ~: j% }- m1 ]0 _4 h* }
Format/Info                              : Audio Coding 33 T. |, q" I$ T2 K9 e' \" ^
Commercial name                          : Dolby Digital4 [/ m# n& w$ G( e4 M  r
Codec ID                                 : A_AC31 j5 Z: E4 V; v& L4 R
Duration                                 : 1 h 19 min( {% Y5 _) {& m! C3 \; W* J
Bit rate mode                            : Constant
) j: f9 a" {" hBit rate                                 : 448 kb/s+ n) J6 B: S( J+ d+ s" t9 p' ?% b
Channel(s)                               : 6 channels
; ?: u" l2 U' C& ~Channel layout                           : L R C LFE Ls Rs
0 [  S- w3 }( bSampling rate                            : 48.0 kHz6 D( k, y, T# C; V+ `2 O' X
Frame rate                               : 31.250 FPS (1536 SPF). S. |+ R1 W5 E. b
Bit depth                                : 16 bits9 p4 H4 E; T. L5 E! B% o
Compression mode                         : Lossy8 i* b8 P& i0 J' X1 ?
Stream size                              : 256 MiB (2%)0 s3 b5 d( w2 Z* W( {# C
Title                                    : Mortal.Kombat.Legends.Scorpions.Revenge.2020.1080p.BluRaycd.REMUX.AVC.DTS-HD.MA.5.1-FGT* }' ?  i4 K% f$ x, t
Language                                 : French, m  J3 T0 y& A) M
Service kind                             : Complete Main
5 F$ ]  k) h" t( Y3 ADefault                                  : No
1 q: E$ o9 B/ yForced                                   : No) y! D3 L% ^9 E  M! Z

0 A' x# p4 }! k- G9 B, Z6 bAudio #3
# q2 @, J# _6 Y* C" aID                                       : 41 F( ?- G/ [, ~: p4 R" ?: \
Format                                   : AC-32 j& A5 y) E5 W7 s4 L
Format/Info                              : Audio Coding 3
! k& m- D5 t0 h9 t5 S5 T8 K/ H. {Commercial name                          : Dolby Digital+ o1 c7 k2 A( p5 \
Codec ID                                 : A_AC3& ?6 @! ?! V* t: A. y
Duration                                 : 1 h 19 min7 B! o1 G) X3 c
Bit rate mode                            : Constant
2 h6 M' f: u! V( [* K% pBit rate                                 : 448 kb/s. J6 Q. K3 ~0 e% ~0 p
Channel(s)                               : 6 channels
% d; o  I! {, r) f- d, HChannel layout                           : L R C LFE Ls Rs
4 y( [9 X4 w5 [8 m- a5 bSampling rate                            : 48.0 kHz
6 E. u. U. H3 P' f# i5 |  f1 |% gFrame rate                               : 31.250 FPS (1536 SPF)3 Z, m+ W' m% y/ a6 I
Bit depth                                : 16 bits8 F, a2 M+ E) o7 S1 y0 j
Compression mode                         : Lossy
# e# {6 U% Z/ Q8 O( ZStream size                              : 256 MiB (2%); ?1 K1 I0 |4 ?* x$ }
Title                                    : Mortal.Kombat.Legends.Scorpions.Revenge.2020.1080p.BluRaycd.REMUX.AVC.DTS-HD.MA.5.1-FGT
3 h& \2 M# v2 Z; I. v! BLanguage                                 : German
" f/ O8 F! T* @  e( o3 gService kind                             : Complete Main& X/ E/ g; Q) ^0 J4 c' _
Default                                  : No
# S/ ]6 |/ Z* f$ l0 T2 \- x  R" dForced                                   : No
6 N& i) W8 s/ m- i' p$ g! O7 y
" q( D; O- F) k8 i1 d+ aAudio #4
. U$ v1 K& w. ^, y: e; {# Q1 iID                                       : 5; T" k9 ~0 z9 h# |
Format                                   : AC-3+ X, H9 j4 Q  n( Q
Format/Info                              : Audio Coding 3
9 e+ S* O" [/ E- jCommercial name                          : Dolby Digital) A0 Z' L) _% C$ Z! B5 n+ m: H4 W
Codec ID                                 : A_AC3. w& c% z! i+ }) a" E8 F
Duration                                 : 1 h 19 min  T. Y# ?3 @$ S
Bit rate mode                            : Constant8 D6 |) L3 _5 J# F
Bit rate                                 : 192 kb/s
0 B% L, i9 g' ~; Q! @Channel(s)                               : 2 channels* }/ v- _1 G( |- j; c% W6 ^+ o
Channel layout                           : L R) s1 R5 x% F2 m: i$ \  u7 ~
Sampling rate                            : 48.0 kHz
; g* m7 A3 B1 w4 i: wFrame rate                               : 31.250 FPS (1536 SPF)- Q# L$ Y* K1 B' s7 A% W4 |9 p
Bit depth                                : 16 bits8 |4 v4 d5 f( m7 n
Compression mode                         : Lossy
$ H+ z, }" o7 P2 BStream size                              : 110 MiB (1%)
* F+ J! n! B" C! H2 G& UTitle                                    : Mortal.Kombat.Legends.Scorpions.Revenge.2020.1080p.BluRaycd.REMUX.AVC.DTS-HD.MA.5.1-FGT; ^' ~5 U! I+ O# s$ A
Language                                 : Spanish* f, D+ {& X, l1 W+ p0 V9 K" l4 Y
Service kind                             : Complete Main
: g; o! c+ Q! E3 Q9 o! r- ~0 Z  ]7 zDefault                                  : No+ X9 D. C9 X( B" m
Forced                                   : No/ q% A( p3 D2 {# z. u

  U6 J5 [! m$ \, J' A3 r. B* CAudio #5
8 M' D$ {4 P- A/ xID                                       : 6
% A" w3 G3 \  T$ {5 I! c9 _Format                                   : AC-3/ C3 p4 [8 P5 M# @
Format/Info                              : Audio Coding 3
" T/ l" r! ~4 ]2 `( u; GCommercial name                          : Dolby Digital
- T: n. G) ~: G7 g2 ^  h! G/ dCodec ID                                 : A_AC3/ t2 C7 y' U/ P, T' m
Duration                                 : 1 h 19 min' H6 Z$ f1 d. i/ c8 ?
Bit rate mode                            : Constant
3 ?( f' q! Y# X& |Bit rate                                 : 192 kb/s
* j2 k! [3 X) P7 Y2 w( S1 jChannel(s)                               : 2 channels9 V  s% M: I. y4 ?
Channel layout                           : L R
- c4 E' I+ a  T% dSampling rate                            : 48.0 kHz, S; k1 V) c) ~- G+ h- R& N
Frame rate                               : 31.250 FPS (1536 SPF)- ~3 l: [2 U4 h% Y; O
Bit depth                                : 16 bits4 k% d% \% x. e( T' s+ k8 E
Compression mode                         : Lossy$ T, K$ Q. K3 N  K
Stream size                              : 110 MiB (1%)
, Z. K# [0 f( FTitle                                    : Mortal.Kombat.Legends.Scorpions.Revenge.2020.1080p.BluRaycd.REMUX.AVC.DTS-HD.MA.5.1-FGT# ^+ f9 o' O: l" }2 W: L& K
Language                                 : English
8 S4 b6 g; G1 w7 S, Q* K7 \4 oService kind                             : Complete Main7 F7 K! H9 I6 X) A
Default                                  : No' U( L: `1 n) R7 q/ p
Forced                                   : No
7 |9 o1 t8 C: u. m' o& J; ~: j1 D) v9 b9 c3 a' b- X
Text #1
8 ?! G8 b( G+ KID                                       : 75 w$ R6 Z9 t. ?# W: S
Format                                   : UTF-81 y0 U! B; q7 q. D4 I' N2 b& x0 G; ^
Codec ID                                 : S_TEXT/UTF8
: N+ `2 W; s; R6 }+ S) NCodec ID/Info                            : UTF-8 Plain Text
* P: [( c* q/ H% I) X, S; q* l- TDuration                                 : 1 h 17 min
1 r$ k4 g0 o9 ?& PBit rate                                 : 37 b/s
- C# Q5 @9 l+ z2 I) L0 \) vCount of elements                        : 864
. ^2 t8 r, t. d6 G; L. zStream size                              : 21.4 KiB (0%)8 Y. h+ m8 B- y. t; ^7 T8 k
Title                                    : English-srt
! B7 y2 s. v6 k+ W: r* v! A3 y0 C+ k' RLanguage                                 : English
  S4 L: I8 ]3 xDefault                                  : Yes0 x) T; L8 w2 j0 P& ~; \
Forced                                   : No" `! r; U5 a% R6 `( f9 U3 f
" {- e0 a! r$ T
Text #2
) I7 v8 e& t( ]* a5 [ID                                       : 8. G3 }% j; z+ d3 k% t* B
Format                                   : PGS7 S3 H4 H% D" v. t; C8 }- N
Muxing mode                              : zlib
& c( e, W# _/ Z( b' iCodec ID                                 : S_HDMV/PGS
% r- ?  D' N# O  O4 jCodec ID/Info                            : Picture based subtitle format used on BDs/HD-DVDs
) ], q- X/ \( J1 SDuration                                 : 1 h 17 min  T6 X& }6 F5 H' |. X5 X
Bit rate                                 : 28.6 kb/s6 P" A2 k5 E" I  d% m
Count of elements                        : 2120
# ~% j  B7 l* e) @% ~* |Stream size                              : 15.8 MiB (0%)8 K7 F* O2 e4 O8 }% f2 T& X
Title                                    : English-PGS6 @5 R5 J. B) w& g
Language                                 : English, u/ [* A# F) ^2 z" n5 [
Default                                  : No7 W' B9 L5 j1 {2 K
Forced                                   : No, }+ G: e4 n( s( C$ O$ N/ v! h/ R

( V! t0 s+ P) o) oText #3+ h5 [3 E9 b/ }& B
ID                                       : 93 ~2 \3 q3 J6 l4 D5 h
Format                                   : PGS9 a+ q- {( Z9 B1 j. |. h* F
Muxing mode                              : zlib$ ]' @7 s% h4 X0 c/ S8 }$ l' a
Codec ID                                 : S_HDMV/PGS
5 W  \9 a  q4 y1 p, e/ B# Y; u3 QCodec ID/Info                            : Picture based subtitle format used on BDs/HD-DVDs
( w+ Z" w: ]$ j4 O1 r2 ~, z& BDuration                                 : 1 h 19 min
" R8 S: H' [% a5 EBit rate                                 : 25.2 kb/s
! d5 L( y0 ]/ G" ]6 [Count of elements                        : 1718
# }8 [) S3 t0 oStream size                              : 14.3 MiB (0%)4 W5 l* a2 e! ~$ k! b  }7 g
Title                                    : French-PGS
/ n$ y! R$ I6 v# n, ?$ Q& gLanguage                                 : French
) Z, \/ B& ?. o6 {0 g) u* IDefault                                  : No2 j1 N7 s! @. H$ }4 e, E' e2 a$ T
Forced                                   : No
, l3 k& i5 ]2 r5 M" x% ]' i( o- y) x! T% t9 ?
Text #47 m$ x9 _: ~  t1 x* h1 z6 L( Q5 j* j
ID                                       : 10
1 U9 u8 e; k4 w; r* \, ?' ]Format                                   : PGS+ R4 d8 ~0 T. Q+ ?7 j+ F
Muxing mode                              : zlib
; g  V4 B+ x( q" WCodec ID                                 : S_HDMV/PGS
1 b  N6 H; l: C$ \* P- V! XCodec ID/Info                            : Picture based subtitle format used on BDs/HD-DVDs
& ?1 C* O% j1 F$ nDuration                                 : 1 h 17 min
1 H( k! `( y1 c" K! jBit rate                                 : 33.4 kb/s' B- {% M% ^% C' [
Count of elements                        : 2118: H# z* \/ u& B
Stream size                              : 18.5 MiB (0%)
) e. ^( c. y8 X4 A+ GTitle                                    : German-PGS; j+ Z+ E+ x: T- }) e# Q, S
Language                                 : German+ T6 P3 Y3 b! b: B" n
Default                                  : No9 W0 O$ R6 }# B4 a
Forced                                   : No8 s$ h' B% ]' \' B; K
$ y& F* `8 q7 D( M5 I4 x
Text #55 f$ j: h0 f" w, }7 k  e2 {; _
ID                                       : 11
. y3 h2 T% v! }- FFormat                                   : PGS0 H/ e2 [: U- _. q
Muxing mode                              : zlib
1 @# V+ y' d5 d1 K( ]! N, r- Q' ]% }Codec ID                                 : S_HDMV/PGS
( N1 M4 Z" N# C' E7 [- sCodec ID/Info                            : Picture based subtitle format used on BDs/HD-DVDs* y# P3 W; q# U+ l0 P
Duration                                 : 1 h 19 min4 d8 f6 K% o; x" M( E
Bit rate                                 : 23.0 kb/s% K2 V8 N- p4 _# q- F  k
Count of elements                        : 16644 E2 E2 _; X6 e6 X$ o1 Q
Stream size                              : 13.1 MiB (0%); s4 `8 y1 D# V
Title                                    : Dutch-PGS
( `; N5 O7 G' z) {Language                                 : Dutch2 Y* z$ a9 c1 j9 f# @: _) N
Default                                  : No( R6 T2 O6 [: m
Forced                                   : No
, v( }* y$ q. b8 L0 q  O
8 v7 }% s5 q8 B% OText #6& S1 I  [( P) y% g7 S# e
ID                                       : 12! {) \0 x1 K5 R0 Y
Format                                   : PGS
; I& p1 B1 ~5 I2 |2 d- ~Muxing mode                              : zlib( @) c& @+ ?6 R4 h0 T
Codec ID                                 : S_HDMV/PGS" D4 f' S  m* e3 d& X+ u- y0 v) Q# Z
Codec ID/Info                            : Picture based subtitle format used on BDs/HD-DVDs
1 i; {# B4 M2 w* l( s1 xDuration                                 : 1 h 19 min
7 ^' E4 I0 r  d1 D( F9 bBit rate                                 : 23.4 kb/s
1 ?5 W) s, e$ u$ A2 WCount of elements                        : 17144 d" c! d7 K1 W0 ^# f8 ?" O
Stream size                              : 13.3 MiB (0%)
7 l) s; Y7 _" r3 l4 w+ rTitle                                    : Spanish-PGS
2 @7 d2 Y$ s3 Z7 |* aLanguage                                 : Spanish2 a; o$ k  s* A
Default                                  : No6 S- R. h$ D7 L: N$ \2 H0 f* Z; U
Forced                                   : No
- C! `2 s5 d5 Q
& s$ f& }0 X( u) c$ p4 o6 pText #7; V; c7 H2 W* X+ v3 w5 [
ID                                       : 13
) J8 P$ a( c* C2 SFormat                                   : PGS
7 L. F9 G3 Z6 W+ G8 _Muxing mode                              : zlib& ]' {0 W$ p5 J& w9 T
Codec ID                                 : S_HDMV/PGS
0 |' \  O3 A  \# w% ?$ P& cCodec ID/Info                            : Picture based subtitle format used on BDs/HD-DVDs- D5 N- ]. @* }; U( I
Duration                                 : 104 ms2 O1 b6 g2 o: x/ {% k: R
Bit rate                                 : 5 384 b/s0 c5 U2 \5 L2 b+ O$ d
Count of elements                        : 2$ R+ b0 P5 S, r. K
Stream size                              : 70.0 Bytes (0%)
, B, _' G9 v' YTitle                                    : German-FORCED-PGS* x' s1 E) s3 L5 D! T  w
Language                                 : German# @$ w0 L0 M  z3 h
Default                                  : No
4 L' k( b+ }5 z5 y( eForced                                   : No
* |: m" Q+ P* a7 k+ b
' s; r5 w- Z) z8 p8 j6 uMenu
( W9 ]. q7 ~# c9 j00:00:00.000                             : en:Chapter 01! v! G* O5 u7 E  `8 m
00:09:21.686                             : en:Chapter 02- o, n' n& R+ G% E2 g, F7 f
00:19:53.567                             : en:Chapter 03- {8 m! [6 }7 I* @; s% r: C
00:28:12.107                             : en:Chapter 04' E3 f) N6 r; t* \
00:35:54.277                             : en:Chapter 05# ~" j; }0 o3 ]
00:45:51.081                             : en:Chapter 06
4 c( ^: F$ L% t' |00:55:18.606                             : en:Chapter 07- F( u1 W2 r! y& m6 X# }- \
01:04:28.447                             : en:Chapter 08
$ z) o3 s) X7 l6 Z( n: n  c01:13:56.723                             : en:Chapter 09
8 X; u8 T. y: v01:17:22.554                             : en:Chapter 10
% B5 l( V3 M) N9 N; w% G
游客,查看本帖隐藏内容请回复 | 加入VIP贵宾可免积分免回复 了解详情 | 还不是会员:点击获取邀请码 Invitation Code

76

主题

2767

帖子

1万

积分

Sponsor

金币
1318 枚
体力
3851 点
lanpanshuma 发表于 2020-4-23 10:56:35 | 显示全部楼层
Bluraycd又有新电影发布了,激动中……!
3 A7 U8 ]% S9 o; ~% f3 s6 rAfter reading the posts have nothing to do I Amoy posts!
& F( t- K7 ]- B
该会员没有 ...
论坛网友
论坛网友  发表于 2020-4-24 22:59:02
感谢楼主分享精彩电影

31

主题

1615

帖子

8752

积分

Sponsor

金币
1235 枚
体力
4351 点
QQ
shiji1973 发表于 2020-4-25 10:05:09 | 显示全部楼层
感谢分享精彩电影

0

主题

431

帖子

2210

积分

Sponsor

金币
58 枚
体力
1344 点
QQ
sunday_119 发表于 2020-4-25 22:04:39 | 显示全部楼层
每天都来蓝光论坛看看,我爱蓝光电影。" W/ ?9 w  |  u
Thank you for sharing such a good resource polite reply, very sorry for myself!
4 m% T8 a+ g: |- @3 b: l% R8 r

5

主题

174

帖子

1172

积分

Sponsor

金币
227 枚
体力
618 点
QQ
nbcrc 发表于 2020-4-30 09:52:50 | 显示全部楼层
每天都来蓝光论坛看看,我爱蓝光电影。
! K) H: k4 `2 t/ U# JBluraycd.com movie updates really fast, also did not release issued, whether you believe it or not, anyway, I believed!
蓝光论坛里 ...

0

主题

90

帖子

429

积分

Sponsor

金币
70 枚
体力
180 点
sdyangyang 发表于 2020-5-5 03:18:39 | 显示全部楼层
这个资源相当好
2 w1 x6 K5 Q. U% d0 y

9

主题

428

帖子

2085

积分

Sponsor

金币
196 枚
体力
1209 点
jmlove008 发表于 2020-5-9 00:08:09 | 显示全部楼层
楼主发贴辛苦了,I*老*虎*U!
$ D$ V. k2 R1 a+ x1 G2 dI love your Blu-ray movies Forum!1 X: U) B5 t( k' Y" A5 P* {

0

主题

111

帖子

772

积分

Sponsor

金币
18 枚
体力
525 点
zuiqingfeng 发表于 2020-5-19 19:51:54 | 显示全部楼层
谢谢楼主分享好资源

本版积分规则

小黑屋|Archiver|蓝光电影资源网

GMT+8, 2021-6-13 22:19

快速回复 返回顶部 返回列表