BluRayCD Forum

 找回密码
 立即注册【分享大片】

QQ登录

只需一步,快速开始

查看: 97|回复: 3
收起左侧

[4K极清电影] 真人快打传奇:蝎子的复仇 [4K REMUX无损版] Mortal Kombat Legends Scorpions Revenge 2020 2160p BluRaycd REMUX HEVC DTS-HD MA 5.1-FGT 29.59GB

[复制链接]
  • TA的每日心情
    慵懒
    2020-4-6 08:02
  • 签到天数: 615 天

    [LV.9]蓝盘精灵

    5355

    主题

    5710

    帖子

    6万

    积分

    Forum Moderator

    金币
    3615 枚
    体力
    25277 点

    卓越贡献勋章VIP蓝光勋章

    迅雷电影 发表于 2020-5-1 23:52:05 | 显示全部楼层 |阅读模式
    01.jpg & j% L& z4 W( ^7 w4 f' a3 R: E+ F
    ! Y! x2 f$ r8 X5 N
    ◎译  名 真人快打传奇:蝎子的复仇/真人快打:魔蝎的复仇(台)" p9 l; P8 }, C% e$ q  f
    ◎片  名 Mortal Kombat Legends: Scorpions Revenge, k$ L0 W- `  G0 w
    ◎年  代 2020
    ' |# @6 R- E$ @0 w1 V: D◎产  地 美国
    * o  h8 [  H) |0 m' m: c8 K7 c! d) _◎类  别 动作/动画/冒险
    * y2 W) v( K; ^◎语  言 英语( M: L2 z% q$ u0 O6 \
    ◎上映日期 2020-04-12(美国)! J! J4 h* K5 V$ q& j
    ◎IMDb评分 7.5/10 from 5,462 users9 M% @" N# X7 P/ K" ?
    ◎IMDb链接 https://www.imdb.com/title/tt9580138/
    1 m8 B! S8 x- ~( Q: |" M, P: b3 P◎豆瓣评分 7.3/10 from 2,890 users" B# Y1 v# N& \& i6 d
    ◎豆瓣链接 https://movie.douban.com/subject/34875588/) v" g" k2 q- a
    ◎文件格式 x265 + DTS # A3 P$ y1 ^5 ^1 Q  ^8 }& Z
    ◎视频尺寸 3840 x 2160& o; [  H1 I) ~) j4 B' V
    ◎文件大小 1DVD 29.59 GiB5 m6 h" C# @" S: H8 I! B5 e  {- W
    ◎片  长 1 h 19 min/ m& T: k, E7 u4 n
    ◎导  演 伊桑·斯波尔丁 Ethan Spaulding
    ; l3 A+ L) O6 |" g+ E9 J$ _◎编  剧 杰瑞米·亚当斯 Jeremy Adams9 x2 F' S! R+ b: F- _" j
           Ed Boon
    8 B0 W" L; F2 {) l  P◎主  演 Grey Griffin( z# ?; S/ p7 K" |
           詹妮弗·卡朋特 Jennifer Carpenter( X5 i1 ]( f) @1 O4 @  ~
           乔尔·麦克哈尔 Joel McHale. b. K( I1 p2 f4 e
           凯文·迈克尔·理查德森 Kevin Michael Richardson
    9 h( X$ q! ~: B/ U9 F# n
    7 v5 a+ F5 a- x8 W◎简  介1 D1 m7 v' B9 N/ K0 N  s
    ) a0 ~( e+ @# h7 L! [
       Plot unknown. Reportedly an animated project based on the long-running Mortal Kombat Video game franchise.
    1 A8 F) J2 i; ~
    * h: o& k5 N" p# o" x  聚焦了异世界和地球之间的千载难逢的比赛,这场比赛将最终决定地球和人类所有的公民的命运。地球保护者雷电必须聚集其领域最伟大的战士,以从邪恶的尚宗手上保卫地球,从而结束所有战斗。. l  B$ G6 O, H3 S) g$ I. B0 M% O( o

    - |( l0 l% {" u7 A   After the vicious slaughter of his family by stone-cold mercenary Sub-Zero, Hanzo Hasashi is exiled to the torturous Netherrealm. There, in exchange for his servitude to the sinister Quan Chi, he’s given a chance to avenge his family – and is resurrected as Scorpion, a lost soul bent on revenge. Back on Earthrealm, Lord Raiden gathers a team of elite warriors – Shaolin monk Liu Kang, Special Forces officer Sonya Blade and action star Johnny Cage – an unlikely band of heroes with one chance to save humanity. To do this, they must defeat Shang Tsung’s horde of Outworld gladiators and reign over the Mortal Kombat tournament. Prepare to witness all of the bone-crushing action in this riveting Mortal Kombat Legends animated feature!
    % [, I, v1 r  }* }4 H2 b! i: y- C8 U$ d6 F  M% H

    . R9 E1 ^- _2 n* D5 B
    Video" g; q, D& ]8 P6 Y  g' M) i2 X
    ID                                       : 1
    8 S% z% H) B5 I. I: n) tFormat                                   : HEVC0 {+ B9 `3 D4 R% `; m( M
    Format/Info                              : High Efficiency Video Coding, O- t7 W. G' W$ [- ?
    Format profile                           : Main 10@L5.1@High
    5 S9 e; \# H' k% Y4 v- K, w. {HDR format                               : SMPTE ST 2086, HDR10 compatible* z% e  E8 C  E3 B# _' \
    Codec ID                                 : V_MPEGH/ISO/HEVC5 U& j. y$ H" w
    Duration                                 : 1 h 19 min
    : e, S( M. v% g5 h: [+ qBit rate                                 : 49.9 Mb/s. \! t0 }% A0 o7 s  q1 V( L! t
    Width                                    : 3 840 pixels
    : H, M, T3 o0 ?3 w9 Q! RHeight                                   : 2 160 pixels( ?; L5 y3 U  h% O3 ~# X
    Display aspect ratio                     : 16:9: M- n  h% ~' I9 F8 D) B7 \
    Frame rate mode                          : Constant
    + `& W' K5 O% |3 I& D6 H! b% qFrame rate                               : 23.976 (24000/1001/37687) FPS
    9 S% w" j% x- r5 nColor space                              : YUV
    2 r7 h( b$ }) `Chroma subsampling                       : 4:2:0 (Type 2)5 m: M. x* @( C& G$ B' |" O/ l  G
    Bit depth                                : 10 bits8 l9 r6 V5 z: x" y! A9 r4 m' @' S8 M
    Bits/(Pixel*Frame)                       : 0.251
    0 Q( k0 M2 x, @9 {, L7 lStream size                              : 27.9 GiB (94%)
    ; r8 S/ R+ v- `  l5 X; JTitle                                    : Mortal.Kombat.Legends.Scorpions.Revenge.2020.2160p.BluRayCD.REMUX.HEVC.DTS-HD.MA.5.1-FGT3 C0 A' F8 A9 Z) z' r0 X) O# v# I5 ^
    Writing library                          : ATEME Titan File 3.9.0 (4.9.0.0)        - ^  u7 b1 g6 D0 j
    Language                                 : English
    : a1 h. S8 ^3 y/ G3 F3 O7 _Default                                  : No
    - ]2 P8 J5 i; W) \2 kForced                                   : No; e6 y' h5 m( G# o% T* }# e! M
    Color range                              : Limited0 v! g9 i0 K8 c, T* U; o
    Color primaries                          : BT.2020
    ( q0 E0 A! g' ]/ l7 R, f0 mTransfer characteristics                 : PQ
    ; ]! f% K6 c' p( MMatrix coefficients                      : BT.2020 non-constant) I; \3 ~% E) L$ B) N
    Mastering display color primaries        : Display P3* Q* l% V# I5 P+ n
    Mastering display luminance              : min: 0.0050 cd/m2, max: 4000 cd/m2
    " }1 o6 U7 ^* y$ O- \! ?Maximum Content Light Level              : 479 cd/m2
    $ Q2 l% P$ Q7 |- c1 A7 ZMaximum Frame-Average Light Level        : 199 cd/m2
    ( t: K# a2 W# i
    & L4 t2 s6 L: q/ L$ l+ CAudio #1( P/ v, [9 z6 e) b) Y; m
    ID                                       : 2
    1 C; J7 w3 X6 A8 e: qFormat                                   : DTS XLL
    8 V6 Q, i1 w# r7 m7 k  P. F+ MFormat/Info                              : Digital Theater Systems
    ) I% f0 B5 P2 v2 i4 d% jCommercial name                          : DTS-HD Master Audio8 {, f6 D" ]. M& |
    Codec ID                                 : A_DTS1 u3 w% m. O! p  i  H, r- c
    Duration                                 : 1 h 19 min
    # @; {7 S5 m# s' m, G# X& UBit rate mode                            : Variable7 f3 }2 y# _7 T
    Bit rate                                 : 2 398 kb/s' i. ]* B' _$ G( }# [, ?6 \$ W* b
    Channel(s)                               : 6 channels
    ! a! U9 t8 |% o: n5 J# x# ^Channel layout                           : C L R Ls Rs LFE* C8 @) z9 Y8 o
    Sampling rate                            : 48.0 kHz
    7 u$ m0 P8 o% [& R7 hFrame rate                               : 93.750 FPS (512 SPF)( m" P6 C2 }& D( O$ t! p  n
    Bit depth                                : 16 bits
    " m$ o5 s  |/ L) t0 u7 G  ]Compression mode                         : Lossless$ {. e, N7 Q% v+ f# v+ K
    Stream size                              : 1.34 GiB (5%)& ]  F" }, W5 f% o: \
    Title                                    : Mortal.Kombat.Legends.Scorpions.Revenge.2020.2160p.BluRaycd.REMUX.HEVC.DTS-HD.MA.5.1-FGT; X: C) {+ g- o/ V1 o+ P
    Language                                 : English
    . {; b* v6 d5 g* @/ E% F/ m. u' eDefault                                  : Yes: m4 I- ]% c, W( c0 {2 |* ^
    Forced                                   : No* _$ g0 {# m$ W' j7 M$ ~& r1 J/ d$ Z
    9 Z9 W8 @  @* B8 B# k
    Audio #28 m. f7 h7 r% ~  o0 J2 w) ^9 ~
    ID                                       : 3: i! x2 S3 b" L, l/ ]0 c
    Format                                   : AC-3: Z" S8 ^( ~1 W% e  v
    Format/Info                              : Audio Coding 39 I4 o- S- W/ a5 S* l& S0 Y+ j. k
    Commercial name                          : Dolby Digital
    7 s/ I% w3 I& D( ~! y2 ?- oCodec ID                                 : A_AC3
    ' }8 }/ f" H6 _Duration                                 : 1 h 19 min9 S7 j2 e: @* h4 v$ R: r2 J4 z: p
    Bit rate mode                            : Constant
    ' e1 |2 f1 \* c, {/ BBit rate                                 : 448 kb/s. |9 r7 {' T/ b
    Channel(s)                               : 6 channels' r3 g6 Z$ b2 [" J& X- X
    Channel layout                           : L R C LFE Ls Rs
    ; p$ x4 {8 \' _; a; j2 e3 z& x/ HSampling rate                            : 48.0 kHz
    / {# n) d% N/ T/ O$ NFrame rate                               : 31.250 FPS (1536 SPF)
    : R% @' f: D- k  b3 mBit depth                                : 16 bits
    3 H' w$ k1 {; x4 r7 I* h- Y- OCompression mode                         : Lossy
    4 T0 ?2 W; E  e3 J- lStream size                              : 256 MiB (1%)
    " Y$ I6 }5 W0 [Title                                    : Mortal.Kombat.Legends.Scorpions.Revenge.2020.2160p.BluRaycd.REMUX.HEVC.DTS-HD.MA.5.1-FGT
    4 i4 f; p7 N% a+ wLanguage                                 : French* q9 [# w) M: Y( L2 I9 E; c
    Service kind                             : Complete Main
    ( N$ Z9 B0 \5 M: t% P0 [' ?Default                                  : No
    # d- z% r0 g8 b* {Forced                                   : No! a. Y  Q2 V3 D) O/ q2 |

    - z; g' g; V/ j, T9 iAudio #3
    : @. V  A" m# y- _. s) u  sID                                       : 4; A; M; K$ t8 o( S' T* G
    Format                                   : AC-3  R- W( M3 k% _
    Format/Info                              : Audio Coding 3
      t, X2 K$ C% c, m) u! C# aCommercial name                          : Dolby Digital( P/ {0 h5 L+ O& ]! ~1 S
    Codec ID                                 : A_AC38 }* g+ p* F- ^) u
    Duration                                 : 1 h 19 min
    $ x2 U' F! k7 U# E) u; s* y/ d) XBit rate mode                            : Constant& B) D/ g9 b( A# [
    Bit rate                                 : 192 kb/s7 @# [% s- `0 o2 S, V  z  I
    Channel(s)                               : 2 channels
    - g2 C1 p, Z8 Z  w3 T. E6 xChannel layout                           : L R  D5 k) @) p6 u, w. \+ t/ t- U
    Sampling rate                            : 48.0 kHz
    ( z! p( H- d2 t( \' SFrame rate                               : 31.250 FPS (1536 SPF)" |) S4 M1 |  E! X
    Bit depth                                : 16 bits# h: b. g! E8 l% [
    Compression mode                         : Lossy' D* K- w1 E6 a' K8 P5 s" I
    Stream size                              : 110 MiB (0%)
    4 d1 l7 q  c/ v. Z$ tTitle                                    : Mortal.Kombat.Legends.Scorpions.Revenge.2020.2160p.BluRaycd.REMUX.HEVC.DTS-HD.MA.5.1-FGT
    ( u1 F4 G+ B; v: x- j2 uLanguage                                 : Spanish! U, x( J: Z2 C2 ?& a
    Service kind                             : Complete Main1 K! t/ U& q+ Z" z' M6 q
    Default                                  : No0 A" k- [2 C4 x% i+ f7 ]
    Forced                                   : No+ _, E/ N$ t$ V1 B. Y
    5 Y% e: W0 h  u0 O
    Text #1
    3 ~, ^+ c3 Y6 v: D! @. A6 y6 j' {ID                                       : 5  u* a* B/ ~) ?8 }+ K
    Format                                   : UTF-8
    " |2 J& T3 i3 T# {0 u/ U$ ICodec ID                                 : S_TEXT/UTF86 K+ d" c3 W2 V" n; ?' m2 X: u
    Codec ID/Info                            : UTF-8 Plain Text% _6 F; k( b. {9 J  o
    Duration                                 : 1 h 17 min0 O6 A) {) f7 b* x' b$ ?. [' r7 h4 d
    Bit rate                                 : 37 b/s
    ) {  [( H7 H# G6 H+ B4 @Count of elements                        : 864% M' ^3 @1 o% C
    Stream size                              : 21.4 KiB (0%)( |0 }: `& M# f" h( S1 P0 C# h* U$ @
    Title                                    : English-SRT
    * R: @) H" z" m0 y' T+ z+ M9 W; K3 mLanguage                                 : English
    # u0 Q+ \. H0 S  i+ m  cDefault                                  : Yes
    1 N" B# H! c0 o" }& Z4 ~" O6 I5 zForced                                   : No' s! ~' f9 ]7 F) Z* F  j9 f% {9 A
    8 x. H4 H# H" r5 o/ |
    Text #2
    7 T1 R9 e& j' C' p0 q: [ID                                       : 6
    . L/ f& o0 W/ g7 ^Format                                   : PGS
    2 {5 v9 E4 j7 R1 }Muxing mode                              : zlib
    $ G- \2 u/ |. pCodec ID                                 : S_HDMV/PGS! t4 H$ X6 z* P$ v
    Codec ID/Info                            : Picture based subtitle format used on BDs/HD-DVDs
    ! L% `5 N6 U; g: M, MDuration                                 : 1 h 17 min4 j7 x# T- w7 Z9 `/ T) t1 p: }, {1 Q
    Bit rate                                 : 27.0 kb/s5 W- F0 E3 z5 n2 T2 m
    Count of elements                        : 2120. S) A5 a7 o6 Y! {" [9 G7 D  o
    Stream size                              : 14.9 MiB (0%)& ]& m4 x. S1 [5 Y2 p$ k& p; t6 k
    Title                                    : English-PGS3 L$ A! ~) H0 q: w# C# e+ u
    Language                                 : English
    ( D& f; r2 C( u) L9 sDefault                                  : No5 `/ ?6 }$ y4 D4 B' ^. S- b
    Forced                                   : No$ K8 ^# h: u$ v. U/ u7 p  s( d* ~* H  A

    0 P0 c4 x/ O0 d4 ?* IText #36 k' H% i. \$ v2 J
    ID                                       : 7
    3 w9 O! b3 b' B4 B) {1 gFormat                                   : PGS+ H9 Q  ~9 ?8 D5 l
    Muxing mode                              : zlib, X  X4 V2 m- f/ l/ Y3 r6 U
    Codec ID                                 : S_HDMV/PGS) V; O% w/ o7 c  J; e' Q
    Codec ID/Info                            : Picture based subtitle format used on BDs/HD-DVDs3 F3 L. ~7 y# q; V1 T# x8 @9 g
    Duration                                 : 1 h 19 min
    # F; _6 }& S) S) VBit rate                                 : 23.7 kb/s  ~9 U5 b! V" T: Q: h& h
    Count of elements                        : 1718
    - J% @4 U: e1 C1 U4 zStream size                              : 13.5 MiB (0%)
    - Q* ~0 B# D  w( ~Title                                    : French-PGS/ \1 t* T/ I; ~; q6 O
    Language                                 : French
    0 g; l+ Y1 l  E) p' p, x& x( kDefault                                  : No+ f* N1 W1 q9 Z  b6 b5 o% j
    Forced                                   : No
    ! U& `/ q5 k+ W* d. i% P/ J# n: f; {3 e, @" j
    Text #4" q* D& c" t* a, ~" {
    ID                                       : 8
    7 u" [5 `4 ~( d0 Y; B4 c  @Format                                   : PGS
    ) ]* Y( b: \; k2 I, D( Q) y- kMuxing mode                              : zlib
    - ~: @0 U5 O+ {3 aCodec ID                                 : S_HDMV/PGS
    8 `) P9 M; T- R. T" i! ?, _Codec ID/Info                            : Picture based subtitle format used on BDs/HD-DVDs  X( X4 T! S4 z. q- ]
    Duration                                 : 1 h 19 min
    1 {4 x) D" n* i0 G1 O* _Bit rate                                 : 22.1 kb/s
    2 j. [4 z6 \4 E6 u6 }  x$ WCount of elements                        : 1714
    % L- _& G7 h! d8 V% c8 j, pStream size                              : 12.6 MiB (0%)
    3 b& F) {" G; W$ r! TTitle                                    : Spanish-PGS( Z: ?" c8 j; x$ N. @, d
    Language                                 : Spanish. }! ^9 b4 D+ E3 i" ]) ^- l
    Default                                  : No, F0 e% u1 K3 R, \
    Forced                                   : No1 L; {2 U0 c( ?; G. I: E% z
      W, ^: I: Q% F4 `! p" [
    Menu
    3 P$ z6 A7 m, A( ~00:00:00.000                             : en:Chapter 018 [5 w$ r5 u4 o
    00:09:21.978                             : en:Chapter 02
    " G: m8 X& ]3 M  I( F: F: q5 b- u00:19:53.567                             : en:Chapter 03
    7 [3 i) f9 B2 u' l7 E& \00:28:11.856                             : en:Chapter 04- C$ c: r1 F' k  L5 u2 D$ x
    00:35:54.152                             : en:Chapter 057 ~& X8 P. J- m0 N
    00:45:50.789                             : en:Chapter 06+ M. D/ J( z5 h& ^3 U) y8 G- u
    00:55:18.565                             : en:Chapter 077 O0 Z( L9 P7 K+ |4 L
    01:04:28.447                             : en:Chapter 08
    & j! s8 [% p0 D" t01:13:56.723                             : en:Chapter 09
    $ b" N$ t. h4 N2 X+ w+ E01:17:22.429                             : en:Chapter 10
    $ B4 ?- \0 x1 B3 P( C5 Z+ }- J
    游客,查看本帖隐藏内容请回复 | 加入VIP贵宾组可免积分免回复下载 立即了解 | 还不是会员:点击获取邀请码 Invitation Code
  • TA的每日心情
    开心
    5 天前
  • 签到天数: 33 天

    [LV.5]暂住蓝盘

    35

    主题

    850

    帖子

    3252

    积分

    Sponsor

    金币
    364 枚
    体力
    1134 点
    lanpanshuma 发表于 2020-5-2 14:22:28 | 显示全部楼层
    啥也不说了,楼主就是给力!+ }' ]: c: \9 v) U$ N0 A
    Blu-ray movies Community: my favorite!/ c8 S  T. b& a. G
    该会员没有 ...
  • TA的每日心情
    奋斗
    前天 10:17
  • 签到天数: 72 天

    [LV.6]常住蓝盘

    6

    主题

    1130

    帖子

    6068

    积分

    Sponsor

    金币
    757 枚
    体力
    3046 点
    QQ
    shiji1973 发表于 2020-5-2 23:33:04 | 显示全部楼层
    感谢分享精彩电影
  • TA的每日心情
    擦汗
    5 天前
  • 签到天数: 102 天

    [LV.6]常住蓝盘

    552

    主题

    1640

    帖子

    1万

    积分

    VIP advanced

    金币
    1230 枚
    体力
    3844 点

    公主勋章卓越贡献勋章

    21cn 发表于 2020-5-19 18:34:40 | 显示全部楼层
    啥也不说了,楼主就是给力!0 E. @1 W$ x% n+ b: }
    In fact, I have always felt that the landlord of good taste! Ha ha!
    " Y* p$ k- `$ g* ]! M

    本版积分规则

    小黑屋|Archiver|蓝光电影资源网

    GMT+8, 2020-6-2 11:44

    快速回复 返回顶部 返回列表