BluRayCD Forum

 找回密码
 立即注册【分享大片】
查看: 227|回复: 8
收起左侧

[4K极清电影] 真人快打传奇:蝎子的复仇 [4K REMUX无损版] Mortal Kombat Legends Scorpions Revenge 2020 2160p BluRaycd REMUX HEVC DTS-HD MA 5.1-FGT 29.59GB

[复制链接]

5506

主题

5857

帖子

6万

积分

Forum Moderator

金币
4268 枚
体力
25692 点

卓越贡献勋章VIP蓝光勋章

迅雷电影 发表于 2020-5-1 23:52:05 | 显示全部楼层 |阅读模式
01.jpg + S2 }: N; p& b; d

4 d2 q' R1 U( G" o5 ^+ m$ R◎译  名 真人快打传奇:蝎子的复仇/真人快打:魔蝎的复仇(台)
* N- T& e" [# A% K: A1 |◎片  名 Mortal Kombat Legends: Scorpions Revenge1 b* [# E  X' {( _7 k2 f) H
◎年  代 2020. r9 a% y% ^. U+ X; X; O, N- M: U: `
◎产  地 美国: Z! @8 z6 X" n5 E9 H. w0 ~; q4 g1 c/ r
◎类  别 动作/动画/冒险# o; {0 h  a+ i( z
◎语  言 英语! U% u$ d2 x4 R7 s
◎上映日期 2020-04-12(美国)
6 ]) l1 C1 t& O2 o4 W2 N0 ?/ Y◎IMDb评分 7.5/10 from 5,462 users
8 i. m( c, B2 j8 |# m/ W0 m! _& \◎IMDb链接 https://www.imdb.com/title/tt9580138/
% y. x# L0 M: R5 m. o% q% o* b7 q1 o◎豆瓣评分 7.3/10 from 2,890 users
' Y6 P8 I1 w$ |7 L; ?◎豆瓣链接 https://movie.douban.com/subject/34875588/
" b& {! s, A! K% r◎文件格式 x265 + DTS # ?# X. P' |8 V8 d/ w! E
◎视频尺寸 3840 x 2160
+ o2 ^6 l4 c* F) s0 r- {◎文件大小 1DVD 29.59 GiB% W3 \+ n! r% F; W9 @
◎片  长 1 h 19 min* ^: [. R0 {) t% d
◎导  演 伊桑·斯波尔丁 Ethan Spaulding5 |. E% }4 e9 H6 b% a
◎编  剧 杰瑞米·亚当斯 Jeremy Adams1 G$ E  u  ^- a- ^, }
       Ed Boon
4 \2 f+ F* L3 _: C% Z◎主  演 Grey Griffin' u- ~0 m2 V# ]8 }/ }; X6 R) N
       詹妮弗·卡朋特 Jennifer Carpenter
% l$ S, x% Z6 k% N+ A8 x8 W       乔尔·麦克哈尔 Joel McHale( J$ u2 [& t$ E/ B1 c/ g( N
       凯文·迈克尔·理查德森 Kevin Michael Richardson! |4 X5 _/ c) y, b

! H+ H% Q, P- y5 r! ~- v◎简  介
; X7 w9 P6 E7 N. a2 k
! X2 r  v5 `7 Q   Plot unknown. Reportedly an animated project based on the long-running Mortal Kombat Video game franchise. ) W  z& U2 x5 i" X4 z# A, z

" T4 A& |) w- Q  聚焦了异世界和地球之间的千载难逢的比赛,这场比赛将最终决定地球和人类所有的公民的命运。地球保护者雷电必须聚集其领域最伟大的战士,以从邪恶的尚宗手上保卫地球,从而结束所有战斗。
3 R0 a: t9 I9 e, Y& k% G7 B" Y( V$ R1 N0 w: s# M
   After the vicious slaughter of his family by stone-cold mercenary Sub-Zero, Hanzo Hasashi is exiled to the torturous Netherrealm. There, in exchange for his servitude to the sinister Quan Chi, he’s given a chance to avenge his family – and is resurrected as Scorpion, a lost soul bent on revenge. Back on Earthrealm, Lord Raiden gathers a team of elite warriors – Shaolin monk Liu Kang, Special Forces officer Sonya Blade and action star Johnny Cage – an unlikely band of heroes with one chance to save humanity. To do this, they must defeat Shang Tsung’s horde of Outworld gladiators and reign over the Mortal Kombat tournament. Prepare to witness all of the bone-crushing action in this riveting Mortal Kombat Legends animated feature!& w% I- O5 Q. a' v

6 e( [4 ?% ?+ S  q3 ]" _# ^. w; f; `+ V; P+ B( |
Video" R3 K/ ^" J& A+ y9 v( Q! n9 ~- m
ID                                       : 18 _, t$ g% F( G0 L, j9 H8 r1 x' G0 Y
Format                                   : HEVC
/ a/ r( ^6 i7 P1 \) T) MFormat/Info                              : High Efficiency Video Coding
4 s) D8 I# Y7 S+ ZFormat profile                           : Main 10@L5.1@High6 W" n8 B9 b( y3 `; I2 `% z, |
HDR format                               : SMPTE ST 2086, HDR10 compatible
. t4 D; w3 ^4 \3 x" K& L% C3 `Codec ID                                 : V_MPEGH/ISO/HEVC. `* `  f5 B- l, d
Duration                                 : 1 h 19 min4 b5 e% E5 M+ g  |9 K
Bit rate                                 : 49.9 Mb/s
/ R' ^% {$ x6 c* sWidth                                    : 3 840 pixels! x: o' R7 @: Y6 H3 [5 J! ?* f
Height                                   : 2 160 pixels3 j9 F5 `! J7 ^3 F! k" u. u1 e
Display aspect ratio                     : 16:9
! G% b- W$ A  \+ vFrame rate mode                          : Constant9 R7 l) o3 ?0 m/ w- O" n4 O
Frame rate                               : 23.976 (24000/1001/37687) FPS: p3 K  ?- V* t3 t
Color space                              : YUV' O$ S2 K( z( c/ T0 p
Chroma subsampling                       : 4:2:0 (Type 2)
6 u9 G8 q7 z% p8 J1 K$ n+ vBit depth                                : 10 bits
  v5 ]  _$ k5 A5 U: mBits/(Pixel*Frame)                       : 0.2513 v' T7 B5 Z# x/ y8 i* B0 F  E
Stream size                              : 27.9 GiB (94%)
( y' m: C, \4 G* s' QTitle                                    : Mortal.Kombat.Legends.Scorpions.Revenge.2020.2160p.BluRayCD.REMUX.HEVC.DTS-HD.MA.5.1-FGT+ _+ C5 F7 V7 }* X
Writing library                          : ATEME Titan File 3.9.0 (4.9.0.0)        ; Y% t# r; }3 X, ^
Language                                 : English
' l+ r# _5 i5 {# [* `Default                                  : No; ?+ g3 J1 k( |+ U6 P! Z& a
Forced                                   : No( \6 E$ ?. w" |7 c, q
Color range                              : Limited% X% u0 Y3 b& S9 U$ k5 Q
Color primaries                          : BT.2020
- V# h# P9 G8 B1 i0 ]- |4 p& I; M" ^Transfer characteristics                 : PQ
, c* r- L5 u6 w3 `4 ^) |Matrix coefficients                      : BT.2020 non-constant
( w0 q' E; @4 F' m. h/ J' JMastering display color primaries        : Display P3
7 U1 K/ S" @5 L7 o# oMastering display luminance              : min: 0.0050 cd/m2, max: 4000 cd/m2
3 f1 V$ }" k1 sMaximum Content Light Level              : 479 cd/m2
9 }6 _! A2 S  g9 C% a# E: n3 gMaximum Frame-Average Light Level        : 199 cd/m26 z. W2 i$ w" z# M; b2 ]2 Y

# {( g$ M/ H- FAudio #1
! t  B- [$ e* s. L( ^* V. k: J" TID                                       : 2) v' k) l( }; t
Format                                   : DTS XLL
  {  Q. N3 r: DFormat/Info                              : Digital Theater Systems0 x5 ], m  j6 z# z) c: ?+ Y1 K1 ?+ d
Commercial name                          : DTS-HD Master Audio
( [+ U* [1 D7 u/ U5 wCodec ID                                 : A_DTS) i  |5 {8 |) W+ H
Duration                                 : 1 h 19 min
. u0 e! {6 c0 K5 T! B3 dBit rate mode                            : Variable
$ B" V. c5 _5 s: aBit rate                                 : 2 398 kb/s0 H1 s8 d, L. G$ g9 U8 [7 C$ a
Channel(s)                               : 6 channels
( L  _: J$ K; d( x& U8 rChannel layout                           : C L R Ls Rs LFE
2 U8 f4 l( f  z* Q' jSampling rate                            : 48.0 kHz. L- s% \5 D9 S( p* L8 @5 `& _) {9 e& I
Frame rate                               : 93.750 FPS (512 SPF)
( o5 L' G8 i# d& x3 oBit depth                                : 16 bits9 _! ~# X6 J: M' @5 Q
Compression mode                         : Lossless
, X4 _9 [" F) }) y% TStream size                              : 1.34 GiB (5%)
# v5 ~6 f9 [2 U6 ?0 T' |Title                                    : Mortal.Kombat.Legends.Scorpions.Revenge.2020.2160p.BluRaycd.REMUX.HEVC.DTS-HD.MA.5.1-FGT" I- Z1 d6 g7 U0 s. F2 Z
Language                                 : English
* T  z9 f( Z# n4 ~5 k4 XDefault                                  : Yes+ D( U  ]# n  m
Forced                                   : No
+ K# X, y( s+ m7 T4 Y
' ~% K+ S1 F- [9 U( d4 S) uAudio #20 N* }! L3 f3 {# V
ID                                       : 3* P, S+ q. o% H+ o1 i
Format                                   : AC-3
" G$ o$ Q, g+ U9 p. e1 NFormat/Info                              : Audio Coding 3
! q7 Z: N2 d7 M, f9 ACommercial name                          : Dolby Digital% ~7 l! v9 x1 q. J
Codec ID                                 : A_AC3- @% `0 ^' t1 M2 i' u5 s6 q
Duration                                 : 1 h 19 min
" b3 y% Q. @8 `- U3 P6 N1 xBit rate mode                            : Constant4 ^& m1 V/ t9 j) ~: j
Bit rate                                 : 448 kb/s
0 O' R; G$ u6 y3 b; p. jChannel(s)                               : 6 channels
2 p0 L4 i) [5 @# \2 IChannel layout                           : L R C LFE Ls Rs
' R0 E1 `0 A  b9 N- R$ FSampling rate                            : 48.0 kHz
+ f; ~, s! j+ d: l4 c3 {Frame rate                               : 31.250 FPS (1536 SPF)# @6 O+ i2 a( m- r, T6 \( ?
Bit depth                                : 16 bits$ J" W; y7 I# ^, F9 ?2 T% V1 e
Compression mode                         : Lossy
! X+ E: F  Y- R: x7 HStream size                              : 256 MiB (1%)9 d' ?7 u/ p' |- @7 j
Title                                    : Mortal.Kombat.Legends.Scorpions.Revenge.2020.2160p.BluRaycd.REMUX.HEVC.DTS-HD.MA.5.1-FGT4 @2 y+ N1 O* W( @/ R
Language                                 : French
2 T/ y+ K1 d! I( ~) ~; h% i1 uService kind                             : Complete Main" h) S! S$ y% O2 b, N8 G/ i
Default                                  : No/ i5 q6 M- W+ s( G. r1 z: U2 d$ \
Forced                                   : No$ X2 R, C8 e; H* j. [# j

8 V' e! y5 V8 m( l+ m  n- ]1 iAudio #3
7 |  \/ ]$ w, c, h" _6 k, T2 aID                                       : 4
7 {1 K, p& L" \* k9 B( YFormat                                   : AC-37 W5 `, d$ a* x* \! m
Format/Info                              : Audio Coding 3
8 c: z" Z( V" f3 e6 [7 A9 S; tCommercial name                          : Dolby Digital9 @( m+ S. \3 X& J0 d7 e% s/ @" k
Codec ID                                 : A_AC34 I& v2 y% q' ]8 M
Duration                                 : 1 h 19 min3 l# s5 ]! H' q# @! w2 D
Bit rate mode                            : Constant
) ^+ l1 V" q& {7 H7 \6 GBit rate                                 : 192 kb/s" f6 {( N* P4 Y  }( J' W, [
Channel(s)                               : 2 channels0 `4 s+ U& H  S& X  U# d
Channel layout                           : L R
/ Z/ j: y+ p7 F9 @# vSampling rate                            : 48.0 kHz; Y; k$ ]. O- f. B
Frame rate                               : 31.250 FPS (1536 SPF)
0 r2 u9 B; ^# |5 }/ t& JBit depth                                : 16 bits$ C+ q' J( D4 C; b/ {
Compression mode                         : Lossy; r. ~1 ~- H. b6 s5 Y5 e
Stream size                              : 110 MiB (0%)/ `! ^+ Q  Q2 D( L: H! A7 D) J4 \
Title                                    : Mortal.Kombat.Legends.Scorpions.Revenge.2020.2160p.BluRaycd.REMUX.HEVC.DTS-HD.MA.5.1-FGT0 v; x, o$ l$ q" E
Language                                 : Spanish
$ N0 K! y& s; r, XService kind                             : Complete Main
  q$ d! }, t9 }% a9 _1 m: X7 k( WDefault                                  : No
& t1 Q) v: P8 H& R* d& T( FForced                                   : No; k$ o: Z& N1 x& M
4 ]' l3 d9 H) i; z' w5 r
Text #1# b) x! h" M' O  E' b* m
ID                                       : 5
) S5 D; [2 b% |+ B; @( A" DFormat                                   : UTF-8
. f$ Z3 f2 P* _6 JCodec ID                                 : S_TEXT/UTF8* e6 I2 j( x! ?# v4 r: R/ `- h: h
Codec ID/Info                            : UTF-8 Plain Text
( V7 j6 J- k& u0 v0 i% bDuration                                 : 1 h 17 min' l. q5 Y  ]! n; ]! o$ `4 R6 b
Bit rate                                 : 37 b/s
0 `( T* w5 c. q9 Q) gCount of elements                        : 864
; u# J7 K/ Q5 |1 O8 j+ UStream size                              : 21.4 KiB (0%)' n( u' i# [0 x% X' @; ?8 o
Title                                    : English-SRT2 O! U' @% P+ w
Language                                 : English! q7 g/ C: b! n0 S* h2 z* N
Default                                  : Yes/ C" R2 W- f: Q" P5 n; G
Forced                                   : No
1 ~0 k  ^" k9 L! K6 B( R0 ^4 [5 D' N8 \( p. z
Text #2
; e* _4 q* |8 S" q$ y8 d9 dID                                       : 6! e( w/ H! ]1 U0 Y
Format                                   : PGS
7 P0 I0 b+ n- w1 q, V  qMuxing mode                              : zlib
( p+ f4 B4 F. y9 t. o4 w. [2 }7 p: OCodec ID                                 : S_HDMV/PGS
2 L; \; Z0 [1 r6 a1 K" lCodec ID/Info                            : Picture based subtitle format used on BDs/HD-DVDs2 o1 `. l5 m# b7 R
Duration                                 : 1 h 17 min  w* Y/ S: c0 M( E: ~# G1 H! ^( U
Bit rate                                 : 27.0 kb/s
8 i# f+ {& y3 B& B  }! N, o& qCount of elements                        : 2120
7 J* }' J2 G- E/ e; W; H; LStream size                              : 14.9 MiB (0%)
. Y  w1 E) f; LTitle                                    : English-PGS5 w2 I2 n# r( r& S4 t
Language                                 : English1 Z' _# _' d2 D1 V6 k# |* {- @
Default                                  : No/ a9 j& z- t2 B3 I" ?2 O2 X
Forced                                   : No1 P: {1 p( Z- r7 @4 b

6 T$ A9 V/ w3 y3 l- H4 Y2 uText #3, x, m$ }& `& n8 C/ G. x* F
ID                                       : 7
5 P. e) _! G, ~* X$ d9 D/ KFormat                                   : PGS- _: w, g- p* H' X" P
Muxing mode                              : zlib
- b( U& R4 h0 \Codec ID                                 : S_HDMV/PGS& y/ H* c9 {& ~
Codec ID/Info                            : Picture based subtitle format used on BDs/HD-DVDs' {8 |2 T; j5 `* W+ [$ L: Q
Duration                                 : 1 h 19 min7 v( ~8 z" v% y- \2 ]/ C' G3 M
Bit rate                                 : 23.7 kb/s4 t/ y3 ?6 H  x& ^! [: @
Count of elements                        : 1718  Q/ d0 l* g, ?5 t& y4 T. w+ ~" V
Stream size                              : 13.5 MiB (0%)
1 g# i+ U8 q2 G" I% t5 s' c' J2 N; kTitle                                    : French-PGS
+ \: s! w. j3 x0 ALanguage                                 : French
) {4 @+ M; v* U) \7 ZDefault                                  : No
9 g- A; X8 j# AForced                                   : No
' s% g- t, K- X+ B% z1 W, ]$ Z& J% Z* `- C
Text #4
+ g+ i: J& U+ }2 b4 `7 FID                                       : 85 s' }, B' Q2 n( u! o1 ?
Format                                   : PGS
! ?, }4 K( e/ IMuxing mode                              : zlib7 c  |* ^& d4 l9 D; [/ H, d; i2 T
Codec ID                                 : S_HDMV/PGS
& U: `7 i4 G- {3 y8 t; aCodec ID/Info                            : Picture based subtitle format used on BDs/HD-DVDs( N, K# Z7 n# B# y
Duration                                 : 1 h 19 min& m1 O& [- Q8 t) Q' w
Bit rate                                 : 22.1 kb/s7 l4 t1 e' G" v: O
Count of elements                        : 1714
$ G  c! k0 p! jStream size                              : 12.6 MiB (0%)$ K9 i% \% N- q1 Q
Title                                    : Spanish-PGS! c# n8 R: E8 a3 @: k
Language                                 : Spanish2 K4 [2 G& L. v% k& A% Q
Default                                  : No. N; c5 K! L8 X, p- I" d* P  F
Forced                                   : No
' ]+ M- |; ~: p( ^: g0 V4 |; D" P. X$ ?5 K3 [- Y
Menu
# Y; Q3 V1 E3 E- \$ s' U& k00:00:00.000                             : en:Chapter 01. Q5 y7 W# l" m) _
00:09:21.978                             : en:Chapter 02' O* U, ]) I5 R
00:19:53.567                             : en:Chapter 03
' ]' O( q5 X7 f( Z* e1 k0 N& l00:28:11.856                             : en:Chapter 04- N0 l6 ]6 Z# [3 ]. P* s
00:35:54.152                             : en:Chapter 05' f1 ^- O. o. v
00:45:50.789                             : en:Chapter 063 _: q, Y5 L. J+ f" x, o. B, o  \
00:55:18.565                             : en:Chapter 07
4 t$ U& ~' A9 {! P( h' K01:04:28.447                             : en:Chapter 08
  k2 P, e. a) a$ t01:13:56.723                             : en:Chapter 09) T+ \" n( q) M! z1 v
01:17:22.429                             : en:Chapter 10
0 `, ^' }. v' X/ Q$ S3 ?
游客,查看本帖隐藏内容请回复 | 加入VIP贵宾可免积分免回复 了解详情 | 还不是会员:点击获取邀请码 Invitation Code

76

主题

2758

帖子

1万

积分

Sponsor

金币
1312 枚
体力
3839 点
lanpanshuma 发表于 2020-5-2 14:22:28 | 显示全部楼层
啥也不说了,楼主就是给力!: Y6 C# W) G* ^+ j% e* I  b
Blu-ray movies Community: my favorite!' l! H8 X6 W0 r9 e1 R, O
该会员没有 ...

31

主题

1614

帖子

8745

积分

Sponsor

金币
1234 枚
体力
4347 点
QQ
shiji1973 发表于 2020-5-2 23:33:04 | 显示全部楼层
感谢分享精彩电影

728

主题

2403

帖子

1万

积分

VIP advanced

金币
2443 枚
体力
5493 点

公主勋章卓越贡献勋章

21cn 发表于 2020-5-19 18:34:40 | 显示全部楼层
啥也不说了,楼主就是给力!/ V0 X6 U: W7 P
In fact, I have always felt that the landlord of good taste! Ha ha!; L8 L4 ?# |( C: t& W

0

主题

690

帖子

2335

积分

Sponsor

金币
0 枚
体力
943 点
QQ
dailin 发表于 2020-11-20 17:55:48 | 显示全部楼层
这么好的帖子不回对不起自己!
6 U3 I' b' g0 y  tIn fact, I have always felt that the landlord of good taste! Ha ha!
- u/ V  ], u1 G6 Z9 p1 p* S

0

主题

690

帖子

2335

积分

Sponsor

金币
0 枚
体力
943 点
QQ
dailin 发表于 2020-11-20 17:57:27 | 显示全部楼层
果断回帖,如果沉了就是我弄沉的感觉很有成就感!; K+ S* @  a3 m3 L: p
Blu-ray movies Community: my favorite!! s2 l6 _2 R3 [8 l9 `

4

主题

987

帖子

3098

积分

Sponsor

金币
4 枚
体力
1125 点
QQ
davidqin 发表于 2021-1-31 17:54:22 | 显示全部楼层
每天都来蓝光论坛看看,我爱蓝光电影。
* M2 _7 |+ \3 K/ @Your resources, well, I am very satisfied!* p: u6 Z0 F9 M* P4 a

0

主题

53

帖子

422

积分

Sponsor

金币
183 枚
体力
129 点
aacq 发表于 2021-5-3 23:31:16 | 显示全部楼层
好片,谢谢楼主分享精彩电影

本版积分规则

小黑屋|Archiver|蓝光电影资源网

GMT+8, 2021-6-12 18:45

快速回复 返回顶部 返回列表