BluRayCD Forum

 找回密码
 立即注册【分享大片】
查看: 47|回复: 1
收起左侧

[2160P极清] 真人快打传奇:魔蝎的复仇 [4K HDR高码版] Mortal Kombat Legends Scorpions Revenge 2020 2160p UHD BluRaycd x265 10bit HDR DTS-HD MA 5.1-SWTYBLZ 6.97GB & 4.60GB

[复制链接]

5622

主题

5796

帖子

6万

积分

Post Share

金币
12801 枚
体力
19309 点

卓越贡献勋章

黄金嫖客 发表于 2020-5-19 17:25:20 | 显示全部楼层 |阅读模式

* e" T) t  S. h! {$ M# m4 @2 I! n& O+ K+ O5 `6 `

3 z+ A+ G4 }. ?, r$ B◎片  名 Mortal Kombat Legends: Scorpions Revenge; [' G: P3 R8 F  i1 b2 D
◎译  名 真人快打传奇:蝎子的复仇/真人快打:魔蝎的复仇(台)
# H9 S7 |+ ]3 Q+ x6 S1 f" s◎年  代 2020/ ^+ W2 w* g8 h, O: z. r/ ]) B! L
◎产  地 美国
4 z. {7 l" j; W, A! {◎类  别 动作/动画/冒险
" C& ]/ c1 ?+ n$ V! L+ N◎语  言 英语
/ K# Y& g. b% q+ V◎上映日期 2020-04-12(美国)
  b, B) X7 ]! p& X  u◎IMDb评分 7.5/10 from 5,462 users) Y! @+ C# z& S0 L: h% O) `% E1 L
◎IMDb链接 https://www.imdb.com/title/tt9580138/
4 \' o2 @/ n3 z- p" v◎豆瓣评分 7.3/10 from 2,890 users+ s' e5 @  l3 l, W+ w. l
◎豆瓣链接 https://movie.douban.com/subject/34875588/* j% t2 ^  w0 [/ r, e1 o
◎片  长 1 h 19 min
$ F# O+ D" C$ Z5 i- P- y! t◎导  演 伊桑·斯波尔丁 Ethan Spaulding
" V0 N) p. g, r1 w1 Y# k# m◎编  剧 杰瑞米·亚当斯 Jeremy Adams. h, _$ P8 x9 H: X# Z$ E
       Ed Boon
" k" v& Y2 Z; |+ W: t9 H) ~◎主  演 Grey Griffin
! _& {6 k- Q) F" u1 G9 ?       詹妮弗·卡朋特 Jennifer Carpenter$ ?# B( i. P" I8 \& f
       乔尔·麦克哈尔 Joel McHale
3 q, S4 \; w3 I1 d7 U( E- s       凯文·迈克尔·理查德森 Kevin Michael Richardson+ }9 a" A9 Y! K7 J0 b$ \3 G

/ g6 D: k3 V; S8 ^6 p# S5 i  B◎标  签 动画 | 动作 | 2020 | 美国 | 暴力 | 动漫 | 剧情 | 冒险6 m7 W: s8 v- C- X

$ o$ X: k+ }3 T5 P◎简  介
0 @' _# p# M: X# i
9 D6 A! q: c, K  聚焦了异世界和地球之间的千载难逢的比赛,这场比赛将最终决定地球和人类所有的公民的命运。地球保护者雷电必须聚集其领域最伟大的战士,以从邪恶的尚宗手上保卫地球,从而结束所有战斗。
$ Q+ c" b0 C: C$ ^0 U0 m, ?9 @& m" G! F& T$ K
   Plot unknown. Reportedly an animated project based on the long-running Mortal Kombat Video game franchise.
+ V* V8 k# M- i- r$ c* K+ `7 n
* ^5 L+ f" v1 ?7 Q5 ?$ s5 C
SWEATY BALLZ presents * E# ~% ~) y8 z; X9 d

$ Q. V( G- n  l! ^. S/ M. UMortal.Kombat.Legends.Scorpions.Revenge.2020.2160p.UHD.BluRayCD.x265.10bit.HDR.DTS-HD.MA.5.1-SWTYBLZ" v  j6 P" W8 T
Screenshots are 8bit SDR
' h% X0 {0 J7 w" f3 |$ x& ^* M0 t9 j& o
Video
9 ]% y& X! Q; OID                                       : 1
0 N( G1 X5 k1 f: C3 p2 tFormat                                   : HEVC
& L7 B2 R/ A# B7 FFormat/Info                              : High Efficiency Video Coding/ g4 A) b, i. A: E
Format profile                           : Main 10@L5.1@High
  ?: U0 l# j: k% o) v- YHDR format                               : SMPTE ST 2086, HDR10 compatible
  I! }( a( Z. I# |9 r9 L& T$ J+ `Codec ID                                 : V_MPEGH/ISO/HEVC4 o4 k6 j! m- y9 c
Duration                                 : 1 h 19 min
& H- A, }7 x4 H9 P) X5 D5 K* F4 F3 u0 ZBit rate                                 : 9 312 kb/s
. f( J9 k5 g6 b& h4 y3 w) UWidth                                    : 3 840 pixels$ n% I  _9 r) N6 `6 V  R; B
Height                                   : 2 160 pixels
- k* P* G- V6 V% n+ E( gDisplay aspect ratio                     : 16:9/ t" a, E  X# s8 i" V/ X" u
Frame rate mode                          : Constant
4 O( r8 R6 y8 O( n; P( z, y! nFrame rate                               : 23.976 (24000/1001/37687) FPS% o, m5 V+ x6 q: G
Color space                              : YUV
' B* Q. K7 \) L! TChroma subsampling                       : 4:2:0 (Type 2)
( e. _( `1 U* r# \4 H& i# nBit depth                                : 10 bits; F* j9 [- Q' b3 G: w
Bits/(Pixel*Frame)                       : 0.047
- V9 H) c: \2 Y: ^% SStream size                              : 5.20 GiB (75%)4 w$ n  E& {4 t) `3 y- h. Q# \/ u
Title                                    : Mortal.Kombat.Legends.Scorpions.Revenge.2020.2160p.UHD.BluRaycd.x265.10bit.HDR.DTS-HD.MA.5.1-SWTYBLZ& j* U5 ^0 u. C, \
Writing library                          : x265 3.0_Au+10-74a8672ea4f7:[Windows][GCC 8.2.1][64 bit] 10bit
0 o6 b$ @8 {" J; ?5 C8 WEncoding settings                        : cpuid=1111039 / frame-threads=6 / numa-pools=24,24,24,24 / wpp / no-pmode / no-pme / no-psnr / no-ssim / log-level=2 / input-csp=1 / input-res=3840x2160 / interlace=0 / total-frames=0 / level-idc=51 / high-tier=1 / uhd-bd=0 / ref=3 / no-allow-non-conformance / repeat-headers / annexb / aud / hrd / info / hash=0 / no-temporal-layers / no-open-gop / min-keyint=1 / keyint=24 / gop-lookahead=0 / bframes=6 / b-adapt=2 / b-pyramid / bframe-bias=0 / rc-lookahead=25 / lookahead-slices=4 / scenecut=40 / radl=0 / no-splice / no-intra-refresh / ctu=64 / min-cu-size=8 / no-rect / no-amp / max-tu-size=32 / tu-inter-depth=1 / tu-intra-depth=1 / limit-tu=0 / rdoq-level=0 / dynamic-rd=0.00 / no-ssim-rd / signhide / no-tskip / nr-intra=0 / nr-inter=0 / no-constrained-intra / strong-intra-smoothing / max-merge=2 / limit-refs=3 / no-limit-modes / me=1 / subme=2 / merange=57 / temporal-mvp / weightp / no-weightb / no-analyze-src-pics / deblock=1:1 / no-sao / no-sao-non-deblock / rd=3 / no-early-skip / rskip / no-fast-intra / no-tskip-fast / no-cu-lossless / no-b-intra / no-splitrd-skip / rdpenalty=0 / psy-rd=0.40 / psy-rdoq=0.00 / no-rd-refine / no-lossless / cbqpoffs=0 / crqpoffs=0 / rc=crf / crf=12.0 / qcomp=0.60 / qpstep=4 / stats-write=0 / stats-read=0 / vbv-maxrate=160000 / vbv-bufsize=160000 / vbv-init=0.9 / crf-max=0.0 / crf-min=0.0 / ipratio=1.40 / pbratio=1.30 / aq-mode=1 / aq-strength=0.40 / cutree / zone-count=0 / no-strict-cbr / qg-size=32 / no-rc-grain / qpmax=69 / qpmin=0 / no-const-vbv / sar=1 / overscan=0 / videoformat=5 / range=0 / colorprim=9 / transfer=16 / colormatrix=9 / chromaloc=1 / chromaloc-top=2 / chromaloc-bottom=2 / display-window=0 / master-display=G(13250,34500)B(7500,3000)R(34000,16000)WP(15635,16450)L(40000000,50) / max-cll=479,199 / min-luma=0 / max-luma=1023 / log2-max-poc-lsb=8 / vui-timing-info / vui-hrd-info / slices=1 / opt-qp-pps / opt-ref-list-length-pps / no-multi-pass-opt-rps / scenecut-bias=0.05 / no-opt-cu-delta-qp / no-aq-motion / hdr / hdr-opt / no-dhdr10-opt / no-idr-recovery-sei / analysis-reuse-level=5 / scale-factor=0 / refine-intra=0 / refine-inter=0 / refine-mv=0 / refine-ctu-distortion=0 / no-limit-sao / ctu-info=0 / no-lowpass-dct / refine-analysis-type=402720837 / copy-pic=1 / max-ausize-factor=1.0 / no-dynamic-refine / no-single-sei / no-hevc-aq / no-svt / qp-adaptation-range=1.00
# ?; T0 v  @8 c/ j; w3 d/ D5 v3 xDefault                                  : Yes
! E; u) r6 @9 O' ]Forced                                   : No, K' [- g  ]# T4 [% u- O1 o% Y/ g
Color range                              : Limited
; I! c4 s) z3 {1 e5 [* MColor primaries                          : BT.2020
2 L$ l- Q3 y* B) M8 p1 j# rTransfer characteristics                 : PQ
/ V3 z/ ?! e* KMatrix coefficients                      : BT.2020 non-constant& Z, Q( L- p. o6 K
Mastering display color primaries        : Display P3) ]% I- f% B3 G1 j/ {
Mastering display luminance              : min: 0.0050 cd/m2, max: 4000 cd/m2
" }+ r2 o( M, D* q- v3 ?' D  sMaximum Content Light Level              : 479 cd/m2
) e2 l# Q" U' ^- PMaximum Frame-Average Light Level        : 199 cd/m2
' n1 x0 d8 R) D+ n4 ?8 }
. R# }; a' B3 v# o  e$ \# EAudio #1
" E3 B) D% R; T% NID                                       : 25 `9 l  q. v2 M; _* X
Format                                   : DTS XLL. B, |7 {, I/ ^* t  E$ L2 w
Format/Info                              : Digital Theater Systems
) X3 x$ P! p" {9 q4 m) ~Commercial name                          : DTS-HD Master Audio: T9 j+ \1 |; {/ b/ H) G7 g6 {" r
Codec ID                                 : A_DTS
: K. [6 E: s4 {- V2 p, G& ~Duration                                 : 1 h 19 min* T  @+ w7 V3 V! P2 f/ |7 N
Bit rate mode                            : Variable/ e" P& N9 W7 `. o/ z2 G, r0 Y
Bit rate                                 : 2 398 kb/s
: C6 T) H" u: k% ?6 ]Channel(s)                               : 6 channels
, k+ ]. B' A# a+ sChannel layout                           : C L R Ls Rs LFE+ S- z  b" D* C2 u& k4 ?" ~0 o/ ]. O
Sampling rate                            : 48.0 kHz
) k/ G4 Y) p, E1 Y) x4 M$ k4 CFrame rate                               : 93.750 FPS (512 SPF)( b% D6 M; I; a2 q" e
Bit depth                                : 16 bits
; P# P6 Q" P2 k5 e) wCompression mode                         : Lossless0 o4 g( f8 ^( W6 x* V% m& X
Stream size                              : 1.34 GiB (19%)% @  I& Y% N, q; |5 k1 t/ ]
Title                                    : Mortal.Kombat.Legends.Scorpions.Revenge.2020.2160p.UHD.BluRaycd.x265.10bit.HDR.DTS-HD.MA.5.1-SWTYBLZ
$ y) M: K# b! m5 R8 ^1 ^Language                                 : English0 M) U3 T8 ^- E. n4 E
Default                                  : Yes
0 Z% {# k  u% A) C9 xForced                                   : No
! s  n% a& Q. _/ f2 |% n) ^
4 H" e+ n+ m' V2 F; nAudio #22 m/ z4 u8 _% n! A" z
ID                                       : 32 P: {* y1 \* S' G# X
Format                                   : AC-3
% |* f3 {. y6 Y' U4 M4 N1 B0 D( l& WFormat/Info                              : Audio Coding 3
2 U. p! w; U6 E  H/ I7 cCommercial name                          : Dolby Digital, i. F; n4 L$ o8 _8 [
Codec ID                                 : A_AC3
( p: ], P7 d% H0 RDuration                                 : 1 h 19 min
0 o3 ]/ g/ t- K+ x( L. C7 HBit rate mode                            : Constant
* q1 w$ M' k% O$ e/ c  d2 OBit rate                                 : 640 kb/s+ j7 W' _6 K! D9 u+ m) f4 C' S
Channel(s)                               : 6 channels
- E3 l! [" T# R. jChannel layout                           : L R C LFE Ls Rs. A0 s! Z6 [* X" M8 G
Sampling rate                            : 48.0 kHz$ X- T: P1 x! l- K
Frame rate                               : 31.250 FPS (1536 SPF)
" D7 q( b; ~2 S  WBit depth                                : 16 bits
9 C, g4 r* d# J# _) _" w7 v5 ?Compression mode                         : Lossy
3 j6 e# o. v0 a) y1 q. LStream size                              : 366 MiB (5%)
4 S( Q8 ^6 v" m( f8 ?. }Title                                    : Mortal.Kombat.Legends.Scorpions.Revenge.2020.2160p.UHD.BluRaycd.x265.10bit.HDR.DTS-HD.MA.5.1-SWTYBLZ0 U* V- M9 b2 v& B' Z; K8 I
Language                                 : English6 r# k9 e& f, q% |6 k/ f2 ~1 e
Service kind                             : Complete Main
$ u3 \1 j8 [1 b! Z9 J6 A& k7 X! NDefault                                  : No+ b8 F; q+ d1 q( Z: ?
Forced                                   : No. S; a" }5 J' p' O8 T3 b$ f, X) ]

/ c2 b% w6 Z5 WText #1
* w& o' E& X% [ID                                       : 4
9 b1 y8 `! n+ D1 tFormat                                   : UTF-8  F7 T6 O9 z6 G' e; K" O" a
Codec ID                                 : S_TEXT/UTF84 Y7 s( i% `6 B7 \# h8 n" ?
Codec ID/Info                            : UTF-8 Plain Text* S& }  t# P0 x/ |! Z$ d8 y
Duration                                 : 1 h 17 min
3 v1 k# F2 d% S0 MBit rate                                 : 37 b/s" h9 J1 [0 S! Y1 L! U+ z
Count of elements                        : 864
0 B* A  g7 s: t: BStream size                              : 21.4 KiB (0%)
7 T$ j+ a4 s# W9 S% A# rTitle                                    : English-SRT* V" F0 [* b! H( ?4 Y0 |
Language                                 : English
1 S- m$ Y3 Q# \, t0 D1 Q/ fDefault                                  : Yes1 R' R) A; V8 ?% F
Forced                                   : No
- i3 ~! B5 ?2 o7 m; E
* Y/ R. x) O4 x+ a' SText #2
9 l% I6 P, a  k5 l! bID                                       : 5& ^3 O4 w) q2 j6 k4 {
Format                                   : PGS
6 l  Q5 r& G9 ]( q* xMuxing mode                              : zlib
7 H2 q8 K$ E0 x* V# @- MCodec ID                                 : S_HDMV/PGS
  F2 a) ]8 u8 m( g$ ^Codec ID/Info                            : Picture based subtitle format used on BDs/HD-DVDs
, y/ Z/ v; C2 J+ e9 ?  wDuration                                 : 1 h 17 min
4 y8 {! C3 Y8 U9 f7 k0 |Bit rate                                 : 27.0 kb/s
9 ~6 i+ r5 |  C( |5 T, k! QCount of elements                        : 2120$ {4 ]+ A" N& B, ?% X4 A
Stream size                              : 14.9 MiB (0%)
( N4 W  w0 O* q/ pTitle                                    : English-PGS
9 L" _" V0 b: [+ k1 {Language                                 : English5 N! K0 a3 ?4 t! a
Default                                  : No
# _2 t  ^# R' d% LForced                                   : No
& b1 ?! [# C. S7 ^* y/ N+ W& O3 S7 \1 ?) S* s
Text #3! c9 @" H# v. x$ @3 z/ L, E* N( n
ID                                       : 6
; F, x, ?/ g7 d# c$ Q* F1 @Format                                   : PGS& [* ?- A6 f* L4 q, L5 \4 d5 C
Muxing mode                              : zlib1 f1 a; |  I5 K( o# F
Codec ID                                 : S_HDMV/PGS
& t" R1 Y, e& V% \5 W0 h6 t7 A8 V2 oCodec ID/Info                            : Picture based subtitle format used on BDs/HD-DVDs
6 F( d( n3 T) y9 r9 h5 }6 E0 g; K7 KDuration                                 : 1 h 19 min+ Z# N4 ^" _, C* z) w+ |
Bit rate                                 : 21.7 kb/s! K. C' a8 E) x- E* U8 P: j7 r
Count of elements                        : 16627 a1 k( \  g5 j" r
Stream size                              : 12.3 MiB (0%)( Y, k7 S' U2 j( r3 {
Title                                    : Dutch-PGS( C1 W. J. l4 k. t! t
Language                                 : Dutch
7 Z- K8 ?- I# X* @& t% qDefault                                  : No
4 |5 [! m/ I4 j; ?( R  \Forced                                   : No
% d2 R1 k$ j( J) z* F: ~( L' s$ F9 ~/ g9 ?# P1 I
Text #4! x; n, N; n3 X! W$ x
ID                                       : 7' T: F. p1 `- X" @2 _
Format                                   : PGS8 D' S' x& D0 Y; v$ k
Muxing mode                              : zlib3 T) Y* [5 v0 \0 A$ y) g9 h
Codec ID                                 : S_HDMV/PGS4 a4 p9 E5 T- u/ R3 F9 Z
Codec ID/Info                            : Picture based subtitle format used on BDs/HD-DVDs
: M$ U' i8 K( g6 n+ X; @Duration                                 : 1 h 19 min5 C4 N1 d  _  d$ V- B4 y/ n% i
Bit rate                                 : 23.7 kb/s% `& C9 k: P0 V# z
Count of elements                        : 1718
/ m2 R4 [  E5 v8 f2 l6 f- hStream size                              : 13.5 MiB (0%). b/ r" C. V' A  c5 l* F
Title                                    : French-PGS
8 x" J* j4 @- Z  }/ k9 XLanguage                                 : French' s7 _2 w2 W& ?" m$ J7 {
Default                                  : No
1 n( R) }$ L2 z2 ^1 j9 F% mForced                                   : No
' R3 }" n2 r" X8 j
3 E$ C! V) Q6 v# s3 {4 r& sText #5
+ b1 h  n7 @* Y6 yID                                       : 8( J/ a+ U7 C  U$ X4 _1 I! z
Format                                   : PGS
$ w. p" R( ~. {: CMuxing mode                              : zlib8 Q$ H3 b) x, n# U) }; ?8 Z: W1 H5 o% ?% n
Codec ID                                 : S_HDMV/PGS
, L4 `( y' I  m% I; ~& wCodec ID/Info                            : Picture based subtitle format used on BDs/HD-DVDs$ M* `7 |9 `! f" t" `
Duration                                 : 1 h 17 min
; q3 }- p8 s1 X6 x& q: }" uBit rate                                 : 31.5 kb/s
; k  x8 F+ X5 O5 o$ @4 hCount of elements                        : 2118& w9 L4 L* H. }5 v, e- H& ]9 }
Stream size                              : 17.4 MiB (0%)
' @5 W& S' Q  Z( f1 QTitle                                    : German-PGS' i  s) g8 P+ v" P
Language                                 : German9 \( m; V$ V9 I! {0 e4 O
Default                                  : No
# d' }8 k8 G5 C( N+ GForced                                   : No) f/ e8 D* t. T/ z; k( J
" C3 T8 `2 [9 L1 F6 ^
Text #63 J- o6 N) M) J5 T0 e) J
ID                                       : 9
) {4 X) p$ Q& i: w/ V4 S- LFormat                                   : PGS
- R/ n0 k% g4 t7 aMuxing mode                              : zlib9 V2 a6 m3 i* D' J2 v- o) }
Codec ID                                 : S_HDMV/PGS
% U5 g4 }& V% h& i" B3 C) f/ U6 i7 FCodec ID/Info                            : Picture based subtitle format used on BDs/HD-DVDs
2 {1 i9 U6 M& U( cDuration                                 : 1 h 19 min8 H# p2 c& `" o! b* \( T
Bit rate                                 : 22.1 kb/s# S5 M# n6 X6 u
Count of elements                        : 1714
& A0 _8 ~. o6 V) d: B- gStream size                              : 12.6 MiB (0%)
4 j$ t2 ?6 f& @9 Z( i3 f) L( [Title                                    : Spanish-PGS6 a9 I# ]; T- b
Language                                 : Spanish* o7 v# m, D* K' r
Default                                  : No
2 H8 [; x1 A2 O7 U; d8 @Forced                                   : No
, q/ C" [! C/ p/ y: V: a+ ]" [* ~; Y
Menu
9 n) D5 M0 ^& W6 T1 [00:00:00.000                             : en:Chapter 012 e* b, X& g1 K6 b. q" G# l$ X
00:09:21.978                             : en:Chapter 028 z( s" D7 k3 _8 s6 t& r2 H
00:19:53.567                             : en:Chapter 03
% `1 h0 u/ M4 c5 T* X00:28:12.107                             : en:Chapter 04
( J4 ~0 t% S& g: L# J( n00:35:54.277                             : en:Chapter 05
" R) E4 {% n8 b4 F/ g00:45:51.082                             : en:Chapter 06
8 `' B, [$ s) T' P& t4 A00:55:18.690                             : en:Chapter 07
8 K: m5 r# S  i! J, i01:04:28.448                             : en:Chapter 08
' A. x' L: @& `8 H* E01:13:56.724                             : en:Chapter 09
- m  I7 u6 k( n$ }+ q$ W+ B! w( y01:17:22.429                             : en:Chapter 10
Video
( c! h0 s; v4 r/ i5 C" e$ IID                                       : 1
/ h6 V4 D! y7 R( pFormat                                   : HEVC
; j- x! K% x  ?+ L: z. E2 r' Z% _Format/Info                              : High Efficiency Video Coding- y. t! L/ d  s% k7 I9 J# z  O4 i
Format profile                           : Main 10@L5.1@High
$ |% A% P0 y1 A$ }8 m& I) ZHDR format                               : SMPTE ST 2086, HDR10 compatible' l/ s6 o3 T1 [* \5 V
Codec ID                                 : V_MPEGH/ISO/HEVC3 ?: L0 x% H' ~2 a0 d/ F' ~2 V0 D
Duration                                 : 1 h 19 min& w2 L% a, G+ V" i8 l5 C
Bit rate                                 : 5 719 kb/s
; A8 N/ J) T9 O* I/ i0 QWidth                                    : 3 840 pixels
; q$ ?% ~6 n( t4 i# k  z8 W% m8 YHeight                                   : 2 160 pixels
/ u+ P6 }$ o9 i/ FDisplay aspect ratio                     : 16:97 m! \6 A) T" J! m# K* w+ Q; ^5 x
Frame rate mode                          : Constant
" `. O; A& e' b; N# UFrame rate                               : 23.976 (24000/1001/37687) FPS& I5 S2 T2 b. [9 C8 @
Color space                              : YUV
- @  O' [0 j8 A% X% h$ QChroma subsampling                       : 4:2:0 (Type 2)  T' A" T, E$ A6 @" M/ ^: j
Bit depth                                : 10 bits
( ?" l! o4 H. d; a, ABits/(Pixel*Frame)                       : 0.029
* ?# O* `" J0 p! A0 z+ jStream size                              : 3.19 GiB (70%)
( E% l% C- ~' @0 L& f2 c% E) IWriting library                          : x265 3.3+21-6bb2d88029c2:[Windows][GCC 10.0.1][64 bit] 10bit( Y0 B% S9 R# O7 A  \3 Y
Encoding settings                        : cpuid=1176575 / frame-threads=6 / numa-pools=36 / wpp / no-pmode / no-pme / no-psnr / no-ssim / log-level=2 / input-csp=1 / input-res=3840x2160 / interlace=0 / total-frames=115042 / level-idc=51 / high-tier=1 / uhd-bd=0 / ref=4 / no-allow-non-conformance / repeat-headers / annexb / aud / hrd / info / hash=0 / no-temporal-layers / open-gop / min-keyint=23 / keyint=250 / gop-lookahead=0 / bframes=6 / b-adapt=2 / b-pyramid / bframe-bias=0 / rc-lookahead=25 / lookahead-slices=4 / scenecut=40 / hist-scenecut=0 / radl=0 / no-splice / no-intra-refresh / ctu=64 / min-cu-size=8 / rect / no-amp / max-tu-size=32 / tu-inter-depth=1 / tu-intra-depth=1 / limit-tu=0 / rdoq-level=2 / dynamic-rd=0.00 / no-ssim-rd / signhide / no-tskip / nr-intra=0 / nr-inter=0 / no-constrained-intra / strong-intra-smoothing / max-merge=3 / limit-refs=3 / limit-modes / me=3 / subme=3 / merange=57 / temporal-mvp / no-frame-dup / no-hme / weightp / no-weightb / no-analyze-src-pics / deblock=1:1 / no-sao / no-sao-non-deblock / rd=4 / selective-sao=0 / no-early-skip / rskip / no-fast-intra / no-tskip-fast / no-cu-lossless / no-b-intra / no-splitrd-skip / rdpenalty=0 / psy-rd=0.40 / psy-rdoq=1.00 / no-rd-refine / no-lossless / cbqpoffs=0 / crqpoffs=0 / rc=crf / crf=14.0 / qcomp=0.60 / qpstep=4 / stats-write=0 / stats-read=0 / vbv-maxrate=160000 / vbv-bufsize=160000 / vbv-init=0.9 / crf-max=0.0 / crf-min=0.0 / ipratio=1.40 / pbratio=1.30 / aq-mode=2 / aq-strength=0.40 / cutree / zone-count=0 / no-strict-cbr / qg-size=32 / no-rc-grain / qpmax=69 / qpmin=0 / no-const-vbv / sar=1 / overscan=0 / videoformat=5 / range=0 / colorprim=9 / transfer=16 / colormatrix=9 / chromaloc=1 / chromaloc-top=2 / chromaloc-bottom=2 / display-window=0 / master-display=G(13250,34500)B(7500,3000)R(34000,16000)WP(15635,16450)L(40000000,50) / cll=479,199 / min-luma=0 / max-luma=1023 / log2-max-poc-lsb=8 / vui-timing-info / vui-hrd-info / slices=1 / no-opt-qp-pps / no-opt-ref-list-length-pps / no-multi-pass-opt-rps / scenecut-bias=0.05 / hist-threshold=0.01 / no-opt-cu-delta-qp / no-aq-motion / hdr10 / hdr10-opt / no-dhdr10-opt / no-idr-recovery-sei / analysis-reuse-level=0 / analysis-save-reuse-level=0 / analysis-load-reuse-level=0 / scale-factor=0 / refine-intra=0 / refine-inter=0 / refine-mv=1 / refine-ctu-distortion=0 / no-limit-sao / ctu-info=0 / no-lowpass-dct / refine-analysis-type=0 / copy-pic=1 / max-ausize-factor=1.0 / no-dynamic-refine / no-single-sei / no-hevc-aq / no-svt / no-field / qp-adaptation-range=1.00 / no-scenecut-aware-qpconformance-window-offsets / right=0 / bottom=0 / decoder-max-rate=0
* f+ q0 m' n8 n  V; D; CDefault                                  : Yes
5 j6 d  W: T9 p1 h2 YForced                                   : No6 ]+ q- C- N0 R0 m5 a' t
Color range                              : Limited
* }& J& d& v9 b8 CColor primaries                          : BT.2020
6 K' `3 u. Z3 O6 j: yTransfer characteristics                 : PQ/ I  ?4 M$ t, Z. A, U* n
Matrix coefficients                      : BT.2020 non-constant
5 g" G+ y9 ~9 e( `3 b4 ]) UMastering display color primaries        : Display P3- B2 g8 H1 p* e1 {; J3 Q
Mastering display luminance              : min: 0.0050 cd/m2, max: 4000 cd/m2
5 G( p3 K  c. T' m# V9 ZMaximum Content Light Level              : 479 cd/m2, d: U) [) I* f" P! _, @
Maximum Frame-Average Light Level        : 199 cd/m2
; f& \: N+ |! z5 d1 v8 _2 t3 w
, d$ ^4 ]( ]; ~+ zAudio
2 M# C! j# ~% k% vID                                       : 2
$ \& X' \; O  d5 R& e, U1 b+ v0 qFormat                                   : DTS XLL' d1 C/ B9 l: i& F' U& k* O
Format/Info                              : Digital Theater Systems4 G, ^5 J+ D, i) U8 i" r
Commercial name                          : DTS-HD Master Audio( k# m* `6 k$ ?& l( S$ C
Codec ID                                 : A_DTS
/ H& P2 z& j' t' q$ C8 dDuration                                 : 1 h 19 min
7 h$ d7 h# ]. ]8 g- LBit rate mode                            : Variable
* z* \7 e3 K5 L) kBit rate                                 : 2 398 kb/s
& h9 ?# b7 h7 \  m' kChannel(s)                               : 6 channels1 n4 R8 ]7 P+ i& l4 x9 L3 |
Channel layout                           : C L R Ls Rs LFE
* v/ b' ]  \4 X; d/ mSampling rate                            : 48.0 kHz
; i. x/ a% r2 ~& N4 GFrame rate                               : 93.750 FPS (512 SPF)6 H8 S4 V3 Y5 g: \8 g8 y7 Y5 Y2 b
Bit depth                                : 16 bits# ?6 k" e: n( R3 W0 F; ]
Compression mode                         : Lossless; F% p- u& B; A3 j; H6 [3 [: c6 B
Stream size                              : 1.34 GiB (29%)
. U' t& A! s+ _3 o' L1 @3 SLanguage                                 : English
, ~# O( H5 \+ N# Z: c# D0 ~Default                                  : Yes3 O) w5 ~3 [6 U5 D
Forced                                   : No1 H2 I* E9 x2 Q
4 Y" m- @- h- l4 w2 f* p: R
Text #1
4 Y! ~% w; g% n* kID                                       : 3
+ C+ |0 Z. f7 C  q3 F9 Q# t8 k9 m. ?; gFormat                                   : PGS* l2 Y& q' x$ }! ^: z3 s: S4 M
Muxing mode                              : zlib4 t7 q7 X0 x& n! D+ r0 Y' X
Codec ID                                 : S_HDMV/PGS
% I9 @9 D! k# a( w( \: Q2 h4 oCodec ID/Info                            : Picture based subtitle format used on BDs/HD-DVDs
+ V4 W. w" K8 {  R, {4 R5 O: y* }( x& ZDuration                                 : 1 h 17 min- l. Z8 ~& q  d) Q3 R0 P+ r
Bit rate                                 : 27.0 kb/s1 j% F/ S' }9 z% S. h3 N
Count of elements                        : 2120' r$ V9 |( x- C
Stream size                              : 14.9 MiB (0%)
8 @( k) c9 A0 M! [Title                                    : English SDH% M8 f4 `: B, D0 ?& S
Language                                 : English
, h/ f8 e7 ?" ADefault                                  : No
& {; @# O+ H1 }& E3 t: V) aForced                                   : No
# j! n4 T  j! @2 o. [# m6 X3 M5 ~: B* A6 d
Text #2
- x$ v; w  X0 {6 I- F: V% w4 mID                                       : 4$ W0 ?: f4 ^/ [! K$ C
Format                                   : PGS
* X, i1 U+ b" r7 d2 kMuxing mode                              : zlib& |7 Q# Z" D8 j% D% F
Codec ID                                 : S_HDMV/PGS
/ W( o( V' p# u6 {1 CCodec ID/Info                            : Picture based subtitle format used on BDs/HD-DVDs9 K/ m" D, ^8 n
Duration                                 : 1 h 19 min
# T5 f* R( e: b0 |Bit rate                                 : 23.7 kb/s
2 l1 K: }. l3 DCount of elements                        : 17180 o& s0 t5 U/ t" O8 D$ n
Stream size                              : 13.5 MiB (0%)
: M0 y$ r# L, x7 Z* n% {* ATitle                                    : French
: V! u3 r% S/ u' c4 q8 u3 X4 jLanguage                                 : French
. S# j8 x8 }# A1 n& i! N7 {Default                                  : No% J  j- H( B) S
Forced                                   : No
& r8 K# J6 f, ~, g$ L& z( A7 u, R0 g' a; F+ }1 t
Text #35 V5 {' J; Y% x) J! O0 c  I
ID                                       : 5
5 Q( a9 ?3 h' Q, m" s; aFormat                                   : PGS8 Y9 i+ u7 t3 l& B9 A
Muxing mode                              : zlib" s7 P$ {5 G% N5 e
Codec ID                                 : S_HDMV/PGS
, n. }; q: W: G& V0 {& [+ v- JCodec ID/Info                            : Picture based subtitle format used on BDs/HD-DVDs
: V% a. W, F( K3 `Duration                                 : 1 h 19 min
( p( V6 x* y& Q7 D# Z8 @2 x+ QBit rate                                 : 22.1 kb/s1 }5 F" a+ s4 o+ [" V, n: f
Count of elements                        : 17148 P) P, T/ F4 }+ s4 _) }0 }* N! t- X
Stream size                              : 12.6 MiB (0%)9 y& y. y, G# C
Title                                    : Spanish
9 A9 S% a- p0 PLanguage                                 : Spanish
& s. p0 t+ T! R3 J7 aDefault                                  : No3 b( H  R5 D  Y; c
Forced                                   : No2 O4 F/ [0 j6 p" z

0 Z3 ?1 v8 j: j4 U' k1 L" qMenu
: Z' t5 u  ]5 D- a( t' e$ k: O5 P00:00:00.000                             : en:Chapter 01
1 y0 @% d. E- P  ^7 F! g# ~00:09:21.978                             : en:Chapter 02
) w+ [& E. u0 J" O7 r% L  B* L00:19:53.567                             : en:Chapter 030 i& M$ g8 j7 E# P
00:28:12.107                             : en:Chapter 04
/ R' |8 E* z* h0 S00:35:54.277                             : en:Chapter 05
( e! Z; n/ S# M/ g00:45:51.082                             : en:Chapter 06
- {% R4 W: D6 i' S00:55:18.690                             : en:Chapter 07
0 _. H1 F; I4 F+ a6 N4 _+ d6 |2 F01:04:28.448                             : en:Chapter 08$ G2 C; R& a! `
01:13:56.724                             : en:Chapter 09
1 h5 u. ^4 ]9 s% w3 |01:17:22.429                             : en:Chapter 10

3 n( [" R! Y  p$ w
游客,查看本帖隐藏内容请回复 | 加入VIP贵宾可免积分免回复 了解详情 | 还不是会员:点击获取邀请码 Invitation Code

0

主题

203

帖子

1097

积分

Sponsor

金币
160 枚
体力
544 点
2475017 发表于 2020-10-2 17:08:09 | 显示全部楼层
啥也不说了,楼主就是给力!
% M$ X' R! ^- S) I! ~/ i
该会员没有 ...

本版积分规则

小黑屋|Archiver|蓝光电影资源网

GMT+8, 2021-6-13 23:08

快速回复 返回顶部 返回列表