BluRayCD Forum

 找回密码
 立即注册【分享大片】

QQ登录

只需一步,快速开始

查看: 35|回复: 4
收起左侧

[2160P极清] 热血警探/硬派条子 [4K SDR高码版] Hot Fuzz 2007 2160p BluRaycd x265 10bit & 8bit SDR DTS-X 7.1-SWTYBLZ 39.84GB & 45.03GB

[复制链接]

4790

主题

4963

帖子

6万

积分

Post Share

金币
9424 枚
体力
17359 点

卓越贡献勋章

黄金嫖客 发表于 2020-5-19 23:31:20 | 显示全部楼层 |阅读模式
01.jpg 1 {& d4 T( y" k3 Y9 y; z7 l
9 ~0 E% Y. F) q+ ]; ?; R9 r& S
◎片  名 Hot Fuzz / Blue Fury / Bubblin' Fizz / Dead Right / Feelin' Fuzzier / Raging Fuzz
; T$ h2 F8 M* J) B& z◎译  名 热血警探/终棘警探/热血条子/硬派雷子/硬派条子
# Y' {% x: p0 D8 v, ~5 Q- z◎年  代 2007
/ K4 G9 y# U$ R3 p2 O; e$ Z◎产  地 美国/法国/英国  E! N1 c) A9 ?
◎类  别 喜剧/悬疑/犯罪
- Z. v1 u3 C. L& W+ k% g$ Y◎语  言 英语
0 O! ]% l5 O# {. p. F◎上映日期 2007-02-14(英国)
' A4 r9 e; w) i◎IMDb评分 7.8/10 from 447,322 users
* A9 t& O: n1 M" U2 f. N0 \/ q  _◎IMDb链接 https://www.imdb.com/title/tt0425112/* P" d2 [7 E- U( `* t* \- Y
◎豆瓣评分 8.2/10 from 128,073 users
& X  {2 e0 g' N! K( R◎豆瓣链接 https://movie.douban.com/subject/1806555/
# L4 }! ~) n+ B1 R/ a2 x◎片  长 2 h 0 min
+ A8 b1 A0 \1 R5 J9 T/ Z& e◎导  演 埃德加·赖特 Edgar Wright
1 Z8 V  e8 D$ P, E7 Z◎编  剧 埃德加·赖特 Edgar Wright 9 \0 c& X3 A7 t" J" Y
       西蒙·佩吉 Simon Pegg
/ p3 t9 o& T7 ^. }◎主  演 西蒙·佩吉 Simon Pegg
* I1 V8 {+ B2 N' p5 j       尼克·弗罗斯特 Nick Frost
; ~4 ^9 b4 z! K       马丁·弗瑞曼 Martin Freeman( {0 k- C) E6 `! R
       比尔·奈伊 Bill Nighy: j: {: ~/ |4 }, W) L% F$ s8 @: C
       提摩西·道尔顿 Timothy Dalton. q+ y6 p; z% P$ P0 v; M! y
       吉姆·布劳德本特 Jim Broadbent
) n- W# b8 n/ O  e  z/ ?       Robert Popper
5 |4 a8 o2 E+ S       乔·考尼什 Joe Cornish
. A: c- o; C4 W8 O( ~       Chris Waitt! O. ]& A! Q# M
       比莉·怀特劳 Billie Whitelaw9 Q& a1 B( k: x
       彼得·怀特 Peter Wight
5 W* q7 O+ d' X: I) C* x! u- @       朱丽亚·迪金 Julia Deakin
3 n- m  E% F% D7 q" O5 R       比尔·贝利 Bill Bailey2 D4 l$ _1 K7 d9 q$ d# w
       保罗·弗里曼 Paul Freeman
: ]/ H  u. j% S: p; K" [       伊丽莎白·埃尔文 Elizabeth Elvin3 |0 b' C& z) Q/ S+ v) |- a
       斯图亚特·维尔森 Stuart Wilson
/ a! v# N  A3 D9 @       帕迪·康斯戴恩 Paddy Considine
  D( L1 f# h& s( f# t       拉菲·斯波 Rafe Spall
+ @$ T% G- K! e2 N/ Y       凯文·埃尔登 Kevin Eldon5 s' q  H, f) A& ~+ t: h8 g
       卡尔·约翰逊 Karl Johnson
( q* T( ^  g/ K# l" y2 y9 {: ]       Sampson: n2 c5 E" ~1 {. H
       奥利维娅·科尔曼 Olivia Colman# S+ }2 H0 w" o+ m/ B9 e! K
       爱德华·伍德华德 Edward Woodward
3 w6 N0 d( u) C- {       安妮·雷德 Anne Reid) j  l( |, v& k3 e2 ?. W
       肯尼思·库兰汉姆 Kenneth Cranham7 @2 U: Q. A  p& _; c4 d- m
       亚当·布克斯顿 Adam Buxton
& X: l# y4 q: E! I0 A# M/ A4 u       斯戴芬·莫昌特 Stephen Merchant- w( o+ R8 c6 j2 l/ ?( G6 @
       蒂姆·巴洛 Tim Barlow4 I3 O7 J: [) l4 d& K+ g6 w; t3 v1 i
       罗伊·麦克凯恩 Rory McCann. |% [8 m+ c7 s7 ~4 w
       爱丽丝·洛维 Alice Lowe) Z( L. O& w. V" Z( H
       罗恩·库克 Ron Cook$ A# w. R. `" Z4 k# D) `
       大卫·斯瑞弗 David Threlfall  c8 }3 d) G0 e4 Z
       露茜·彭奇 Lucy Punch
$ O7 t: F6 e5 Q7 f, B/ Q       大卫·布拉德利 David Bradley% B7 u/ U$ d+ e9 k; a/ X- M) O
       Maria Charles
/ z+ J6 Q6 l& ~6 n* X7 K- {       凯特·布兰切特 Cate Blanchett
# G- N  T& O. ?2 [7 u       史蒂夫·库根 Steve Coogan( G+ q# F# k2 P: b
       大卫·威廉·詹姆斯·埃利奥特 David William James Elliott
% @$ R* T# y8 V" C       彼得·杰克逊 Peter Jackson6 ?( d8 ^  l  y& O/ P( X7 H4 \
       加斯·詹宁斯 Garth Jennings: A( E5 U" T2 T
       约瑟夫·麦克曼纳斯 Joseph McManners
- G" y" }5 U# ~- ]+ o. ~       Joel Stubbs
( h! h1 {8 E8 w  @! o, a       埃德加·赖特 Edgar Wright
* r- M8 f6 p% Y4 J" E2 x
7 I2 s; Y! ^' L7 D◎标  签 黑色幽默 | 英国 | 喜剧 | 动作 | 警匪 | 英国电影 | SimonPegg | 2007$ S8 w8 U# B+ i+ ]7 u
0 A- R) n3 b( E9 ]- {+ {5 }
◎简  介  
( G- y5 [1 w% D. s0 j! u" ~7 M
9 w+ y/ S# Z1 ?; U9 N0 x* ^$ J  d  尼古拉斯·安奇尔(西蒙·佩吉Simon Pegg 饰)在伦敦担任高级巡警,抓贼破案似乎是他最大的乐趣。为此他成为警局中最敬业最能干的警员。但这却招致了警长的妒嫉,可怜的尼古拉斯被调至一个偏僻平静的小镇当警察。
+ W" N  Y  G6 n* F8 R7 Y: g
% z/ }) Q7 H  h2 w  小镇已经几十年没有过恶性犯罪事件。尼古拉斯在那里过得相当郁闷 ,他觉得自己的擒贼本领没有施展空间。更令他烦恼的是,镇里警察局局长儿子丹尼·巴特曼(尼克·弗罗斯特 Nick Frost 饰)也来凑热闹,成为他的搭档。这个新搭档麻烦至极,整天询问大城市的警员经历。正在尼古拉斯烦心于镇里鸡毛蒜皮的事务和身边的苯搭档时,镇里却发生了一桩案件,让尼古拉斯嗅到了大展拳脚的机会,惊心动魄的战役开始了。  J% Z: d) C6 b% a+ S  a; N

! T# N2 |8 @0 d& N  Y   Nicholas Angel, the finest cop in London, is so good that he makes everyone else look bad. So Angel's superiors send him to the sleepy village of Sandford, where he is partnered with Danny Butterman, a huge action movie fan. But Angel soon learns that Sandford is not what it seems. It's time for these small-town cops to break out some big-city justice.
4 r# X( k& X% e
2 s+ o. Y  E" E! [
SWEATY BALLZ presents 6 E6 ?+ h& z' f4 w5 [
# z2 Z- T! m1 E" g6 l
Hot.Fuzz.2007.2160p.BluRayCD.x265.10bit.SDR.DTS-X.7.1-SWTYBLZ
6 ]7 `; d0 t1 u- I: jConverted from 10 bit HDR to 10 bit SDR using tripple mixed Hable-Reinhard-JJ per scene+frame analysis algorithm
4 b, k. k; Z6 ~6 PScreenshots are 8bit SDR
7 [' u& F  g* o( l! o% `$ o) h, Q  `% `1 z# a" Z
Video# P# k4 I6 e- U' N1 k+ m
ID                                       : 18 R+ V8 _/ Z- u% T7 L
Format                                   : HEVC5 v+ t! k- C- A9 o: B
Format/Info                              : High Efficiency Video Coding
3 `9 |  u: Y5 a* n! e, \; HFormat profile                           : Main 10@L5.1@High! F. A8 O8 z5 }. e' Z; ]6 A; Q
Codec ID                                 : V_MPEGH/ISO/HEVC
) a5 w% X5 P: e+ x& JDuration                                 : 2 h 0 min6 O* V. P) S! R2 e( Z* e* N
Bit rate                                 : 40.3 Mb/s* f$ `* C4 K3 J0 ^
Width                                    : 3 840 pixels* t. O+ V( e' ?1 _. o& n* h
Height                                   : 1 634 pixels* Y, u5 m' K$ d  h! q4 o
Display aspect ratio                     : 2.35:1' m/ F* t( V, m# H: R# c9 w
Frame rate mode                          : Constant, ]! v9 [) d0 w7 f. m1 A1 m$ f
Frame rate                               : 23.976 (24000/1001/37687) FPS
) q1 B$ s# k1 Y" q& ?) C$ k, A8 sColor space                              : YUV
9 l; y, n, c' `) y! K7 Z0 v3 p+ CChroma subsampling                       : 4:2:0
2 z7 J5 Y/ [; Z: |$ `5 ABit depth                                : 10 bits
2 W) S3 A. S/ x0 y( gBits/(Pixel*Frame)                       : 0.2683 j6 l0 G: q  w1 r$ f8 i
Stream size                              : 34.0 GiB (86%)
" r+ s7 O1 m( x  fTitle                                    : Hot.Fuzz.2007.2160p.BluRaycd.x265.10bit.SDR.DTS-X.7.1-SWTYBLZ
/ o, p  }. w2 D- g( iWriting library                          : x265 3.0+1-ed72af837053:[Windows][GCC 8.2.0][64 bit] 10bit1 l. P; T6 c  I6 |$ T& ]: L1 t
Encoding settings                        : cpuid=1111039 / frame-threads=16 / numa-pools=24,24,24,24 / wpp / no-pmode / no-pme / no-psnr / no-ssim / log-level=2 / input-csp=1 / input-res=3840x1634 / interlace=0 / total-frames=173802 / level-idc=51 / high-tier=1 / uhd-bd=0 / ref=3 / no-allow-non-conformance / repeat-headers / annexb / aud / hrd / info / hash=0 / no-temporal-layers / no-open-gop / min-keyint=1 / keyint=24 / gop-lookahead=0 / bframes=4 / b-adapt=2 / b-pyramid / bframe-bias=0 / rc-lookahead=25 / lookahead-slices=4 / scenecut=40 / radl=0 / no-splice / no-intra-refresh / ctu=64 / min-cu-size=8 / no-rect / no-amp / max-tu-size=32 / tu-inter-depth=1 / tu-intra-depth=1 / limit-tu=0 / rdoq-level=0 / dynamic-rd=0.00 / no-ssim-rd / signhide / no-tskip / nr-intra=0 / nr-inter=0 / no-constrained-intra / strong-intra-smoothing / max-merge=2 / limit-refs=3 / no-limit-modes / me=1 / subme=2 / merange=57 / temporal-mvp / weightp / no-weightb / no-analyze-src-pics / deblock=0:0 / no-sao / no-sao-non-deblock / rd=3 / no-early-skip / rskip / no-fast-intra / no-tskip-fast / no-cu-lossless / no-b-intra / no-splitrd-skip / rdpenalty=0 / psy-rd=2.00 / psy-rdoq=0.00 / no-rd-refine / no-lossless / cbqpoffs=0 / crqpoffs=0 / rc=crf / crf=16.0 / qcomp=0.60 / qpstep=4 / stats-write=0 / stats-read=0 / vbv-maxrate=160000 / vbv-bufsize=160000 / vbv-init=0.9 / crf-max=0.0 / crf-min=0.0 / ipratio=1.40 / pbratio=1.30 / aq-mode=1 / aq-strength=1.00 / cutree / zone-count=0 / no-strict-cbr / qg-size=32 / no-rc-grain / qpmax=69 / qpmin=0 / no-const-vbv / sar=1 / overscan=0 / videoformat=5 / range=0 / colorprim=2 / transfer=2 / colormatrix=2 / chromaloc=0 / display-window=0 / max-cll=0,0 / min-luma=0 / max-luma=1023 / log2-max-poc-lsb=8 / vui-timing-info / vui-hrd-info / slices=1 / opt-qp-pps / opt-ref-list-length-pps / no-multi-pass-opt-rps / scenecut-bias=0.05 / no-opt-cu-delta-qp / no-aq-motion / no-hdr / no-hdr-opt / no-dhdr10-opt / no-idr-recovery-sei / analysis-reuse-level=5 / scale-factor=0 / refine-intra=0 / refine-inter=0 / refine-mv=0 / refine-ctu-distortion=0 / no-limit-sao / ctu-info=0 / no-lowpass-dct / refine-analysis-type=0 / copy-pic=1 / max-ausize-factor=1.0 / no-dynamic-refine / no-single-sei / no-hevc-aq / qp-adaptation-range=1.009 o( |3 I6 K; i6 D8 r" I0 f
Default                                  : Yes
) U+ P- ?% F& D5 fForced                                   : No' w2 R) n) ]  C3 x
- ?/ P  X; D; K8 F8 c$ D1 h
Audio #1
+ L% m! R( ^8 a  N$ M8 q4 ?ID                                       : 2
2 p  p! L7 Z4 d$ z! J- p" F0 XFormat                                   : DTS XLL X
' V. m! o$ Q7 oFormat/Info                              : Digital Theater Systems- c, [  o$ P/ E+ n
Commercial name                          : DTS-HD Master Audio
4 u+ a. Q& n% ]Codec ID                                 : A_DTS+ f# Q8 a" P0 L9 x
Duration                                 : 2 h 0 min
! ~3 A4 u) k! _Bit rate mode                            : Variable' \7 C( R' l% q9 U8 h4 W8 J
Bit rate                                 : 5 998 kb/s
) j. V& E1 n* d8 K$ ~0 @6 K& AChannel(s)                               : 8 channels
5 A$ z( L) H  P3 k) [( h3 vChannel(s)_Original                      : Object Based
4 W6 F$ D+ P6 V7 w. \* iChannel layout                           : Object Based1 f2 y; H- C, t" [0 D
Sampling rate                            : 48.0 kHz
& K* ^& q4 I  QFrame rate                               : 93.750 FPS (512 SPF)
5 d! z/ z; n8 q3 I* U' ?* yBit depth                                : 24 bits: a' T& a+ E, w# Q
Stream size                              : 5.06 GiB (13%)4 K  i- R. m- F" n1 k) H0 u
Title                                    : Hot.Fuzz.2007.2160p.BluRaycd.x265.10bit.SDR.DTS-X.7.1-SWTYBLZ( }+ n2 i9 I( j3 D5 ]6 ]
Language                                 : English
$ K0 V: q$ G; L) u2 S" ~Default                                  : Yes! B7 y8 Q. e+ i* b# _4 K& d
Forced                                   : No
; W- a0 P1 a6 ?- i7 L  p/ l2 D# i, U- Q
Audio #2
% M" I4 z  v/ K7 h' i: h, wID                                       : 3
. N1 f, c" H; T* CFormat                                   : AC-3% M( n7 O3 I7 z) u# u" p, z
Format/Info                              : Audio Coding 3" U/ n& o) {: X7 @+ V# @  s. P: q9 P
Commercial name                          : Dolby Digital
+ }' K; D+ m* J( j9 `; SCodec ID                                 : A_AC3, T1 \1 F" X5 W! f' W1 p+ L0 ]4 a
Duration                                 : 2 h 0 min9 R- n3 o% n6 P4 |
Bit rate mode                            : Constant0 G2 r2 c  w1 z
Bit rate                                 : 640 kb/s
+ z3 J- [. Z5 V) DChannel(s)                               : 6 channels4 A" X3 ?$ ^# C! ^. l, W
Channel layout                           : L R C LFE Ls Rs- X, G0 [( Z$ z7 K4 U6 H: o! x
Sampling rate                            : 48.0 kHz
) ^. O/ L) J1 ?' c) |6 ^Frame rate                               : 31.250 FPS (1536 SPF)
5 U# H- t5 a6 t) T" ~Bit depth                                : 16 bits
0 W4 x! p+ r; ~Compression mode                         : Lossy4 s  w# t) L! V+ {- M9 o- m9 W5 E
Stream size                              : 553 MiB (1%)7 i( |; d) l( h& E$ I( L
Title                                    : Hot.Fuzz.2007.2160p.BluRaycd.x265.10bit.SDR.DTS-X.7.1-SWTYBLZ( z9 m3 \: A# J; K6 N; _4 x9 ]
Language                                 : English
& A, X  d; M: {3 t0 |Service kind                             : Complete Main& X7 n) z6 v( H! N/ L
Default                                  : No: y6 @, N$ d; J) o6 J# y0 X" J) D0 U
Forced                                   : No
% m0 `! _# N5 p  F1 F
; x: L! X$ Y( J5 Z. w; ?Text #1
4 s) G; t6 I. h* }5 [0 f  vID                                       : 4
+ a/ @' E4 Y3 ~  J( VFormat                                   : UTF-8" M) g/ s2 N5 G# a- b: K6 I
Codec ID                                 : S_TEXT/UTF8
  |& T9 P8 N5 m" `& y: i8 G9 jCodec ID/Info                            : UTF-8 Plain Text- |1 Q" |2 \! k  ?' ~( ~% l! U
Duration                                 : 1 h 54 min
; O" g- V+ U* \7 E4 D: z8 J# ^Bit rate                                 : 71 b/s
' q8 r. I( _5 W* i# ]# }. V5 cCount of elements                        : 1867
. {+ }6 h% L7 Q5 U/ I& AStream size                              : 59.7 KiB (0%)$ V' u& ~% v, H4 \, ]) B
Title                                    : English-SRT
0 u5 H& C" ~2 i  d; [Language                                 : English
( x9 @! z/ T4 m4 CDefault                                  : Yes% n3 K  K* l* d& Y! g7 a/ ?& X
Forced                                   : No/ v4 v( I+ W" r2 p! g

9 t+ u2 v9 E$ s6 ]Text #2
9 P1 s- y0 S7 o5 iID                                       : 5
2 l  @6 `0 q5 O& ?* b7 W; a) fFormat                                   : PGS
: q1 j9 p5 k/ b0 j8 _Muxing mode                              : zlib
' Z1 Y! h# p7 A- [Codec ID                                 : S_HDMV/PGS( S5 Y9 A' z( J/ @6 P
Codec ID/Info                            : Picture based subtitle format used on BDs/HD-DVDs
% g" |* q/ p3 I$ i4 g/ |Duration                                 : 1 h 55 min  a" t( {' l& b8 _$ G
Bit rate                                 : 49.2 kb/s3 z% H6 H2 V3 P7 P! z1 `% q& y
Count of elements                        : 4062
+ t0 [. W2 b1 @1 r' ?7 B( A/ o8 NStream size                              : 40.5 MiB (0%)
# D: I6 w! K6 kTitle                                    : English-SDH-PGS7 j7 i8 Y6 b/ [; m& R$ Y
Language                                 : English- v4 ~& u. s2 a$ w+ M
Default                                  : No
0 ^6 E7 i3 k: H6 _6 }Forced                                   : No
7 f" w* S  x: O) O
8 }6 Y, e$ [! x( r+ n5 KText #31 [5 q! y0 i; _) f# @/ U
ID                                       : 60 ^$ Y  v4 S5 a( N( M; G
Format                                   : PGS
1 ^9 `5 A  Q% i: g* dMuxing mode                              : zlib
/ Z) S$ W  P, Y/ C" V( {Codec ID                                 : S_HDMV/PGS
6 Z0 p/ N4 H  ^! ^: a3 a3 }5 F* dCodec ID/Info                            : Picture based subtitle format used on BDs/HD-DVDs. X/ I7 E! R9 P6 \! Q- Y* }
Duration                                 : 1 h 59 min7 S! ~2 d2 A# u
Bit rate                                 : 32.7 kb/s- t$ M$ L- t" i) ?1 t' f
Count of elements                        : 2876, I7 X0 W% q; j0 a; m
Stream size                              : 28.0 MiB (0%)
" x. x) I$ _. uTitle                                    : French-PGS" r; Z' H+ W( p+ |2 b% @+ t: `# f
Language                                 : French
9 t; a% T8 ~, x2 l( N3 {% [: zDefault                                  : No
! ^$ h. Q3 b& o6 ~' `Forced                                   : No/ I& W/ |- g4 M( `! @

0 D, n* P/ E4 \- G/ tText #4, c) g" m. p) k' M6 C; w" k
ID                                       : 7
4 f/ h; r% M/ d. ~& Y+ d' tFormat                                   : PGS
2 ?, S% K) Z' P& C3 }Muxing mode                              : zlib5 U2 Z& i/ R% l4 a
Codec ID                                 : S_HDMV/PGS
; S- G% B/ q. W, hCodec ID/Info                            : Picture based subtitle format used on BDs/HD-DVDs" @$ A3 p5 L: u! l2 f6 v. ^, O
Duration                                 : 1 h 54 min0 `# V( {7 m- j( t, A; k9 n1 ^
Bit rate                                 : 29.5 kb/s' G. S: s! s" i0 u2 p$ t# b
Count of elements                        : 3276
3 T9 Y% o8 w- q3 S8 M( C( e' TStream size                              : 24.1 MiB (0%)+ s# q  Q7 r' Q- P' `6 P' P3 R
Title                                    : Japanese-PGS
+ M# T  _- L. M- P9 I6 D: T- j$ s+ tLanguage                                 : Japanese' I! m4 ?8 u; @% {9 \. N
Default                                  : No
8 y- D) q# k, o8 I& YForced                                   : No
8 c2 K4 f( i" K" b0 m- ~7 y# D4 y; K- L
Text #5" z+ x# i9 X- q
ID                                       : 8
3 u, J# Z( e8 a) w- c. p8 |( I5 W5 k/ BFormat                                   : PGS
$ Q+ r+ V7 S3 Y- ^Muxing mode                              : zlib
( F1 B: J) e6 E0 |3 |+ \Codec ID                                 : S_HDMV/PGS
3 \3 ]  g% X8 O1 ^8 x- M: Z. DCodec ID/Info                            : Picture based subtitle format used on BDs/HD-DVDs  r1 a% b# X, q+ |0 J4 Y1 P5 d
Duration                                 : 1 h 59 min3 M/ M" P& N( b- g; ^, r+ O0 O+ O
Bit rate                                 : 41.2 kb/s
+ [/ g. B/ K1 p0 ?2 TCount of elements                        : 3112
' V& m* w8 q9 x2 _3 J9 b2 j4 z9 CStream size                              : 35.3 MiB (0%)# r+ D7 d4 l$ y2 E4 }6 G* t' \" p
Title                                    : Portuguese-PGS
$ i( e. Q! a, u  t% m( Y3 R' [Language                                 : Portuguese
7 M$ A5 Z3 @( `1 `9 o0 ADefault                                  : No+ a. H: x5 C! A  U" A5 u- f
Forced                                   : No0 i- q8 H. N/ [2 `0 K, M

$ q4 V$ K3 ~  _/ M# IText #6
% D6 _+ S9 k  H7 XID                                       : 9$ p( f7 N  z' }- Q+ L6 P5 P2 V
Format                                   : PGS
, X# v& r* U( \' r- K5 L; GMuxing mode                              : zlib
1 f% e* C8 D2 j! k+ l6 O" dCodec ID                                 : S_HDMV/PGS6 m) I+ H5 j* [( L: u
Codec ID/Info                            : Picture based subtitle format used on BDs/HD-DVDs
+ L) Z/ T  h; HDuration                                 : 1 h 59 min
" H, O8 ^% S! s; i1 w3 T2 BBit rate                                 : 41.7 kb/s
+ p" ~; H2 [( d. V% \) y8 ]Count of elements                        : 3110
" K) K3 |5 [' \7 rStream size                              : 35.7 MiB (0%)
( @! V* U' H* `* B" _' x" dTitle                                    : Spanish-PGS% D' L* I, A. D3 t0 D7 _8 ?0 M
Language                                 : Spanish
7 p, t- s5 k. d+ r7 \Default                                  : No: U( f: J5 R0 ]& \8 M/ x# a' r" T
Forced                                   : No: i: i3 }: ]4 V" O( N0 X/ P8 ?

& @. W1 T2 n1 E2 q, i; Z4 ~Menu
* U& }6 v7 i& I# F+ _5 e9 N* h00:00:00.000                             : en:Chapter 01
, g; @- ]# l) e( f2 L4 H# S$ p00:02:25.937                             : en:Chapter 02' a9 Y; `4 `1 N& c
00:05:23.197                             : en:Chapter 03  i* v& \: ?$ l- u5 Q5 Q
00:07:15.435                             : en:Chapter 04( p' `8 J$ ^/ O( ~- @( L/ ]( ^
00:12:09.770                             : en:Chapter 052 |7 g5 Q; z0 G
00:14:07.304                             : en:Chapter 06& K$ u. R( g* q) |, L+ N7 f! j+ `% z6 G
00:21:38.964                             : en:Chapter 07  `1 K* f, n( @5 r( ]
00:25:47.587                             : en:Chapter 08
! |  r$ J8 X% T00:28:46.349                             : en:Chapter 09- Z" ?( _% r" X. l# v
00:32:08.217                             : en:Chapter 10
4 f1 Q$ {# v$ y+ w0 E00:35:27.416                             : en:Chapter 11
9 \, P- w' F( P$ o00:39:07.636                             : en:Chapter 12
# g/ Z, B5 f, E7 b00:42:11.862                             : en:Chapter 13. a, B' F& O7 ^+ ?' ]7 t; k; f% Z
00:44:55.651                             : en:Chapter 148 i. D' m. ?' t+ u! @0 l2 L5 I
00:49:26.630                             : en:Chapter 15
1 ~, ]' H  k% v* y, M00:54:58.295                             : en:Chapter 16
; J9 e* ?' ^+ h1 i: N: p  h01:01:44.951                             : en:Chapter 17
! I- J, y2 D9 o) B5 d01:09:24.285                             : en:Chapter 18, t& {+ ]% K6 I5 ~. j+ Y
01:16:58.572                             : en:Chapter 19
: L, Z# }  p, L" E: K4 W5 h01:19:14.791                             : en:Chapter 20
/ C: `/ e3 [% u1 j* t% Q" H01:28:59.208                             : en:Chapter 215 B. e" \+ ?9 k2 A
01:31:40.119                             : en:Chapter 22
' L3 R. F" \0 n01:41:13.525                             : en:Chapter 238 I$ w# ^6 m8 ]' J
01:45:30.407                             : en:Chapter 24
7 h; w( @) }0 U: S; c6 [) v01:50:49.017                             : en:Chapter 25
& h1 l% z% [& S, z. h& ~- J9 F- S, p01:52:01.840                             : en:Chapter 26
- u7 O  o5 I) }' h6 Q01:53:54.410                             : en:Chapter 27- G6 V8 m. h9 k
01:55:14.449                             : en:Chapter 28
SWEATY BALLZ presents
& N; W. b: W7 X8 ?7 h& s+ V, s6 ~5 U$ F( l9 f. `# L/ }
Hot.Fuzz.2007.2160p.BluRaycd.x264.8bit.SDR.DTS-X.7.1-SWTYBLZ
3 r5 x* ?( v/ n9 f5 j7 A2 gConverted from 10 bit HDR to 8 bit SDR using tripple mixed Hable-Reinhard-JJ per scene+frame analysis algorithm( s# Q  c& C, Z6 \; G# t' Q2 J4 f0 m

4 g+ b4 ?% v+ a  C2 ?Video
& {* n5 w! ]0 R5 g1 \/ M3 ZID                                       : 1' F* \& W6 s! ], J8 r9 B. y" i
Format                                   : AVC# M5 I  ~8 W8 x
Format/Info                              : Advanced Video Codec# q$ \0 u+ C/ d/ ^& G3 I/ X
Format profile                           : High@L5.1
9 l# y# \$ c; {1 @  U+ e0 T) m# VFormat settings                          : CABAC / 5 Ref Frames
* N0 a& c3 J- ?Format settings, CABAC                   : Yes; P- U# ~$ |- _7 m: r
Format settings, Reference frames        : 5 frames- X; M$ O0 v- s/ }
Codec ID                                 : V_MPEG4/ISO/AVC
. ?" V7 S0 ^6 k2 t4 H/ o0 YDuration                                 : 2 h 0 min$ ], C# b, T* w! f# Q& I- c; X
Bit rate                                 : 46.4 Mb/s; G" M4 l" X6 [1 z/ x2 N
Width                                    : 3 840 pixels
: W/ ~" m1 y" e5 I9 @, h( J6 s6 LHeight                                   : 1 634 pixels6 t" t, @) G0 Q3 f" F  i
Display aspect ratio                     : 2.35:1
  _8 B% i6 U5 U8 ~7 wFrame rate mode                          : Constant
: D( n) W9 c, m. _8 u# m  ~* z# ?Frame rate                               : 23.976 (24000/1001/37687) FPS' t' A6 s1 L7 f2 f' ^8 u& U
Color space                              : YUV$ T$ J$ s  \7 g
Chroma subsampling                       : 4:2:0
6 M8 K% X; ^# G# TBit depth                                : 8 bits8 j! x$ S. O% y8 t3 W: Z, l, z) P  Q
Scan type                                : Progressive
0 G9 L* {' f; o, F* |Bits/(Pixel*Frame)                       : 0.308
. z: ?# Y2 [( s  I% Y3 R+ a8 c6 UStream size                              : 39.1 GiB (87%)
+ x6 b& a6 j% K; P. L8 [Title                                    : Hot.Fuzz.2007.2160p.BluRaycd.x264.8bit.SDR.DTS-X.7.1-SWTYBLZ  h+ E" y7 c+ [* [: O
Writing library                          : x264 core 157 r2935 545de2f( w" f! X5 k$ z9 N
Encoding settings                        : cabac=1 / ref=5 / deblock=1:-1:-1 / analyse=0x3:0x113 / me=umh / subme=10 / psy=1 / psy_rd=1.00:0.15 / mixed_ref=1 / me_range=48 / chroma_me=1 / trellis=2 / 8x8dct=1 / cqm=0 / deadzone=21,11 / fast_pskip=1 / chroma_qp_offset=-3 / threads=51 / lookahead_threads=4 / sliced_threads=0 / nr=0 / decimate=0 / interlaced=0 / bluray_compat=0 / constrained_intra=0 / bframes=3 / b_pyramid=2 / b_adapt=2 / b_bias=0 / direct=3 / weightb=1 / open_gop=0 / weightp=2 / keyint=250 / keyint_min=23 / scenecut=40 / intra_refresh=0 / rc_lookahead=50 / rc=crf / mbtree=1 / crf=18.0 / qcomp=0.60 / qpmin=0 / qpmax=69 / qpstep=4 / ip_ratio=1.40 / aq=1:1.00
" g( ]" m% }" D: E6 dDefault                                  : Yes
  F' T/ \9 O; ]3 v; x* VForced                                   : No- y$ `6 S" f$ {1 e" ~- r# ^; G" d
9 }/ r/ g, m4 y$ N! [7 w
Audio #1
3 s4 `  v& K1 n6 v2 N2 QID                                       : 2
7 J( M1 m& O: @0 X! ~/ D& C  yFormat                                   : DTS XLL X+ }- `4 Q% c, E) r
Format/Info                              : Digital Theater Systems
+ L% w6 b7 O/ D: t: ^/ WCommercial name                          : DTS-HD Master Audio
; u( B3 k4 Q3 gCodec ID                                 : A_DTS5 F" O( A7 j; B2 ]( @6 o" s
Duration                                 : 2 h 0 min6 t, E' c7 b6 ?4 }: O+ v6 g) a' V
Bit rate mode                            : Variable
8 G. V; x% V, B3 J6 N. A; YBit rate                                 : 5 998 kb/s
! a3 {, D7 U! r5 J/ q7 \: \9 gChannel(s)                               : 8 channels6 ~2 \0 d2 F) W- t( ~+ A# D  K
Channel(s)_Original                      : Object Based
0 D9 A: D' z2 D" [, J0 G6 nChannel layout                           : Object Based: k+ o$ m4 }& J$ X  M$ z2 M1 k
Sampling rate                            : 48.0 kHz
% M: ~; u, Y* b, v* ZFrame rate                               : 93.750 FPS (512 SPF)
, B/ F$ C8 p' e5 q! cBit depth                                : 24 bits
- t( |0 G' Q: C5 I2 O: DStream size                              : 5.06 GiB (11%); X% n9 @7 |8 q$ d
Title                                    : Hot.Fuzz.2007.2160p.BluRaycd.x264.8bit.SDR.DTS-X.7.1-SWTYBLZ
) i( z! A) v( V& d  o5 G6 ULanguage                                 : English
# E+ y7 Q. M8 tDefault                                  : Yes: A* }3 f  r. b! p. Q8 j
Forced                                   : No
& ~- t0 _: K0 F. X( D" z. u; D# G+ B% L" g4 D/ e
Audio #2
! e' b8 P8 ]3 _ID                                       : 3
" N+ a# l5 p% ]. x8 S1 N9 XFormat                                   : AC-3
7 C" ~: l' d( E  s  j# iFormat/Info                              : Audio Coding 35 [( w9 h3 }5 o: y0 ], S5 u& m) _" C
Commercial name                          : Dolby Digital
3 S. y7 `& S6 ACodec ID                                 : A_AC3) ~8 F" m, I! \, E/ W
Duration                                 : 2 h 0 min
$ c4 {  ^4 _# p- tBit rate mode                            : Constant
' ]3 b2 k9 b' U% Y* I) W* `4 yBit rate                                 : 640 kb/s( r2 l3 H# B4 @% a2 R0 j
Channel(s)                               : 6 channels
4 l% k) P  r; ?& W" W% xChannel layout                           : L R C LFE Ls Rs  y9 \; ^( }8 x& w& p- e. d
Sampling rate                            : 48.0 kHz
' \5 `( b  B  E6 m2 RFrame rate                               : 31.250 FPS (1536 SPF)
0 _$ L$ m8 k0 A. ?6 u9 ABit depth                                : 16 bits
0 c: w# Y& U% O( n, m% jCompression mode                         : Lossy5 Y6 a, m- l) J' U1 B
Stream size                              : 553 MiB (1%)3 o4 f2 k1 \0 E: s. L  z$ D5 f( Y' t
Title                                    : Hot.Fuzz.2007.2160p.BluRaycd.x264.8bit.SDR.DTS-X.7.1-SWTYBLZ/ `' s) D% N% w( |! z6 R4 P
Language                                 : English
9 {$ m: M  n# H4 z' d3 D+ u' i3 n) eService kind                             : Complete Main( O/ g% i- |: u5 b& P
Default                                  : No4 S& p. o7 C5 H5 B/ x+ E% b
Forced                                   : No( |$ a" Y/ o7 O. k( Z
& T8 K: _) U& t+ j+ h& _$ `$ e' P
Text #1
( U1 C3 ?3 N2 z0 cID                                       : 4
% e9 W  h, s" r  y& DFormat                                   : UTF-8
. @0 V& D% g1 r/ ]5 z$ z, yCodec ID                                 : S_TEXT/UTF8
3 X& S3 k  _0 k1 \Codec ID/Info                            : UTF-8 Plain Text$ k+ c! k5 ~* s: |
Duration                                 : 1 h 54 min: _, h3 t& b4 y8 a" O6 ^5 r2 y. X
Bit rate                                 : 71 b/s- Q. l9 w5 L6 T$ T, a9 d
Count of elements                        : 1867
" p( I$ A7 k" w' a/ I* S! @& Q: R, Z& FStream size                              : 59.7 KiB (0%)
. D& ?: ?/ q9 U( @Title                                    : English-SRT# y# z+ b  I: v# t$ k" h
Language                                 : English
* c$ ^( Q0 F7 e: FDefault                                  : Yes: e' [6 J$ K8 u; o( l+ g$ d- ~9 N
Forced                                   : No' n8 v) s4 @2 _) W% E0 \
6 }: C1 n" S- u; o: i  H6 `8 `; P
Text #2
' d$ y$ Q4 Z/ k" |; p! C' _ID                                       : 58 c4 {2 r9 ?  \( C, m% C
Format                                   : PGS
5 K6 g& E- |9 a- D) D7 g* t6 `Muxing mode                              : zlib, y- N9 e8 B" X+ Q$ G1 v* T
Codec ID                                 : S_HDMV/PGS" G, j% g3 {/ t" o3 W
Codec ID/Info                            : Picture based subtitle format used on BDs/HD-DVDs  |+ ^/ \& b# Z5 Z% L
Duration                                 : 1 h 55 min
% V9 K+ o1 b# [; T' P: U" wBit rate                                 : 49.2 kb/s6 E: Y1 H6 E9 H: G+ G* d( y
Count of elements                        : 4062
0 y" s  c& W( xStream size                              : 40.5 MiB (0%)
: d: {9 E( C1 @; e$ wTitle                                    : English-SDH-PGS' B6 ^! D- C3 i6 ~* M# D) Y9 Q
Language                                 : English1 k* S! r) T* `5 e
Default                                  : No
& t; L5 ^# Y7 c* iForced                                   : No( s: Y! b# L' a( [* m0 }
: ^; b6 P# t& t( g" B/ M( ]
Text #33 Q1 [+ N0 I! `# T
ID                                       : 6
, q" Y, G; B& N* b; N% ^Format                                   : PGS& ^( \, e3 q, z. L
Muxing mode                              : zlib' S  U; A0 |6 T( I
Codec ID                                 : S_HDMV/PGS/ P  g: P& V+ W
Codec ID/Info                            : Picture based subtitle format used on BDs/HD-DVDs* s% G0 \: {' J) _8 Y
Duration                                 : 1 h 59 min" W) U7 `6 s2 j( |; a. I, m
Bit rate                                 : 32.7 kb/s
+ f" T, d3 `6 \6 B/ WCount of elements                        : 2876
2 C0 h% x7 E6 ^( tStream size                              : 28.0 MiB (0%)
) l4 i/ _, Z, }/ OTitle                                    : French-PGS
1 n0 z) s: ^/ F& [5 V5 ?Language                                 : French7 P" q: T4 a2 @; v' O" N  H
Default                                  : No
  a5 o. \7 L7 R$ W: kForced                                   : No
6 O2 ]1 ~9 e0 B8 e$ C
# ?* c7 M7 _( v. x2 l% p6 QText #4
$ L3 m( B3 h0 U7 kID                                       : 7, U* H' s7 }' _) t
Format                                   : PGS6 e# A4 ^& h+ `
Muxing mode                              : zlib9 a+ `- V( Z7 P( ?2 W2 l! ]+ ^
Codec ID                                 : S_HDMV/PGS( ^3 ]! c9 W  Z/ L7 @- v5 V2 h
Codec ID/Info                            : Picture based subtitle format used on BDs/HD-DVDs3 n; X, e9 F+ O+ G$ ]: H, R
Duration                                 : 1 h 54 min* j7 C% R0 ~, y0 p/ H0 L
Bit rate                                 : 29.5 kb/s; o) ^% j, Z( ^5 v6 r3 ?
Count of elements                        : 3276$ g& y: h; a* D9 c3 T8 m6 E
Stream size                              : 24.1 MiB (0%)2 `* e- k. [2 v3 `2 n# e
Title                                    : Japanese-PGS1 N: O5 i) O$ c% a# n6 n
Language                                 : Japanese
- S+ r' n  J+ T7 @# nDefault                                  : No+ C  Q4 W6 U) ~* X( B
Forced                                   : No
- D5 F2 U. N7 }; n7 C5 e/ h. S  F. ^% @
Text #5
( w7 _. o* y. U1 h8 p; ^ID                                       : 8
+ X9 E/ [6 F" T, t  i! dFormat                                   : PGS
% V5 m+ n! [, Y2 BMuxing mode                              : zlib" w( R# d' V* m( ^* w+ d6 T
Codec ID                                 : S_HDMV/PGS5 n$ {" k4 ^% }7 E6 s$ U
Codec ID/Info                            : Picture based subtitle format used on BDs/HD-DVDs$ @4 i% z$ T) d2 \
Duration                                 : 1 h 59 min. o# q  X. A2 `% C$ n5 k
Bit rate                                 : 41.2 kb/s
* |+ l0 |5 l8 G( N% d% ZCount of elements                        : 3112
; r; U! T6 l2 D/ @- C+ H. b$ kStream size                              : 35.3 MiB (0%)- y$ W) X  V7 |, T9 z
Title                                    : Portuguese-PGS2 c8 g6 i( h6 i, @
Language                                 : Portuguese
4 K. r( j% C* S; O2 a( q7 u5 ^Default                                  : No
, t: e  }) x( t* t6 K  O& a$ t! VForced                                   : No
' c( R3 k0 \; V- q" k5 @" y
" a: |! L5 O" n( ]: E1 VText #6
, P- x. U0 ?$ t3 b+ `ID                                       : 9
, @. p" u+ O6 kFormat                                   : PGS& P; ~, p3 S! s9 O. |7 W
Muxing mode                              : zlib
4 O  w- ~" m6 H/ L% i* o* gCodec ID                                 : S_HDMV/PGS  g! M! g* [! D6 C, E" f
Codec ID/Info                            : Picture based subtitle format used on BDs/HD-DVDs+ Z6 H) }! V" f: ^
Duration                                 : 1 h 59 min
# E0 m: Z' M. gBit rate                                 : 41.7 kb/s
- Z# Y, Q3 r8 L, N6 |8 i1 h6 ACount of elements                        : 3110
& N; I3 j! A9 k  O/ O& D5 pStream size                              : 35.7 MiB (0%). b4 h$ Z) O* f+ h) d1 c" e) m9 Y
Title                                    : Spanish-PGS9 w) _' j% U# o- A* E
Language                                 : Spanish
$ B! H4 S3 S# TDefault                                  : No
0 k' V( l8 N- v9 Y* b4 q- RForced                                   : No
5 W6 X# ?7 p6 D/ h
3 W0 K5 X& w! G/ IMenu$ |% i- p4 p6 v3 U
00:00:00.000                             : en:Chapter 011 O- z9 d3 ?5 ]0 y0 u7 I% R
00:02:25.937                             : en:Chapter 02" s( k, |, U* b  t
00:05:23.197                             : en:Chapter 03
- R( P+ R8 c) `9 p: w% Q* O5 P. @3 I00:07:15.435                             : en:Chapter 04
* s; r) E8 `- P( G; o00:12:09.770                             : en:Chapter 05) d# q* D% {4 O3 ?  X0 \" @
00:14:07.304                             : en:Chapter 06# ?2 E9 _& m# {. l' z
00:21:38.964                             : en:Chapter 07/ Y: R7 X# \6 h  X: c& x6 S
00:25:47.587                             : en:Chapter 08, Q7 L" t0 ~3 Q; W. R: a
00:28:46.349                             : en:Chapter 09
  E2 k$ K0 W. M0 H00:32:08.217                             : en:Chapter 102 A2 F; B# h+ b5 O
00:35:27.416                             : en:Chapter 115 |) W3 k+ c0 y
00:39:07.636                             : en:Chapter 129 g' c5 m* S- x! }5 a, j5 f
00:42:11.862                             : en:Chapter 13
8 w" F1 W- J0 ]/ R/ G- S" m0 g+ V00:44:55.651                             : en:Chapter 14- i; P- V0 A. e; W5 R
00:49:26.630                             : en:Chapter 15, V& b$ X. I+ w& [' ?1 O
00:54:58.295                             : en:Chapter 16, E# a% ~/ A0 r: [0 d
01:01:44.951                             : en:Chapter 17" V" r/ v& G) j
01:09:24.285                             : en:Chapter 18
( i3 c, K9 j6 I. e" R$ c9 O# Q- s3 i01:16:58.572                             : en:Chapter 19
5 ~3 I4 t. s: c01:19:14.791                             : en:Chapter 20& n8 h2 ]' y% F' R# M
01:28:59.208                             : en:Chapter 21
; X( |. A( G8 Q# h" f- y9 O2 f& q01:31:40.119                             : en:Chapter 22( b: e4 p# y1 d, O( [2 i  G2 j* [1 m
01:41:13.525                             : en:Chapter 23
: n# {4 X* u* M01:45:30.407                             : en:Chapter 24; \0 }& W# N- s, P
01:50:49.017                             : en:Chapter 25) U6 v! `& J/ u$ D( K
01:52:01.840                             : en:Chapter 26/ f8 U8 _; v6 I6 X! w4 j9 d
01:53:54.410                             : en:Chapter 27
0 H) |: C7 p. E+ P" W: Y# ?01:55:14.449                             : en:Chapter 28

" c9 J' k( n, o  x) ~
游客,查看本帖隐藏内容请回复 | 加入VIP贵宾组可免积分免回复下载 了解详情 | 还不是会员:点击获取邀请码 Invitation Code

0

主题

651

帖子

3284

积分

Sponsor

金币
31 枚
体力
1901 点
xpg050811 发表于 2020-5-22 13:15:11 | 显示全部楼层
啥也不说了,楼主就是给力!* e: k# b; Z; q6 E- u! ]% [4 j1 s
至少是现在,我一天没有访问蓝光电影论坛就不爽!At least now, my day did not visit the Blu-ray Film Forum on unhappy!6 F. y8 A* E8 M+ D5 E' |+ y

2

主题

137

帖子

757

积分

Sponsor

金币
34 枚
体力
461 点
yunzhongge 发表于 2020-5-22 15:11:56 | 显示全部楼层
不知道好不好看
找新电影 .

2

主题

713

帖子

3242

积分

Sponsor

金币
590 枚
体力
1303 点
tto138 发表于 2020-5-23 20:33:52 | 显示全部楼层
姐顶的不是帖子,是寂寞!( ^0 @+ A; T# g  Z8 h" s8 }
Blu-ray Film Forum: I will always support you!; n9 Q. y' \$ a$ ^# q  n

0

主题

131

帖子

530

积分

Sponsor

金币
12 枚
体力
273 点
90years 发表于 2020-5-23 21:51:13 | 显示全部楼层
欣赏这个片子

本版积分规则

小黑屋|Archiver|蓝光电影资源网

GMT+8, 2020-12-5 12:44

快速回复 返回顶部 返回列表