BluRayCD Forum

 找回密码
 立即注册【分享大片】

QQ登录

只需一步,快速开始

查看: 30|回复: 4
收起左侧

[4K极清电影] 红粉联盟 [4K REMUX无损版 自带国语中字] A League of Their Own 1992 2160p BluRaycd REMUX HEVC DTS-HD MA TrueHD 7.1 Atmos-FGT 74.21GB

[复制链接]

4310

主题

4468

帖子

5万

积分

Post Share

金币
7979 枚
体力
16161 点

卓越贡献勋章

Two sisters join the first female professional baseball league and struggle to help it succeed amidst their own growing rivalry.
% _4 G( b9 I) u7 |' V2 u; _, }& _' f: ]" B3 i1 |3 ^& K# j2 q( G

; I& c0 m/ e! J) F# p" s% x1 u3 l
' d$ w/ a* [- `$ O. ?3 T◎译  名 红粉联盟/女子棒球队/红粉本垒打/骄阳岁月7 V; D9 P( _. k6 B4 F# @( U
◎片  名 A League of Their Own! s3 Q9 @: A( M9 M
◎年  代 1992
8 w3 r' J: N# G, a1 P) c◎产  地 美国9 Q* p1 V/ b6 o- R
◎类  别 剧情/喜剧/运动
, N5 g) D0 a% Z* S0 Z- Z◎语  言 英语
/ `3 g! o5 z& r5 x- s# Z◎上映日期 1992-07-01
; `7 S5 z) R0 U3 O' r: i" p0 M# \◎IMDb评分  7.3/10 from 90,144 users
7 }- v" B6 ~7 ?" D' U% ~◎IMDb链接  https://www.imdb.com/title/tt0104694/5 t% x+ n8 S8 s( t3 l8 |
◎豆瓣评分 7.5/10 from 1,613 users
) F3 a6 }5 |- t- v◎豆瓣链接 https://movie.douban.com/subject/1297127/
1 H" l$ p$ x* v( \! M◎文件格式 x265 + DTS + TrueHD
8 Q( H  k# R# x9 Z8 t( k. C◎视频尺寸 3840 x 2160
- f! J- j! u" M$ W◎文件大小 1DVD 74.21 GiB1 N4 d  \9 O* j* i( s
◎片  长 2 h 7 min
) P, A/ Z" e, ]5 r! Q◎导  演 潘妮·马歇尔 Penny Marshall. i) X3 s+ |% b
◎编  剧 洛维尔·冈茨 Lowell Ganz
9 \! }% X3 ]7 J  V. ^+ C       巴巴卢·曼德尔 Babaloo Mandel
$ y6 _& I" ]" O! x◎主  演 汤姆·汉克斯 Tom Hanks
+ w/ `% ]8 `$ `5 c5 W8 S       吉娜·戴维斯 Geena Davis
' u. x, o7 e; a4 v( E       麦当娜 Madonna
5 E: I( G: j$ r" h$ O! x2 v       比尔·普尔曼 Bill Pullman
! N6 X7 a1 s$ Z8 H% |' a8 ~       大卫·斯特雷泽恩 David Strathairn
" Q# r4 I1 s$ G  D5 [1 c' I9 S( @7 q% M; Y) ^/ C
◎标  签 美国 | TomHanks | 体育 | 励志 | 女性 | 喜剧 | 汤姆·汉克斯 | 美国电影; A3 n7 o, V, _. Q5 Q3 \; Z
, p& F0 V, \& K6 X9 j$ `
◎简  介  : B+ E- _* J+ j: R$ @5 Z, X

1 \9 Y$ W( ?2 @  故事发生在二次世界大战期间,沃尔特(盖瑞·马歇尔 Garry Marshall 饰)是曾经风靡一时的棒球明星,如今,早已屈居二线的他决定组建一支史无前例的女子棒球队。他看重了漂亮高大的多利(吉娜·戴维斯 Geena Davis 饰),多利的妹妹基特(罗莉·佩蒂 Lori Petty 饰)也跟随着姐姐的脚步加入了球队。: g- E" z" O  H& g) ?% L0 G. c" o
) N/ N$ z8 J4 t1 P7 _" y
  之后,马拉(梅根·卡瓦纳芙 Megan Cavanagh 饰)等一干得力干将的加入让球队的实力瞬间增强,在几次挫折之后,沃尔特的“娘子军”逐渐得到了体育界的认可。可是,就在这样的关键时刻,棒球队里却发生了内讧,马拉和基特离队,沃尔特也产生了放弃的想法。就在这时,多利远赴战场的丈夫鲍勃(比尔·普尔曼 Bill Pullman 饰)的归来让棒球队看到了新的希望。( t+ H- [0 R  i! f5 s  ]3 x9 k

5 i" X/ a( W9 L3 [7 x1 I5 U& v2 d9 P  In a small town in Oregon, farm girls Dottie Hinson and Kit Keller are sisters who compete with each other, even over the little things. With so many young men overseas fighting the Axis, there is a danger that professional baseball will be shut down for the duration of the war. A well-known candy manufacturer, Walter Harvey, contrives the idea to create a professional baseball league for women; both the keep the sport alive and to make a buck or two. Dottie is recruited by a scout for this new league but refuses to go unless her sister is allowed on the team. These women, along with their team-mates, begin a journey that opens up a whole new world, far beyond that of the baseball diamond, lead by team manager, Jimmy Dugan, a washed-up star ruined by alcohol and angered and embarrassed to be the coach of a girl's team.
" F: O/ M: P4 i; t9 U
, [: W, c/ \7 f3 }& r◎获奖情况  
. S9 s8 M" a5 d
3 L8 F% p2 v/ s  x7 r  第16届日本电影学院奖(1993)
# @9 H8 O4 l2 L! b, ~  最佳外语片(提名)/ N( ?3 y7 T  v" n6 g
* J4 P3 s+ R# F* W6 y) I3 i% @( z
  第17届报知映画赏(1992)0 ?9 q7 Q+ L5 M6 p' O2 C# W9 d# Q
  海外作品奖 潘妮·马歇尔1 Z  T1 v# M  [8 W# p3 o& B

  V2 z' l* `' L2 J& \
Video
! C5 x2 a& G" A( q1 ?( q* o; @ID                                       : 1$ A6 k( _9 U4 Q. _
ID in the original source medium         : 4113 (0x1011)" y' ?8 F% U& p& b
Format                                   : HEVC
2 |$ N( Q/ r+ r2 E" P0 C# rFormat/Info                              : High Efficiency Video Coding
1 p( Y/ _: m$ e! ^, g  PFormat profile                           : Main 10@L5.1@High& H8 c2 ?! H( n+ I4 `0 q. ?9 W
HDR format                               : SMPTE ST 2086, HDR10 compatible  n5 n, n- D2 P! ?) z- m
Codec ID                                 : V_MPEGH/ISO/HEVC- Y6 [* L0 L3 k7 r9 ~, }2 A$ v
Duration                                 : 2 h 7 min6 E& P6 {+ v4 [0 h5 R0 Z
Bit rate                                 : 70.6 Mb/s
9 O; \8 L% k& [1 C( t" @; rWidth                                    : 3 840 pixels
; W7 p+ s' @1 N# g/ ^0 C3 MHeight                                   : 2 160 pixels- L' T+ j! d( o9 w! H, y/ g) y  D
Display aspect ratio                     : 16:9
# g# y5 k" C& x8 g5 xFrame rate mode                          : Constant
" t: e+ O" s. L' o7 HFrame rate                               : 23.976 (24000/1001/37687) FPS
# Z. n. W& N: G3 kColor space                              : YUV
0 R; ~6 o: v; c6 ]  ]; [4 S: ]Chroma subsampling                       : 4:2:0 (Type 2): V: u1 k6 w, I5 ]6 q2 _$ V
Bit depth                                : 10 bits, a+ f. }3 x  a* Q
Bits/(Pixel*Frame)                       : 0.3555 Q+ X; j/ @& ?0 c6 L
Stream size                              : 63.1 GiB (85%)8 T5 }* \8 u9 Q1 I
Title                                    : A.League.of.Their.Own.1992.2160p.BluRayCD.REMUX.HEVC.DTS-HD.MA.TrueHD.7.1.Atmos-FGT" z$ T$ x6 |; l" W
Language                                 : English
. j0 M" t! b6 P/ w4 H( e! EDefault                                  : No
, b% s8 E" d0 b# c1 b& P- b! U/ xForced                                   : No, u! ~3 Z- R5 V7 R
Color range                              : Limited
/ {0 I: j  P0 m8 r! ]' V) w/ O. nColor primaries                          : BT.2020
9 T, _; Q- _3 l. G8 Z% I2 KTransfer characteristics                 : PQ( L( d* q% ]4 `
Matrix coefficients                      : BT.2020 non-constant3 q8 N! r& p+ O( A& V, Q6 {0 n. K+ j
Mastering display color primaries        : Display P3$ T0 m5 J1 C' i; C; S0 R( W" X, h
Mastering display luminance              : min: 0.0001 cd/m2, max: 1000 cd/m2
2 a: I( S( T: t: IMaximum Content Light Level              : 1595 cd/m28 k+ ?* q8 y$ }
Maximum Frame-Average Light Level        : 479 cd/m2
6 S: Q3 d/ x/ ]2 |Original source medium                   : Blu-ray7 }$ N- g7 P; u( c* R+ N7 q

, p% Q4 m& i8 B3 J& L5 BAudio #1$ ^: ]. v; G/ j3 t; N8 d$ h1 A
ID                                       : 2, B) i2 i: s6 f  ?1 O) n! C9 w
ID in the original source medium         : 4352 (0x1100)2 s7 C- M6 q6 G, G+ Q
Format                                   : MLP FBA 16-ch4 m7 v: T& ^  e, k6 Q
Format/Info                              : Meridian Lossless Packing FBA with 16-channel presentation9 F, e# Z/ P& L
Commercial name                          : Dolby TrueHD with Dolby Atmos5 ^8 r; I* D" h0 t0 o& {
Codec ID                                 : A_TRUEHD
7 }6 A; g7 |, h3 sDuration                                 : 2 h 7 min8 {( \$ A$ u8 P- G! L; k/ Y
Bit rate mode                            : Variable- j4 i% \4 C$ \: s6 D: d+ }
Bit rate                                 : 3 257 kb/s
3 l$ {- j$ D2 h5 l: A4 @1 c" `+ AMaximum bit rate                         : 4 749 kb/s! A% q# n& N) [. x3 ?9 I
Channel(s)                               : 8 channels
; B2 Z7 B' ~% f( o" GChannel layout                           : L R C LFE Ls Rs Lb Rb
+ b4 @9 U* n( n, JSampling rate                            : 48.0 kHz9 \0 S  o. ?4 K4 I
Frame rate                               : 1 200.000 FPS (40 SPF)
4 ^: d7 o! L, _# }% a0 ^8 Z3 @Compression mode                         : Lossless/ \2 o: Q- K/ U( s* k
Stream size                              : 2.91 GiB (4%). z6 Y; a5 I4 M+ i+ z; w! x! v  R
Title                                    : A.League.of.Their.Own.1992.2160p.BluRaycd.REMUX.HEVC.DTS-HD.MA.TrueHD.7.1.Atmos-FGT0 Y% w7 |- G' B8 y
Language                                 : English) B% T) w; i1 v4 q& l
Default                                  : Yes+ c" q! m! D/ V1 }
Forced                                   : No
5 n/ R3 a# ~( \- Q+ u* d# dOriginal source medium                   : Blu-ray
  b; Q( M, X1 O0 }0 q# ~Number of dynamic objects                : 11
9 ~+ Y0 S0 U0 R7 E  XBed channel count                        : 1 channel2 y$ K! c1 X0 F6 x4 _1 _
Bed channel configuration                : LFE
( Q& }$ p! u8 R; h7 C
3 a' o# k$ }/ s' q  oAudio #2
% o9 t# `$ F. g2 B3 j# nID                                       : 3
$ g+ @! g6 X) c5 oFormat                                   : DTS XLL
* c+ ^8 V$ I9 A+ u$ [1 VFormat/Info                              : Digital Theater Systems" }# @/ |' P- \7 [
Commercial name                          : DTS-HD Master Audio
; o$ R1 ^4 D$ L* U- ^% nCodec ID                                 : A_DTS
2 ~! J3 c5 `' I8 H/ @( b. u3 FDuration                                 : 2 h 7 min3 ?% F# a* a. v9 e' ?# p
Bit rate mode                            : Variable
% n; a2 w( H2 [$ {) s! {; T/ v# VBit rate                                 : 4 349 kb/s# t% l  o; _7 d9 ?
Channel(s)                               : 8 channels' a8 h9 n" E( }* T) T3 X* N
Channel layout                           : C L R LFE Lb Rb Lss Rss
9 k$ [7 l0 F: pSampling rate                            : 48.0 kHz
5 p# K! i$ \  B5 }' _4 Z) T/ t$ MFrame rate                               : 93.750 FPS (512 SPF)
& S/ m' j  \' M2 e2 aBit depth                                : 24 bits
, {: j* d/ W' s; M, F, ~0 `Compression mode                         : Lossless2 j( p1 U; L5 \# O
Stream size                              : 3.89 GiB (5%)
; u8 y: v! X( JTitle                                    : A.League.of.Their.Own.1992.2160p.BluRaycd.REMUX.HEVC.DTS-HD.MA.TrueHD.7.1.Atmos-FGT- u0 E. C/ v- g
Language                                 : English5 n3 E, D9 S9 \  M3 z3 m$ e
Default                                  : No4 ^/ i) c4 u8 ]) W$ m& |. K# D( |
Forced                                   : No: f  s; W+ j. J: a

& ]6 f4 [3 y4 f5 }5 T* ^Audio #3
; s5 F- q' x) m" ^0 o. ~ID                                       : 4
4 x: P5 |0 x  ^# Z6 H: ZID in the original source medium         : 4352 (0x1100)$ S- \. d+ D4 ]
Format                                   : AC-3
3 d1 n/ ~! o; {! w  t  E: WFormat/Info                              : Audio Coding 3
& J- {, ~3 K8 F+ ZCommercial name                          : Dolby Digital
& [# y6 a) U' g! [Codec ID                                 : A_AC3
" u; |  L6 Z3 b. e# @Duration                                 : 2 h 7 min
% o& W; P: l+ hBit rate mode                            : Constant
  ?4 K  `/ ~& N: _# g: N  M5 M9 g7 jBit rate                                 : 640 kb/s
  o" ^6 y4 l7 s+ q9 HChannel(s)                               : 6 channels
2 D5 w/ V1 i& q1 ?+ U8 c4 vChannel layout                           : L R C LFE Ls Rs! K9 ~. n5 x2 L  h
Sampling rate                            : 48.0 kHz6 W5 q  W6 A. H2 u: G: K7 C, t8 [/ Z
Frame rate                               : 31.250 FPS (1536 SPF)! n1 {: S6 Y( B$ R; {
Bit depth                                : 16 bits0 O& q2 k* t2 u, L
Compression mode                         : Lossy
# s2 T8 N8 n! X1 e8 v4 d2 N8 K/ {# _: [Stream size                              : 586 MiB (1%)8 @5 f1 ]3 y4 D5 t3 `" N1 h
Title                                    : A.League.of.Their.Own.1992.2160p.BluRaycd.REMUX.HEVC.DTS-HD.MA.TrueHD.7.1.Atmos-FGT0 q$ t3 n: m6 w& d
Language                                 : English+ Z3 k; g; v9 H# E' q5 N% p. D# i6 `
Service kind                             : Complete Main
4 i  {8 {; T. z; Y( X% v( ~* w+ iDefault                                  : No/ @6 K6 C' n" a6 v" E: k3 c& O6 p2 S" R2 O: ]
Forced                                   : No
; b1 H- N/ {% Y( \' b8 k; c2 h% ^3 JOriginal source medium                   : Blu-ray
$ b6 O5 b* @% L! y2 i7 W" s8 v, R2 C5 r6 w5 L, `
Audio #4  _$ k4 F" x5 S' f' |+ |# a
ID                                       : 5
$ M( z+ W7 s' I4 i5 S4 CID in the original source medium         : 4354 (0x1102)
3 @" y. B  {" O8 J2 o" X7 C9 cFormat                                   : DTS XLL7 f7 _2 x8 `# z7 ~
Format/Info                              : Digital Theater Systems
$ j* @$ J+ p' s2 VCommercial name                          : DTS-HD Master Audio! j+ |" q5 B: d( s% v" ]
Codec ID                                 : A_DTS
" L: W3 ~+ ~4 jDuration                                 : 2 h 7 min
8 b1 D5 ~7 J1 C5 {0 m9 ?, B3 a0 TBit rate mode                            : Variable
+ P  H5 J6 T2 `, GBit rate                                 : 1 561 kb/s
; M& U. [9 G  n. }# R- W1 kChannel(s)                               : 2 channels; B* M9 w# D- U! {
Sampling rate                            : 48.0 kHz
3 c, f- r2 f& S6 [Frame rate                               : 93.750 FPS (512 SPF)/ B% ~0 o/ d- K9 v9 d# F
Bit depth                                : 16 bits3 z& r: Z; [/ j9 d' N
Compression mode                         : Lossless+ I3 V8 ?* N' D! u5 M
Stream size                              : 1.40 GiB (2%)6 m) i! ~( U, T: P9 x7 ~: b
Title                                    : A.League.of.Their.Own.1992.2160p.BluRaycd.REMUX.HEVC.DTS-HD.MA.TrueHD.7.1.Atmos-FGT- P% q, O4 C' B
Language                                 : English
' `% [3 Y( R! w- c% P* Z% f: G' MDefault                                  : No1 ~. t/ s4 B2 O. r9 `8 r
Forced                                   : No
! j9 s) r. F5 d/ N, r; w+ h6 DOriginal source medium                   : Blu-ray) X! k& ~8 f  v8 f

% n+ y- v7 C( vAudio #5
" W' v8 {) q' H! ~6 j4 G0 SID                                       : 6% W4 R# y7 o3 A: A: q. w: _
ID in the original source medium         : 4355 (0x1103)
/ [; u6 Q& u1 BFormat                                   : AC-3
0 G2 W! _. K, L% Z$ ?/ _Format/Info                              : Audio Coding 3& z* j+ @, y! J6 f. _% |
Commercial name                          : Dolby Digital% x  q" Z5 W$ t/ H/ v! M/ N
Codec ID                                 : A_AC3* f9 s: x) i) T, q
Duration                                 : 2 h 7 min0 g% o/ \$ W1 s- Z. d! w0 Y
Bit rate mode                            : Constant" N/ Y7 r2 }+ w) Y0 t+ W0 ]
Bit rate                                 : 192 kb/s* X% ]! T9 y6 O# K2 |" |# e
Channel(s)                               : 2 channels- P: t! G; l5 G# `0 O* r# N
Channel layout                           : L R
2 z. ~. w6 |' B3 H6 Z' YSampling rate                            : 48.0 kHz( [7 l; y1 @3 ~. ?( F5 B! q/ O
Frame rate                               : 31.250 FPS (1536 SPF)
6 |! @' i7 N6 V) M9 q- OBit depth                                : 16 bits
* p9 i9 O: ]9 a# M7 a% z1 ICompression mode                         : Lossy+ C; X4 B6 V* _' K- f3 j4 I0 A
Stream size                              : 176 MiB (0%)
' |* [+ {' o, |  pTitle                                    : A.League.of.Their.Own.1992.2160p.BluRaycd.REMUX.HEVC.DTS-HD.MA.TrueHD.7.1.Atmos-FGT* @# x) A* I1 r; H
Language                                 : Chinese2 `8 e0 G! g+ _: N. [0 X
Service kind                             : Complete Main
* Q2 m5 ^3 y, x$ Z; K: Y# BDefault                                  : No9 x1 F6 v" N& O5 u/ H" o4 c# q
Forced                                   : No
$ A" ]$ l* I3 @  mOriginal source medium                   : Blu-ray
( j: k! v1 i6 E; h+ P! z2 D5 w6 _0 A9 r/ `- B& z6 G( F
Audio #6
, I9 \/ \/ }- N/ _ID                                       : 7
" a& W' i1 G& B) `2 q3 cID in the original source medium         : 4356 (0x1104): i) v" r" p9 a  s, [% d
Format                                   : AC-3& m0 p' \$ z+ u8 U; Q/ W  h3 e
Format/Info                              : Audio Coding 3
. U- H( b5 V) X+ N! ]" KCommercial name                          : Dolby Digital. |# W" a) e" U1 q( y6 K, g7 ?
Codec ID                                 : A_AC3
8 d: Y1 v& V+ gDuration                                 : 2 h 7 min. N# I2 ^+ e0 W( P) u
Bit rate mode                            : Constant" z' T% [! ]2 [6 G3 x3 }2 w
Bit rate                                 : 192 kb/s9 M) o; B6 B+ D; U
Channel(s)                               : 2 channels
, N+ ~* M  G; _: \) m* y$ hChannel layout                           : L R% C2 B; \; O5 [  D1 i
Sampling rate                            : 48.0 kHz
. W2 r0 G/ W$ r( E' MFrame rate                               : 31.250 FPS (1536 SPF)
0 [, v2 o+ n, }5 {! `Bit depth                                : 16 bits
  c; N1 R8 }6 P; l; }) P4 ~- ~Compression mode                         : Lossy/ x9 t0 a# G; i" D( t" B
Stream size                              : 176 MiB (0%)
5 h6 ^( M3 q3 h& tTitle                                    : A.League.of.Their.Own.1992.2160p.BluRaycd.REMUX.HEVC.DTS-HD.MA.TrueHD.7.1.Atmos-FGT
$ i) r/ X) Z4 y2 p1 PLanguage                                 : French
( H7 s0 W+ L- C2 _; \Service kind                             : Complete Main9 m( l! g4 d  W$ i7 g% X1 ]
Default                                  : No
$ T- X  [( R# e9 @9 EForced                                   : No8 c* D4 [9 k# f' v$ h: |. Y$ |* A7 V
Original source medium                   : Blu-ray+ i4 e5 c* A! P4 Q; k( |
" d) z8 |8 B. G6 K* p
Audio #7
3 t% H% z. D4 T) [$ d& Z( ^ID                                       : 8& L# g+ Y4 q/ R2 r8 f- z& ~" m
ID in the original source medium         : 4357 (0x1105)0 Q, j! ?- X; ?
Format                                   : AC-3' a2 D& n' @" c/ [8 c
Format/Info                              : Audio Coding 3
8 `4 d; F- g. q' v0 e/ bCommercial name                          : Dolby Digital
  S/ h2 R, I3 g  R8 k! RCodec ID                                 : A_AC3
4 J+ o0 N0 b! \: ~0 A+ WDuration                                 : 2 h 7 min
+ ]% I# C8 W; p9 Q' Q) qBit rate mode                            : Constant
- B* A2 t4 d* y9 _7 c: O% D4 T2 [Bit rate                                 : 192 kb/s
+ t; {3 S6 i# p" |) fChannel(s)                               : 2 channels6 J8 i( o6 M, M, t0 a, j. \) P
Channel layout                           : L R
; U9 U7 ]+ m* Z& {4 d" wSampling rate                            : 48.0 kHz
' |) t5 V- N+ r3 HFrame rate                               : 31.250 FPS (1536 SPF)8 Y2 S+ k9 L( _& z4 i* D
Bit depth                                : 16 bits$ k* |& j! W6 n
Compression mode                         : Lossy
5 A( n/ M$ O4 m" A+ \9 H' ZStream size                              : 176 MiB (0%)4 j% w# T" f- I: {* \  A
Title                                    : A.League.of.Their.Own.1992.2160p.BluRaycd.REMUX.HEVC.DTS-HD.MA.TrueHD.7.1.Atmos-FGT
. I  K  q8 v+ X' C+ k2 L8 dLanguage                                 : French
2 {4 d9 \6 @4 L  K) dService kind                             : Complete Main
& m6 _* c/ W! pDefault                                  : No: e3 V) O, P9 v$ L0 ~) j
Forced                                   : No, c% t2 g: g$ [! [9 X
Original source medium                   : Blu-ray" l( `9 Z) V0 V1 ~
* J" W, r/ e9 R3 `: o$ [, b
Audio #8
( x9 d6 t9 O8 E2 AID                                       : 9; k! x. O* e8 M" B8 J& D' f
ID in the original source medium         : 4358 (0x1106)
+ m, W$ B! @+ n0 q0 O" {2 hFormat                                   : AC-3
0 q8 t( e3 f# C8 q8 _Format/Info                              : Audio Coding 3. Q' s* q  P& D4 K  p
Commercial name                          : Dolby Digital
7 O7 ~2 ?" I* x  Y" e9 p" W( bCodec ID                                 : A_AC3
# f5 ~; k3 E, q4 w0 y& {" J& v8 hDuration                                 : 2 h 7 min
1 j$ ^, r4 r2 O( e$ yBit rate mode                            : Constant1 [4 r! L1 o% |
Bit rate                                 : 192 kb/s
# K) s7 |1 |# h" `8 |! P: O! dChannel(s)                               : 2 channels
' _9 m, C+ B6 `# FChannel layout                           : L R
/ l& s0 D9 _* W2 JSampling rate                            : 48.0 kHz: _, D9 c: V0 s& u9 U
Frame rate                               : 31.250 FPS (1536 SPF)* k  U4 p: Z& R( B. m
Bit depth                                : 16 bits. N+ L2 B/ E& C5 P7 x" G( {
Compression mode                         : Lossy
; W6 ?$ R* G3 S; w8 L2 c: D+ t) r  FStream size                              : 176 MiB (0%)
9 J# p3 e( s* DTitle                                    : A.League.of.Their.Own.1992.2160p.BluRaycd.REMUX.HEVC.DTS-HD.MA.TrueHD.7.1.Atmos-FGT
3 [6 w7 b/ {2 |' Y& Q) @" `4 v2 ZLanguage                                 : German
/ j* Y. H. O* ^4 ~) ^& V! LService kind                             : Complete Main
9 w7 w* T( c2 u8 zDefault                                  : No
% S1 h3 p# Y$ C) CForced                                   : No% X) Z3 V6 z% X1 j9 X" C! [( O
Original source medium                   : Blu-ray# h$ Y  m: p3 Q* ^( L
' q. b  n8 O" Q$ N& O
Audio #9
, `2 @, d7 r" V( s' VID                                       : 10
& ?2 W+ u2 U2 ?ID in the original source medium         : 4359 (0x1107)3 }! n, e) e; T$ m# V* N( r7 q- `
Format                                   : AC-3
8 F$ n3 C' m. b1 i: j2 ?2 HFormat/Info                              : Audio Coding 38 Z4 {  ?6 j0 d% d; C
Commercial name                          : Dolby Digital& j, S( d6 E% e$ S+ s, Z* @' ~; F
Codec ID                                 : A_AC3
% @6 o, q7 r9 kDuration                                 : 2 h 7 min4 y% l' {4 R) g6 \4 N1 M
Bit rate mode                            : Constant
( q: Y. z# B; ^) R9 p. ]Bit rate                                 : 192 kb/s
$ V3 ~& B" `* V; K( h* qChannel(s)                               : 2 channels
* _0 S4 w6 V4 h% s+ MChannel layout                           : L R, O4 F7 X  c: i/ g7 S
Sampling rate                            : 48.0 kHz
$ V& |2 E5 l5 m5 ?; cFrame rate                               : 31.250 FPS (1536 SPF)
: p% B3 i. D9 sBit depth                                : 16 bits
4 U' s2 K6 J( L2 H  a+ uCompression mode                         : Lossy
" S3 _6 C7 q% W# r3 X3 _6 wStream size                              : 176 MiB (0%)
( k( h; J0 \% G" ETitle                                    : A.League.of.Their.Own.1992.2160p.BluRaycd.REMUX.HEVC.DTS-HD.MA.TrueHD.7.1.Atmos-FGT
. k$ S. w3 _" T1 P; i; nLanguage                                 : Hungarian7 X6 `4 S# N$ c/ @, K
Service kind                             : Complete Main+ w0 v; j/ y- m& H; h5 x
Default                                  : No
4 D* V% A6 m) ]  K0 D" {Forced                                   : No2 M2 d8 ^: ]$ v4 n+ ^2 S
Original source medium                   : Blu-ray
! T  [) \. S% d6 w4 |3 b5 N5 o8 \0 L8 p( c* b! d
Audio #102 N8 s1 Y( I0 b2 J
ID                                       : 114 r! n7 M6 o+ `
ID in the original source medium         : 4360 (0x1108)" J1 h, ?$ v+ z! q% U6 j7 ~
Format                                   : AC-3' r2 a0 K0 W; K& D
Format/Info                              : Audio Coding 3" p# P& q" _9 p% Z
Commercial name                          : Dolby Digital5 t7 D& L7 U$ X, o( p# [; T
Codec ID                                 : A_AC3
" K2 j% }" b$ @; K- X1 i3 }2 ^Duration                                 : 2 h 7 min) Z+ r7 n0 G+ U/ b
Bit rate mode                            : Constant( R; }. q0 M# S  W
Bit rate                                 : 192 kb/s5 ]5 R5 y1 e  v0 z
Channel(s)                               : 2 channels0 O+ z) c6 S. j: I" D
Channel layout                           : L R
) K( t8 C  n) y: VSampling rate                            : 48.0 kHz. D- p4 J5 q8 P6 ?7 d
Frame rate                               : 31.250 FPS (1536 SPF)8 O; w6 r3 @: j' M6 X( G
Bit depth                                : 16 bits: {* b* Z% T7 r  K1 v
Compression mode                         : Lossy
8 ]" v, T# N2 t! EStream size                              : 176 MiB (0%)
# I7 X+ _% X. A/ O5 H2 q9 p3 {Title                                    : A.League.of.Their.Own.1992.2160p.BluRaycd.REMUX.HEVC.DTS-HD.MA.TrueHD.7.1.Atmos-FGT; P) d1 \- H# ~$ y: Q5 N# P, Q; ~
Language                                 : Italian3 V( I  ~+ i7 _( s( S) t
Service kind                             : Complete Main
( I3 ]; @, k! \5 w: W* @1 XDefault                                  : No
$ Y4 k+ @/ b; I- C( H# F; l! JForced                                   : No
0 o& b8 ]; ]; S) N% c8 t+ ^Original source medium                   : Blu-ray( r% ?0 l' S2 x4 ?+ s$ c8 K
4 g. X3 P8 F" ?- f+ f# y6 @
Audio #11, C% t, D9 X9 Y; _% ]9 ^: a4 C# B
ID                                       : 12
! e; l) e+ F$ @$ l5 e, \4 SID in the original source medium         : 4361 (0x1109)
" I6 z0 q5 h$ V3 t8 Y3 F% aFormat                                   : AC-3
. n5 n- O: k5 }# P; G% I* XFormat/Info                              : Audio Coding 35 s( H! z! t5 q  r- ^: J3 A0 k
Commercial name                          : Dolby Digital6 k/ o5 V1 [# M4 I; \' u7 \4 _
Codec ID                                 : A_AC3' V( z$ Q, X8 M" ^
Duration                                 : 2 h 7 min1 }3 n$ P7 o7 Z% H3 Q2 {, a( E% d
Bit rate mode                            : Constant5 Q( o" M5 Y; w* ]; S& e
Bit rate                                 : 192 kb/s
3 j: H/ N8 q5 ?4 k5 v+ cChannel(s)                               : 2 channels* a2 S) p6 V% H8 Q: ^% f5 Q
Channel layout                           : L R
2 k3 h) `$ j( j4 H' oSampling rate                            : 48.0 kHz
& z, @. y: t* r% o6 jFrame rate                               : 31.250 FPS (1536 SPF)1 L8 @% z! o) D. r% T
Bit depth                                : 16 bits
  l8 V+ C1 ]6 l7 f" R, V7 gCompression mode                         : Lossy
( K. V; C0 U4 f# Z' AStream size                              : 176 MiB (0%)
6 |3 v8 Y2 f) H7 V% N$ d% bTitle                                    : A.League.of.Their.Own.1992.2160p.BluRaycd.REMUX.HEVC.DTS-HD.MA.TrueHD.7.1.Atmos-FGT+ [' m1 n  {. E% R2 q
Language                                 : Portuguese( D) j8 v7 s; T! g3 H
Service kind                             : Complete Main7 P2 }0 C  b& |$ A
Default                                  : No
0 g0 \5 i4 `% }Forced                                   : No+ b( }! N" ?, I) u7 U" \7 ~
Original source medium                   : Blu-ray3 U# C' s2 V5 ^. j3 B$ k' _
! J1 z5 o* s5 M& g8 V
Audio #12; f# R, w7 f# v0 }6 O7 t  D
ID                                       : 13
# Y2 S  x1 U/ G; o& DID in the original source medium         : 4362 (0x110A)
9 J, i" x  f8 T+ j! V$ K9 T. ]. IFormat                                   : AC-34 F. w1 \7 p0 N1 r: i7 o
Format/Info                              : Audio Coding 3
1 M# Y# V! c% ?3 dCommercial name                          : Dolby Digital) u2 g9 I6 A+ `7 K/ c
Codec ID                                 : A_AC3
; j9 _' r9 v7 z; F" i  ~Duration                                 : 2 h 7 min
7 `8 [2 ]- }; S8 lBit rate mode                            : Constant
, K4 b/ C% l! v4 r- x* q) Y  J9 j5 ZBit rate                                 : 192 kb/s
6 U$ i1 o# {8 ^Channel(s)                               : 2 channels/ i- x. ~* V6 d! @7 b( {" @8 t) ~4 F1 q
Channel layout                           : L R( k$ [6 @: R0 p6 D# _+ h
Sampling rate                            : 48.0 kHz/ l' {( k  Q7 {, V% ?: m3 l' E+ G
Frame rate                               : 31.250 FPS (1536 SPF)- h3 \# t- d" y6 k3 V$ J& u
Bit depth                                : 16 bits  Z. ]  F" X; l/ g7 W5 U5 }
Compression mode                         : Lossy4 M$ l, d* V6 V. I; W! l
Stream size                              : 176 MiB (0%)4 g# F4 |3 n$ B5 s2 M' f+ b9 d8 P
Title                                    : A.League.of.Their.Own.1992.2160p.BluRaycd.REMUX.HEVC.DTS-HD.MA.TrueHD.7.1.Atmos-FGT; g9 H* E$ D& d" ?
Language                                 : Russian! P3 P" V; X$ j, E0 U7 v4 V2 N
Service kind                             : Complete Main
, _9 g" u: a2 P" b6 W6 ADefault                                  : No- t: x3 j- `7 ]. t$ N9 o9 t
Forced                                   : No6 b( z2 G5 H3 S- p5 M
Original source medium                   : Blu-ray
( h0 L2 r$ W  ?
6 F0 @& u7 Y* N" `  XAudio #13
! H7 L% b0 B) u8 `: nID                                       : 142 W) x8 H! d* Q$ n& y# r
ID in the original source medium         : 4363 (0x110B)
% E5 I: b" W% {& ?/ aFormat                                   : AC-3
" H; v0 y2 `( H& iFormat/Info                              : Audio Coding 3( k; L- q6 W* \( m' p2 F. }7 k
Commercial name                          : Dolby Digital
4 X' U% f( S% p# C1 z/ sCodec ID                                 : A_AC3
2 T- a: s/ j3 `; I8 R) D2 DDuration                                 : 2 h 7 min7 t; o' U( {+ v* Q7 Z$ |& q
Bit rate mode                            : Constant
; Q- y# G0 x( f  QBit rate                                 : 192 kb/s! Y& m" P1 p8 @0 F: @2 `7 |7 V
Channel(s)                               : 2 channels- @3 W' F: x( Q7 w7 L: L
Channel layout                           : L R
3 T# P; O0 b( z4 v0 G) k5 v3 qSampling rate                            : 48.0 kHz. b& N6 t/ {4 A; e4 F: Y
Frame rate                               : 31.250 FPS (1536 SPF); e$ |$ Y% C9 f4 r
Bit depth                                : 16 bits
" _  ]. w+ X- X9 u; b( }Compression mode                         : Lossy
; ^4 |* z9 V* u' x& FStream size                              : 176 MiB (0%)/ K3 L- e( J& h# L
Title                                    : A.League.of.Their.Own.1992.2160p.BluRaycd.REMUX.HEVC.DTS-HD.MA.TrueHD.7.1.Atmos-FGT+ y0 B- j8 ]2 e  M( v, }/ ]' {% R3 v& f
Language                                 : Spanish' g% q# k  I( |7 w
Service kind                             : Complete Main% ~* Z4 F7 q/ X1 o
Default                                  : No1 E* R: \9 t! P5 x/ h, {7 W
Forced                                   : No
' p  d# l( W8 b/ P& s! DOriginal source medium                   : Blu-ray+ X: r6 m9 t% {9 I. u* L
+ ]3 {/ z5 o- o
Audio #14
6 [) G4 V5 c/ D# J: \ID                                       : 15
) X5 T% j* R' e* TID in the original source medium         : 4364 (0x110C)
2 P* Z! K  S. G/ @. OFormat                                   : AC-3' n, p0 e! ?& V# B
Format/Info                              : Audio Coding 3
* f4 f4 w5 i& t" E2 ]8 c% ^Commercial name                          : Dolby Digital
5 x* O% T7 I+ m5 F2 w" b( LCodec ID                                 : A_AC35 [. w. k; u, t( @$ c  s
Duration                                 : 2 h 7 min: {  D$ a, I- \- u$ P, B; D
Bit rate mode                            : Constant
+ u. @! [8 F3 y8 X! y+ t5 PBit rate                                 : 192 kb/s
7 ^# f. Y0 S2 H8 ?Channel(s)                               : 2 channels
# }3 x+ L$ V% j% [1 x! wChannel layout                           : L R4 u$ [2 D& R! R" `6 Z
Sampling rate                            : 48.0 kHz
3 ~2 N: P: r5 S1 `7 F, }+ P/ g( rFrame rate                               : 31.250 FPS (1536 SPF). T4 `; j& h6 l
Bit depth                                : 16 bits  G$ V6 r/ j3 b# v  {* Q# D- U
Compression mode                         : Lossy
0 k" W1 {; I3 r% ]Stream size                              : 176 MiB (0%)
  ~8 L  l" L0 }$ X3 Z% k5 v, \Title                                    : A.League.of.Their.Own.1992.2160p.BluRaycd.REMUX.HEVC.DTS-HD.MA.TrueHD.7.1.Atmos-FGT2 p8 k8 ^7 m1 G4 S
Language                                 : Spanish+ O$ C, r4 Y9 I  o* A; A; E, N0 j7 h
Service kind                             : Complete Main
4 l) ]9 [# L6 q+ D/ D+ H9 zDefault                                  : No
' E* Z& h4 W7 n  L: q7 q3 Y9 `4 P7 M. [Forced                                   : No8 o+ H0 i( H( U3 v3 U5 Y
Original source medium                   : Blu-ray+ y$ f2 J% O; J( J. i, b5 `) ?6 U

6 M2 a3 i% K& k# M5 y- V9 `6 c! L1 x, _Audio #15
) I2 c. p# ~2 _; \( zID                                       : 16
/ _. J: {1 L( C- L* C  F& ?/ ~ID in the original source medium         : 4365 (0x110D)8 n% H6 N! }4 ?* d# c) C4 g
Format                                   : AC-3
) J  Y; i) r: W5 H% TFormat/Info                              : Audio Coding 3# e8 J1 c4 C" V" I4 b; a/ k
Commercial name                          : Dolby Digital1 a9 e- h1 ~# I+ @) r
Codec ID                                 : A_AC3
: u; \+ G' n/ S: A0 JDuration                                 : 2 h 7 min
( H2 n& d- Y" u8 R' zBit rate mode                            : Constant. Z2 H; P& Z' C5 b# _
Bit rate                                 : 192 kb/s9 ]  o0 `& q* _: w2 Y. v/ t
Channel(s)                               : 2 channels8 m' x- `! b1 x* Y6 @$ V3 T7 e
Channel layout                           : L R
2 T) w7 T- d+ y5 W3 o* G- fSampling rate                            : 48.0 kHz! Z$ m8 O+ a9 ?) @+ q7 S
Frame rate                               : 31.250 FPS (1536 SPF)7 v8 r! {, U+ p2 |# l% f
Bit depth                                : 16 bits' X+ m/ X7 u( J" L  M8 W5 a
Compression mode                         : Lossy
, I% k' i2 Z% u2 g; _6 |/ e$ T) LStream size                              : 176 MiB (0%)
9 z% @( d) k5 VTitle                                    : A.League.of.Their.Own.1992.2160p.BluRaycd.REMUX.HEVC.DTS-HD.MA.TrueHD.7.1.Atmos-FGT
' |" d  A9 u' ]1 cLanguage                                 : Thai
( g) v- B6 I3 PService kind                             : Complete Main
8 L$ J+ K; A: c& N" t' b, YDefault                                  : No0 T0 N+ B2 U5 g
Forced                                   : No
; G- \6 _# D5 ^) c! _( JOriginal source medium                   : Blu-ray
1 J4 M6 s" y; U$ D/ V2 \- u1 _6 S2 t' n: \& s9 G
Text #1
4 H. D* @! g6 x3 M2 B$ I! VID                                       : 17' P' h7 s4 _& p0 h8 _
Format                                   : UTF-8: s+ t4 L) t2 m6 H" [
Codec ID                                 : S_TEXT/UTF8
2 X4 E( Q/ [. {! Y3 u4 @Codec ID/Info                            : UTF-8 Plain Text7 z: o1 I; I5 A6 A  \7 t; B- ~
Duration                                 : 2 h 5 min! \1 u3 [$ G# K( H2 d- v0 b
Bit rate                                 : 62 b/s0 P5 i- V, n8 A: ]" Z5 J9 w
Count of elements                        : 1744
9 ?2 Z6 _* s) h# {# A/ h% N# FStream size                              : 57.2 KiB (0%)
8 ]4 I3 k/ V! E! s7 NTitle                                    : English-SRT
4 [5 g# }7 p: ^7 O! SLanguage                                 : English
; A: ^- d7 u+ R3 H6 WDefault                                  : Yes1 }/ t8 F9 D8 [/ W0 s; R
Forced                                   : No+ A! m1 Q3 u5 g/ S9 n- c9 ~9 {. W
/ \2 S$ Z8 `5 y4 P& O
Text #2
: ^2 Z) C$ }' @6 eID                                       : 18
/ [% K  q/ U; p- S% x2 D6 UID in the original source medium         : 4768 (0x12A0)# U; d( t1 T! Y6 ^' u1 ^
Format                                   : PGS
' G: c* W3 h( V0 |! WMuxing mode                              : zlib- w8 J- I6 D- m6 k
Codec ID                                 : S_HDMV/PGS
/ a8 ^2 q/ M7 a/ }Codec ID/Info                            : Picture based subtitle format used on BDs/HD-DVDs
% \+ d, r: d/ [7 y* g2 x7 O) @3 fDuration                                 : 2 h 7 min3 v. u( L- o9 m* {
Bit rate                                 : 44.8 kb/s
& k5 Q# g$ \1 S% d0 NCount of elements                        : 4274) L9 U; X3 g0 j* M: o" q/ v7 m
Stream size                              : 40.9 MiB (0%)
4 W# S5 E4 o3 A$ n* I2 k7 j  qTitle                                    : English-SDH-PGS  `: r5 w9 C5 t. c: F7 B
Language                                 : English
; B. }, ]# |* F7 H, vDefault                                  : No+ H& U6 l8 ?- |* j
Forced                                   : No. ?0 c( D6 l1 M- O3 J8 h" N
Original source medium                   : Blu-ray) ?8 R9 X8 Z" F; k2 z. }* e$ {

% t# c1 c1 V; b8 @9 M  nText #35 d, [; F) X/ d1 X9 j0 S, ~
ID                                       : 199 P1 J, Z" Q5 [. T
ID in the original source medium         : 4769 (0x12A1)
$ }, `$ W0 c( |) \" qFormat                                   : PGS
/ M7 W* j7 Z9 `* R9 B' G0 l6 ?3 JMuxing mode                              : zlib
( t; t6 {$ f5 t( R+ Q5 {/ eCodec ID                                 : S_HDMV/PGS! R/ B9 k6 \! g* W& Q
Codec ID/Info                            : Picture based subtitle format used on BDs/HD-DVDs
+ W7 a: m8 C+ E- Z! u9 QDuration                                 : 2 h 5 min9 S1 O7 a5 _3 o$ a% o
Bit rate                                 : 36.3 kb/s, K, T( t% r+ I3 k9 [' b
Count of elements                        : 3517) J$ A1 z& _9 [2 ^
Stream size                              : 32.6 MiB (0%)
+ n$ ~# {8 O9 X$ m2 }- K* a- JTitle                                    : English-PGS) c- ~! y9 m4 \/ `- J
Language                                 : English
0 V6 }; ]4 i% a% QDefault                                  : No) \4 z+ S3 H$ X" P- L; T8 ~9 u4 L
Forced                                   : No  F9 I) M4 A2 \
Original source medium                   : Blu-ray
7 i3 b1 ~! m8 r- _6 f+ B' z9 C7 ~0 G% g; N# h, @; n
Text #47 j3 S( f/ G; a1 \# k  r: e' D
ID                                       : 20
9 C9 d& r0 B1 W' Q. qID in the original source medium         : 4770 (0x12A2)/ K; i! n- v# [8 [7 q1 x9 V# A
Format                                   : PGS6 N9 N* j, p) z5 n* O$ l' S
Muxing mode                              : zlib
7 w7 |* @3 k0 ^0 J' @- p/ dCodec ID                                 : S_HDMV/PGS
) `3 ^. j: E$ a3 a! S# oCodec ID/Info                            : Picture based subtitle format used on BDs/HD-DVDs
" J' ^" T. }# B. vDuration                                 : 2 h 7 min8 F3 t# R1 `( s
Bit rate                                 : 44.8 kb/s* e- r6 K) u  D6 M* d1 ~$ n  O
Count of elements                        : 4274+ b% |" F6 [6 G+ O: p
Stream size                              : 40.9 MiB (0%)
) {+ n$ u5 d% }4 [- w9 YTitle                                    : English-SDH-PGS
- a2 P# @& ?4 }2 |( g3 [  O( iLanguage                                 : English% b# O% A2 d- g/ m
Default                                  : No
" t* A( z' ]/ N, t/ w6 ?; tForced                                   : No
) t" _. d' J- x) QOriginal source medium                   : Blu-ray
% f& u( V7 J  ]) T- X
6 |- ^1 g, t& D* S: gText #5& U: X5 G) _( y- [3 p: f2 _
ID                                       : 21" ^4 X( c8 r7 [$ p2 e
ID in the original source medium         : 4771 (0x12A3)! c# u2 u) \; g8 I% m/ q8 c6 M
Format                                   : PGS; E; J% ]- _! t
Muxing mode                              : zlib5 @8 i9 N; `  K
Codec ID                                 : S_HDMV/PGS0 L; e# n- r" m) U7 V
Codec ID/Info                            : Picture based subtitle format used on BDs/HD-DVDs
. I3 B: D2 |# g  G6 c/ {Duration                                 : 2 h 5 min4 r( N, E# R, h& }, A
Bit rate                                 : 36.3 kb/s; B. G$ w/ t# t1 N' H5 Q2 C
Count of elements                        : 3521
* ?( T5 Y$ @( c; SStream size                              : 32.6 MiB (0%)
0 x+ C% i; N9 B' ^$ E. _- w& UTitle                                    : English-PGS
/ J3 r0 y5 A& m) sLanguage                                 : English  U' U1 b; G3 k( a* P
Default                                  : No
$ y' Q* P. C$ T8 \0 _Forced                                   : No. ]8 M# T2 V- M; x5 \
Original source medium                   : Blu-ray/ M! r' L/ ~: J0 h

$ K' `# K- A8 e. v2 ~( Z' i' BText #68 D% ^5 Q4 F9 p
ID                                       : 224 W/ i# H% H! c/ M$ z( }
ID in the original source medium         : 4772 (0x12A4)! D3 }7 L! V* V- }
Format                                   : PGS6 Q% u8 V" [5 z0 Y
Muxing mode                              : zlib. o) \3 W4 d* p% |! Z3 W7 ]
Codec ID                                 : S_HDMV/PGS7 b' n. Q* H2 N) D5 K2 f, o4 t$ `
Codec ID/Info                            : Picture based subtitle format used on BDs/HD-DVDs+ b' H1 k* m1 w. ~3 F* b
Duration                                 : 2 h 4 min
" D" c; E: J5 P) X3 Q4 z7 XBit rate                                 : 18.1 kb/s# f3 T. b2 y7 U8 Z$ G$ T" T, {
Count of elements                        : 3285
# ?) n+ ?, s) p4 j( x+ IStream size                              : 16.1 MiB (0%)& z' _: O0 j# r
Title                                    : Arabic-PGS
/ c  n, w  M1 gLanguage                                 : Arabic
# X# }$ m4 R' _/ M. ZDefault                                  : No
3 H  s5 H0 R+ a7 X, n( [Forced                                   : No' w, O: ^( I. c9 g+ C4 f
Original source medium                   : Blu-ray4 A. u% I' X/ @
* o, p( e  E4 ]4 A. A$ x4 z3 x
Text #7
9 b  W, Y* J6 y1 PID                                       : 23
4 e  Y' J* S/ a% |& f( GID in the original source medium         : 4773 (0x12A5)
. A! K! _3 N  j8 ?Format                                   : PGS
- h, ^: e; T/ h* K* T6 f) DMuxing mode                              : zlib
, v6 w  R- A; b* b3 K4 y  Z1 m/ ?Codec ID                                 : S_HDMV/PGS* h/ D4 U. K" [! l
Codec ID/Info                            : Picture based subtitle format used on BDs/HD-DVDs
1 c( t/ p# I# N" e: A; Y3 t, lDuration                                 : 2 h 7 min7 w( C, V, {, x8 e% Q
Bit rate                                 : 33.1 kb/s' l. V: ?' x* |, T+ S
Count of elements                        : 3568' E' i$ p' p. X4 M1 Z  y/ W
Stream size                              : 30.2 MiB (0%). t$ Q% h& O, B, P9 l
Title                                    : Chinese-PGS1 o* H' ^  {% G0 f4 s* G: |6 W
Language                                 : Chinese
) o! Y/ ?7 l$ I( u: Q* yDefault                                  : No0 P) y0 t( [$ c) n: y/ I& ]
Forced                                   : No
- I( w* r/ d, OOriginal source medium                   : Blu-ray# \' j' Q1 f  ~6 t3 _

% ?9 F$ w2 R/ ]; t9 KText #8
) T  J) j/ k2 w( B- |, iID                                       : 24
$ B! c% v7 ?: i, {0 ]2 oID in the original source medium         : 4773 (0x12A5): m3 U2 i1 e4 v2 Y8 |
Format                                   : PGS' C. j6 O: }0 i5 m) e# y
Muxing mode                              : zlib
9 L4 {9 [, m) Z4 Q8 L* xCodec ID                                 : S_HDMV/PGS5 o% J- h7 m2 l1 ^1 C
Codec ID/Info                            : Picture based subtitle format used on BDs/HD-DVDs
3 z; l4 P6 {2 \) ~Duration                                 : 2 h 3 min
9 m9 U& w" ?/ B: w/ A/ @8 hBit rate                                 : 752 b/s) i# j5 s4 r8 h$ b' N: Z& ?
Count of elements                        : 75
# u  d' Z. a6 GStream size                              : 682 KiB (0%)* w! ~/ U8 w' L4 \8 t* x
Title                                    : Chinese-PGS' b( X, }" A( h2 p7 \
Language                                 : Chinese) Z. k  f) j. V, x& ^! [6 L
Default                                  : No
, w: ^. P; P* O9 w! [; YForced                                   : No
, m" V  P' a- q3 NOriginal source medium                   : Blu-ray
3 g/ w! D9 m2 U! i: ?# @: D, a% ?) M
Text #9) |2 }, X" P  M% M) d
ID                                       : 25
/ G$ j- H0 p5 n6 zID in the original source medium         : 4774 (0x12A6)
- K% A6 S# z1 D, J% e/ FFormat                                   : PGS  d; V6 X$ I& |# W/ J
Muxing mode                              : zlib* b; q+ S8 U0 F7 A* K
Codec ID                                 : S_HDMV/PGS' Q1 G  p  d$ _3 d
Codec ID/Info                            : Picture based subtitle format used on BDs/HD-DVDs
3 ?8 h/ h7 z; iDuration                                 : 2 h 7 min% l8 K$ ]0 o0 O; e  w9 p9 n
Bit rate                                 : 34.2 kb/s1 D& @$ N7 P& Q4 F
Count of elements                        : 3565* a5 `$ ?& L4 S' d4 N! ^* U
Stream size                              : 31.2 MiB (0%)
# j8 ~  s" y0 |$ z$ H3 HTitle                                    : Chinese-PGS3 ?+ i4 v1 n  d2 ]
Language                                 : Chinese
1 z5 G$ N2 z( vDefault                                  : No
0 l7 e4 Z9 }( ~& ZForced                                   : No& G! x- w: W5 F/ g6 J( H: D/ i
Original source medium                   : Blu-ray
% ~; n) s6 T: ]1 v% t; c: N. \9 q! d' _+ J& J$ v% d+ o9 T
Text #10
: j. n) I/ s9 Q& \6 @2 |2 `+ {, `ID                                       : 26
4 p- X  k7 W' F, d# h" ^+ LID in the original source medium         : 4775 (0x12A7)
, L$ v0 D2 Z$ C& G: X" kFormat                                   : PGS- V0 B) K. E( \, g- @/ ~, ^+ T
Muxing mode                              : zlib
* S( S! Z0 M% j' n3 e* f1 p6 cCodec ID                                 : S_HDMV/PGS0 h- S8 l5 Y" s
Codec ID/Info                            : Picture based subtitle format used on BDs/HD-DVDs
. j3 p" [5 G+ D( |) mDuration                                 : 2 h 4 min7 e3 J: {& J+ \: u5 S& l0 }$ k+ d
Bit rate                                 : 28.3 kb/s
) Z% E1 i' B9 C  v) ?/ KCount of elements                        : 3265% G8 g' J# |1 _+ B. q
Stream size                              : 25.3 MiB (0%)
1 y: Q& l, i9 g  N1 {Title                                    : Czech-PGS
, x0 `" [5 J" F/ Q' ~5 r* ]8 z4 uLanguage                                 : Czech0 Z$ [, z& u0 {1 l+ D+ A
Default                                  : No
" E8 f' v1 i5 k2 X8 A+ g# GForced                                   : No( @  L9 E- B( i# n" S8 @2 i$ |& r$ T
Original source medium                   : Blu-ray* l( D/ ~7 ?' e. s: A

9 w+ d/ d+ g. V$ r8 W4 sText #11
% ]& a* y& Z/ |ID                                       : 27$ _5 A" Q* ?/ o9 G/ x$ E
ID in the original source medium         : 4776 (0x12A8)+ M7 a5 _& r& e4 k7 s: e
Format                                   : PGS
: o  P4 W- |0 o7 ?. v4 XMuxing mode                              : zlib' }4 U9 T+ d% p
Codec ID                                 : S_HDMV/PGS
* E$ `/ e$ _9 E9 Z7 Q9 ~Codec ID/Info                            : Picture based subtitle format used on BDs/HD-DVDs
6 S/ ]6 Y9 x* l* r8 k& BDuration                                 : 2 h 4 min, |/ l7 m! |. v
Bit rate                                 : 26.8 kb/s8 [% q: l4 g! n- Q* N, b3 O
Count of elements                        : 2296
' y! w8 p0 e) ?4 J5 @4 G* UStream size                              : 23.9 MiB (0%)4 _* y% m3 `+ H% x; y" r* Q
Title                                    : Danish-PGS, F' v1 p" P5 L1 N/ J0 R
Language                                 : Danish
3 F0 h' w9 R' |8 oDefault                                  : No+ K6 p+ K+ k" N5 a2 t" q9 `8 p7 e" R
Forced                                   : No
+ F1 i" O% J& SOriginal source medium                   : Blu-ray
( f: u) o( V' n  B+ N
4 h0 A+ O& u3 v% @' E" pText #123 @; w) |; G, `6 j
ID                                       : 28
+ J. ~8 i- R8 @. M* gID in the original source medium         : 4777 (0x12A9)
9 w% {2 T; H& _$ ^1 c: uFormat                                   : PGS4 ]8 V' E2 x; E. j; T! O- I
Muxing mode                              : zlib% C% p) m$ ]. u' Z4 E$ f& a
Codec ID                                 : S_HDMV/PGS) @: _" |' ]7 |2 N' D7 g
Codec ID/Info                            : Picture based subtitle format used on BDs/HD-DVDs
+ X$ C) G$ v5 {7 e0 e3 bDuration                                 : 2 h 4 min
/ z4 u% d5 W' `! lBit rate                                 : 27.5 kb/s  B! U: {; T1 {: s) Q
Count of elements                        : 22724 r+ ^! {) U8 e; V/ c7 W
Stream size                              : 24.5 MiB (0%)
8 b+ s5 q" K' y* ]6 C% a# ~Title                                    : Dutch-PGS
( r' y0 f6 t' U' M1 ILanguage                                 : Dutch
7 r' [2 d( C4 S: }: `Default                                  : No
* ?! i7 P  o" G+ ?5 M# \Forced                                   : No
3 p4 [7 e3 \8 ZOriginal source medium                   : Blu-ray7 s- V7 Z8 F& i4 H& f1 W
( C, v+ x+ k: d6 M& r* |5 D! `
Text #134 o8 s- y8 V* O- I; ~, o( H7 \
ID                                       : 29- O- R( X& I5 p2 [& K! i
ID in the original source medium         : 4778 (0x12AA)4 j# i* ?" q, @% L% X. a( ]
Format                                   : PGS
# h5 Z: Q9 v; ^! j6 I  m5 tMuxing mode                              : zlib
3 V/ E, H* v( }  Z& V9 }$ ?Codec ID                                 : S_HDMV/PGS1 Q2 T4 @- E( T6 m+ y. _
Codec ID/Info                            : Picture based subtitle format used on BDs/HD-DVDs% n6 s5 M& [4 F7 ~: a
Duration                                 : 2 h 4 min8 |) R- N( f2 G
Bit rate                                 : 27.4 kb/s1 P/ w7 X3 L0 z$ _4 }
Count of elements                        : 2286% j2 J, _' |% e* f
Stream size                              : 24.5 MiB (0%)
+ ^& r2 F+ a1 `, M- h" C4 w* @Title                                    : Finnish-PGS
3 o& R8 ^5 S7 |Language                                 : Finnish
, h) x: g" R2 [# a, EDefault                                  : No
; N! Y7 a; w% YForced                                   : No
" E: w+ P9 R1 }Original source medium                   : Blu-ray6 o' i$ u, b4 C9 O/ m. O
6 n+ I! F3 F( X$ C; E
Text #142 Z/ s8 j, ?1 |
ID                                       : 30# E" F* z6 ~" V) A* u: Q" @: \4 _2 [
ID in the original source medium         : 4779 (0x12AB)  o4 e: j& ]( u7 o0 {1 b# k* f5 w
Format                                   : PGS. f& o! {7 I- {: Q$ B" F0 k
Muxing mode                              : zlib
. K" s8 i# o5 K: L3 i$ c+ _Codec ID                                 : S_HDMV/PGS
1 f( l% t0 M$ ~Codec ID/Info                            : Picture based subtitle format used on BDs/HD-DVDs% ~- Q! i$ ]% {- S
Duration                                 : 2 h 6 min( K, r& E+ ]) e( J
Bit rate                                 : 26.9 kb/s
- t; i: f; L* h) F( ?: V+ QCount of elements                        : 3119
: Z1 M5 _4 H9 Y# W# o' }% rStream size                              : 24.4 MiB (0%)
$ |8 S% k- v" t' ?' Y. {0 uTitle                                    : French-PGS4 p4 ]3 R& j& c: P5 s& X- ?
Language                                 : French
5 u; u4 l. {' j. k  Q  BDefault                                  : No
. j- I; q( _2 v: V/ n- S1 O9 hForced                                   : No9 @. o3 q2 ~- E, E$ e' F4 Y* a
Original source medium                   : Blu-ray
. p; d1 i" h5 J/ E: A# S! r! t6 R
9 U+ K% K3 [8 j& V7 |Text #15* T- T3 ]+ \6 \- ]" X1 j
ID                                       : 31% o! C# Q6 T# ]9 ^3 h' K6 ~9 i( Q
ID in the original source medium         : 4780 (0x12AC)) [9 @. M0 W6 [$ K, }0 C* W8 Z
Format                                   : PGS
; F% S$ U' ^8 S8 FMuxing mode                              : zlib9 E0 E& g8 o) S# T
Codec ID                                 : S_HDMV/PGS9 ^1 A& r7 W2 }% v
Codec ID/Info                            : Picture based subtitle format used on BDs/HD-DVDs
% w, A1 }" H3 J" NDuration                                 : 2 h 4 min
  n) U' E; q- U: L9 iBit rate                                 : 35.3 kb/s: ~, ]; i  u+ J/ J
Count of elements                        : 33712 z9 d( f) F9 r
Stream size                              : 31.5 MiB (0%)5 J" ?$ J! l3 E; I9 G$ E
Title                                    : German-PGS
. Z* Z9 Y& T# B% JLanguage                                 : German
" ]) \! G% c' [+ j2 I, `- GDefault                                  : No
' ~6 l$ N+ M) k8 a0 HForced                                   : No
5 V$ n# Y' L  T# Q- n  NOriginal source medium                   : Blu-ray/ i% u" O' I7 U5 O4 i- k" L

; |5 \& f8 [( i" O  e3 |Text #16
7 l. k, l+ G" ?5 V8 B: }% _7 J6 jID                                       : 32( G0 x' m2 [. w
ID in the original source medium         : 4780 (0x12AC)
* g9 Z9 j" r+ |: ^; ZFormat                                   : PGS
7 U- r, h! J1 k* BMuxing mode                              : zlib5 A# y8 n, S; E1 C  {
Codec ID                                 : S_HDMV/PGS( J0 Y. K3 C; K8 s3 p( I
Codec ID/Info                            : Picture based subtitle format used on BDs/HD-DVDs
  N4 D2 k2 n1 h& i3 T/ }Duration                                 : 1 h 56 min
$ F1 S5 B$ o. L+ ?# CBit rate                                 : 349 b/s& f1 {% C/ ?& b7 F. V+ q
Count of elements                        : 30
. s; N; J( s5 ?4 K* @2 p9 [9 vStream size                              : 299 KiB (0%)
8 I4 l- Y% V2 }Title                                    : German-FORCED-PGS  D/ e; o3 ?# Z& x
Language                                 : German# b7 u* e# h$ u1 Q$ M1 R2 ^, S
Default                                  : No. O9 y" e$ i8 e/ i6 v  c) o1 N
Forced                                   : No
2 X% L; q* Q+ C- }Original source medium                   : Blu-ray
+ L6 W7 g" F& k3 [2 P5 P  D2 i0 ^+ `% p, }) v: K
Text #17
% |' R+ b4 g& |0 ^6 vID                                       : 33
$ w* i0 R- b( kID in the original source medium         : 4781 (0x12AD)
- _- k' z' i  C6 s: c  OFormat                                   : PGS9 l7 j* E9 @4 T
Muxing mode                              : zlib
; n+ G* K! E8 J; ^! _Codec ID                                 : S_HDMV/PGS
, `8 F, Y; m, E7 g$ _. R, u. N5 X5 P" vCodec ID/Info                            : Picture based subtitle format used on BDs/HD-DVDs) z3 ?$ f$ x+ E9 }4 ~! _
Duration                                 : 2 h 5 min6 q! b  Z" `7 [; f5 V1 M
Bit rate                                 : 26.7 kb/s
6 C' ]" w2 _/ y9 RCount of elements                        : 3549
* h6 a$ }) E1 S3 hStream size                              : 24.0 MiB (0%)
' Y6 |: O1 u9 _$ l: cTitle                                    : Hebrew-PGS
6 q$ c+ L# W8 m$ I- ^Language                                 : Hebrew0 h/ B2 o* }" J6 z/ Q8 ?) j# E
Default                                  : No
+ U. J. w2 N1 ?4 U' S$ V4 \Forced                                   : No
7 P7 Z; Z; z5 v. J( N  wOriginal source medium                   : Blu-ray
+ [& N" G! K0 c1 o9 E) b3 b# M
8 a8 [" ?+ X6 }2 ~Text #18
, k4 B# e6 ^9 i% t, h. V& @- oID                                       : 342 p9 i7 |3 ?, `$ P+ Q) Y
ID in the original source medium         : 4782 (0x12AE)
7 T2 j  n7 K# J( eFormat                                   : PGS
# x) s9 F1 C( u6 k/ _: k! WMuxing mode                              : zlib9 j9 M' i" e% u! N! P
Codec ID                                 : S_HDMV/PGS. b" t% b1 S8 Q: U5 c0 Z
Codec ID/Info                            : Picture based subtitle format used on BDs/HD-DVDs
' k4 F* S2 `/ z4 v' E8 CDuration                                 : 2 h 4 min
6 V' L" z, ?! G! ]# i- z2 `; zBit rate                                 : 24.0 kb/s
. t4 I4 i" M0 N# E6 {. K, CCount of elements                        : 33076 \* v& x2 {. Z+ V5 w* |. @0 s
Stream size                              : 21.4 MiB (0%)
# V& a6 R; x+ k+ u$ G) e. n) uTitle                                    : Hindi-PGS8 g3 C( L! z  ^  |
Language                                 : Hindi
7 O/ W+ F' U  H6 X  c* kDefault                                  : No
5 Y  A( J6 w6 `: M& L7 s$ ^9 LForced                                   : No0 G* g+ v! q" B% Q: W* H& r& d
Original source medium                   : Blu-ray
4 m, n' T5 b% _8 o) m( \; T6 ?3 h$ ^" M; l$ O0 H
Text #19, W# U  {3 }7 t" }# r( }1 W
ID                                       : 35) ^5 a" v% Y3 a
ID in the original source medium         : 4783 (0x12AF)
6 Q# m; r1 \; K+ _Format                                   : PGS
! x, V4 J8 v0 r0 W  aMuxing mode                              : zlib4 ~+ E* {: A3 r  F
Codec ID                                 : S_HDMV/PGS
  B. S: u& r- B$ r: Z: m% h% MCodec ID/Info                            : Picture based subtitle format used on BDs/HD-DVDs
7 L3 |: s, r" e+ H# C1 |& UDuration                                 : 2 h 4 min+ v6 q( L0 w- A1 u5 ?: \
Bit rate                                 : 29.1 kb/s
5 h& H. J2 ?6 S2 I/ DCount of elements                        : 3395
5 F8 [7 x" l* X4 n( h  sStream size                              : 26.0 MiB (0%)' l/ B1 |, t$ z1 g9 L& V
Title                                    : Hungarian-PGS) }: A! @; u) a
Language                                 : Hungarian
; f) i% p8 m1 `9 \8 E1 M  E7 zDefault                                  : No3 a3 h7 L3 W2 j" f: k2 X; Z1 U
Forced                                   : No
- w9 y4 n* M, B$ Y5 iOriginal source medium                   : Blu-ray7 R" q3 m9 B( ^9 I

! }5 ?! s$ P! Y7 E2 tText #202 |. [& Q, B. c: a% b8 A& e) ^
ID                                       : 367 o- r+ W8 A( D9 ]! L) M
ID in the original source medium         : 4783 (0x12AF)/ g6 i; a" S  M
Format                                   : PGS8 G# O$ M. C3 n% Z9 X( A
Muxing mode                              : zlib7 i3 B" d+ @( K8 {# z6 [' s* n; n
Codec ID                                 : S_HDMV/PGS/ w& c2 Z: ]. ?# e3 {
Codec ID/Info                            : Picture based subtitle format used on BDs/HD-DVDs! \4 h" m3 p$ x/ r0 y: d
Duration                                 : 1 h 56 min
3 R* [! U4 Q' X1 k" ?: ?; rBit rate                                 : 668 b/s
0 _+ X* M5 h$ i4 F1 q; J& |Count of elements                        : 60
" }( A& G; @1 f/ W; e. L. d1 z1 j" TStream size                              : 573 KiB (0%)8 u9 L) i& b+ b, T' B
Title                                    : Hungarian-FORCED-PGS
% M6 @6 v( |+ Q2 R" n/ QLanguage                                 : Hungarian# Q8 m- i: J) L5 c7 K( C
Default                                  : No8 d1 B8 [) N- `5 G' r
Forced                                   : No
( j/ u- Z4 u& L4 _Original source medium                   : Blu-ray
( v. b1 `5 T" x; D+ P3 p
- G  T) j) N5 W  w. ~& t1 d3 aText #21
* t& M6 H9 `  w+ {( oID                                       : 37& H: E* V- H& Q! @) m
ID in the original source medium         : 4784 (0x12B0)
( z' E' _3 e2 fFormat                                   : PGS9 @& V; x& ?7 B# d: |  d: y
Muxing mode                              : zlib
# e) `9 z3 i6 MCodec ID                                 : S_HDMV/PGS
* W( T( _- N# w' W% T& {/ \Codec ID/Info                            : Picture based subtitle format used on BDs/HD-DVDs& Q# I/ R  z$ B0 X( E: a0 ?! f+ X
Duration                                 : 2 h 5 min
3 V  l' x7 U2 y0 z2 A' jBit rate                                 : 32.7 kb/s2 R% C2 p1 t! Z* e: e
Count of elements                        : 3283
) C$ U! B) ?0 g3 Z+ @# XStream size                              : 29.4 MiB (0%)
) y2 t) k2 j+ [' i* w4 J$ ~Title                                    : Icelandic-PGS
3 O3 k- d4 s7 ]6 \# H! aLanguage                                 : Icelandic, p5 Y5 M  \8 U' G/ K
Default                                  : No
) V/ n! z8 T) T: }4 {) h% j( X: e) R' ?Forced                                   : No
, l; t- D! Z8 F/ I- t& ^Original source medium                   : Blu-ray
& ?+ y* a' q! b* Q$ w! D
5 I, ]7 O4 }1 K" H9 d8 I6 ?Text #22
$ X# X. O3 T# f' S4 T: e- [! BID                                       : 38/ e6 X7 S/ ?8 E* a: n. u
ID in the original source medium         : 4785 (0x12B1)
5 q8 ~) s" X% BFormat                                   : PGS+ Z, a9 v# H7 i6 Y* R1 ^* G: R% G
Muxing mode                              : zlib
1 d0 w" [$ c/ J; U. X& I# BCodec ID                                 : S_HDMV/PGS
  \6 f9 x8 a0 k$ l! v6 P, [* VCodec ID/Info                            : Picture based subtitle format used on BDs/HD-DVDs  r$ X# t, |' r. V: A
Duration                                 : 2 h 5 min
" f  y9 [, p6 j2 G) Q2 C9 hBit rate                                 : 35.1 kb/s
7 u* L, L3 s) q; r! }: F  KCount of elements                        : 3583# _5 y" G& q9 u
Stream size                              : 31.6 MiB (0%)3 I" @( E/ D' N- C, e/ g' v/ w
Title                                    : Italian-PGS
- E- p5 m6 g( s) }8 @Language                                 : Italian
/ i' w% e0 F6 r' i0 O6 HDefault                                  : No4 n& R( G+ Z2 |9 H
Forced                                   : No' a/ G; n) A, x! J* D7 \
Original source medium                   : Blu-ray: l. }& }8 n. i6 J) o

; }2 a% P- Z4 C3 fText #23; B% }2 J( T0 F9 ^) b9 e: w
ID                                       : 39
  f2 y7 V( `; \% ~. PID in the original source medium         : 4785 (0x12B1)9 [3 N8 \: y2 S$ |. |7 E# w$ Z; P
Format                                   : PGS- ~: c3 @& |; i! a
Muxing mode                              : zlib( K! G$ [4 m6 T9 k
Codec ID                                 : S_HDMV/PGS
+ d0 s7 |& ^" A+ ZCodec ID/Info                            : Picture based subtitle format used on BDs/HD-DVDs
0 \9 T# S% K' t6 Q) ]1 bDuration                                 : 1 h 56 min
* `9 Y) i& b8 i, \) xBit rate                                 : 737 b/s
7 Y* U$ T+ n3 m/ O; O4 jCount of elements                        : 60
9 O! t. e2 X( a8 u! U4 l) gStream size                              : 631 KiB (0%)
2 y# r) `; G8 c3 V) `, X4 Q4 O! Q  _Title                                    : Italian-FORCED-PGS* J; k" S  k& ]  w: k
Language                                 : Italian
7 C4 ^, I6 E0 E2 QDefault                                  : No6 l2 O5 s5 X5 |, n5 l
Forced                                   : No/ {& X. f1 z3 p( i9 I% i5 j
Original source medium                   : Blu-ray. B. r7 {: ?  [6 k9 u: v. ]0 ^

" C8 }' p. E8 i; J" c1 l" n& e# X3 c' UText #24
5 V. ?& A' g: D9 U% H: ~: c8 hID                                       : 40
5 N4 F4 M9 W* C2 o( SID in the original source medium         : 4786 (0x12B2)
: z5 b$ d. t3 f% G2 N' a+ ]1 V' cFormat                                   : PGS. C5 f7 D" ?( B- {: u! B
Muxing mode                              : zlib
& X: U/ u/ O: t) ]4 q0 d2 E3 p5 ^Codec ID                                 : S_HDMV/PGS
& s+ P) g: u2 V! g6 M1 @4 ZCodec ID/Info                            : Picture based subtitle format used on BDs/HD-DVDs
* j5 v' S' W6 y' v) K8 X( C8 v1 |Duration                                 : 2 h 4 min
( G8 f7 c+ `5 L3 i# C; t% G& }1 [; EBit rate                                 : 25.0 kb/s
8 M3 `6 D( G5 P' s/ N! gCount of elements                        : 2246  H4 o5 v. A% P6 F; }/ m- M/ ~
Stream size                              : 22.3 MiB (0%)
# U1 e& y2 o* u. [# fTitle                                    : Norwegian-PGS+ @: ^" i% n9 V& O7 {5 @
Language                                 : Norwegian( x2 I; G+ v) E( b; e  O/ K4 o8 B
Default                                  : No: f" J  s8 H/ B& m( V. K
Forced                                   : No
) A" [- O" m" G: d. U% [Original source medium                   : Blu-ray: o3 g1 e& b$ D7 p

, }0 @/ ~; ^1 `. K8 LText #256 l; r# ^1 |. C4 M  P, f
ID                                       : 41
- o. U. k5 ~/ \1 V; r# D; L% cID in the original source medium         : 4787 (0x12B3)0 I& p+ J. |" c9 Z2 _- @5 X1 T2 e- M( }
Format                                   : PGS$ d/ N. h) x0 l1 j
Muxing mode                              : zlib
# G! P$ I: P9 Z' W, tCodec ID                                 : S_HDMV/PGS. h2 d  r' r+ k2 ?
Codec ID/Info                            : Picture based subtitle format used on BDs/HD-DVDs
/ J0 v9 H. V8 i9 B3 R$ LDuration                                 : 2 h 4 min  s( Q) Q/ t7 n' I
Bit rate                                 : 27.3 kb/s( ?" T- H" k) e, E$ u
Count of elements                        : 3139/ {2 X7 @9 k- {& w
Stream size                              : 24.3 MiB (0%)! Z) ]# H: O% \/ u
Title                                    : Polish-PGS
# U- A- r" L) q; v9 k8 vLanguage                                 : Polish
0 b3 W4 w) ]4 F& m1 E7 I3 SDefault                                  : No5 B- \$ A# _/ y$ L2 y
Forced                                   : No0 Z' Q! _( X& e. z+ C/ a& e, Y+ @
Original source medium                   : Blu-ray
# R3 r9 |' e$ l* M, k! v" ^: Y$ B% j9 E' ^+ K; M
Text #26
# e/ y& J6 W& NID                                       : 42
' z1 s" i; s4 e9 U: G% H9 UID in the original source medium         : 4788 (0x12B4)) \: k; u" |; p3 O. y
Format                                   : PGS, B& T! {) o1 Y* H# E
Muxing mode                              : zlib+ O7 E, Y) S5 ^
Codec ID                                 : S_HDMV/PGS
6 B) [* v7 b* m1 d: ICodec ID/Info                            : Picture based subtitle format used on BDs/HD-DVDs
: u0 E" M0 Q4 b+ [Duration                                 : 2 h 5 min
* b8 H" J# Y- E4 Y3 _1 ~, ?Bit rate                                 : 31.8 kb/s
/ m$ N2 X$ n$ c9 ?Count of elements                        : 35778 l: y4 c5 f" Z
Stream size                              : 28.6 MiB (0%)
% S3 V: w/ f1 ^% J# k9 J, g6 ITitle                                    : Portuguese-PGS6 V) D. i) R7 G( T+ J0 I8 B
Language                                 : Portuguese
' f4 u* J) {% r% {6 Z; ^1 b! k1 NDefault                                  : No
7 j2 h" o* a2 {0 N9 dForced                                   : No
, d0 L3 L" }1 [; k% v# ^Original source medium                   : Blu-ray
4 Q& p3 t$ b: v8 \+ t1 B/ x$ Y
1 C% ]  r% f( Y3 z' bText #273 V+ ], A# ?# \& I6 t; H; n" f
ID                                       : 43
# R2 z* \5 u% fID in the original source medium         : 4788 (0x12B4)
7 h  h! ~6 n) W& pFormat                                   : PGS
! \+ J* @; F* U; mMuxing mode                              : zlib
7 `/ C7 W: g  o% XCodec ID                                 : S_HDMV/PGS
$ v  F$ {3 X& j# G. E3 @5 @2 wCodec ID/Info                            : Picture based subtitle format used on BDs/HD-DVDs
" k/ ^# J) l2 G2 v. b, M7 ZDuration                                 : 1 h 56 min; H( W3 a. W( d
Bit rate                                 : 683 b/s
7 l0 ?0 Q' q3 w* ^! {, P  RCount of elements                        : 56  |% |% W0 [1 v
Stream size                              : 585 KiB (0%)4 Z6 C1 Y# [+ a% a. U
Title                                    : Portuguese-PGS
! x* }8 `9 q7 _% U' ?Language                                 : Portuguese) w, j$ o9 i- T( O  C2 i
Default                                  : No
! @1 ^4 N$ O) G! j" D+ oForced                                   : No
! P4 u1 \( z5 r3 YOriginal source medium                   : Blu-ray
/ }2 t) e+ s! f- ~) W' a0 T* b# E9 m+ s: h- R' c
Text #28
- }; Q. g. M1 CID                                       : 44
/ f2 y6 h; a5 `* z& z1 U$ OID in the original source medium         : 4789 (0x12B5)- d( m$ g8 x" ?8 i+ S
Format                                   : PGS
( R: |0 w; R1 _8 EMuxing mode                              : zlib
* S4 i& b6 I5 }' N; o# z! TCodec ID                                 : S_HDMV/PGS
9 {% A( W% ]' i( X9 s' }  Q1 WCodec ID/Info                            : Picture based subtitle format used on BDs/HD-DVDs. b  h! A; N0 J( k
Duration                                 : 2 h 5 min6 Q+ a: w5 p. q) k
Bit rate                                 : 32.6 kb/s6 K: @- ~7 Z0 E& o5 z
Count of elements                        : 3339
$ f5 @+ U% _$ U5 [9 VStream size                              : 29.3 MiB (0%)
' t- w) w# M. C# M3 Q# d3 zTitle                                    : Portuguese-PGS4 \  s! @/ P; r, [& o$ D
Language                                 : Portuguese& @1 N* K5 O8 V3 \. @0 l' X
Default                                  : No
: x! g* d5 A' R  l" vForced                                   : No
# p) A6 J$ B. ~1 h8 [Original source medium                   : Blu-ray2 c6 r$ ?% C: D) H) _; T

3 X+ }+ M6 I2 N. x# PText #29) U9 W: g0 Y9 D. @" p% F2 s, {% }
ID                                       : 45. Q6 F+ W- O( p$ ]
ID in the original source medium         : 4790 (0x12B6)
) @# l# A& _. v% Z- f' PFormat                                   : PGS
( F9 B1 [. m3 Q6 t% @- S6 O2 LMuxing mode                              : zlib- G# Y6 ]2 T1 X2 U
Codec ID                                 : S_HDMV/PGS
* v/ W; U& m5 ]$ @/ k( d% M3 ECodec ID/Info                            : Picture based subtitle format used on BDs/HD-DVDs
; }* e* w& \  M2 [+ w. X/ _+ H) l: uDuration                                 : 2 h 5 min: n  F1 c4 }* z/ y( Q! n
Bit rate                                 : 33.7 kb/s
3 K" ?& h4 h/ l3 j2 iCount of elements                        : 3675# ^' {1 I9 s; T/ p, J% T5 X2 R
Stream size                              : 30.3 MiB (0%)2 i$ w! f2 g( x  o: z
Title                                    : Russian-PGS
7 L- P' z' n  i+ }Language                                 : Russian
, _' r! Y( {$ @4 q, g$ {8 O- M4 vDefault                                  : No
% }, o; X1 A" P- fForced                                   : No5 g4 |# H/ {9 d9 A% L
Original source medium                   : Blu-ray! t7 ~& _; s5 y; h
1 |1 ?" B9 b: U* x; S
Text #309 P, ^1 A0 \. \7 T5 m$ {
ID                                       : 466 U& Y# l/ U( u
ID in the original source medium         : 4790 (0x12B6); A( Y, i- v; z  [( ?4 l
Format                                   : PGS
9 @  F5 S7 [3 d% h- C$ QMuxing mode                              : zlib  g; L: B1 M  O& F& f5 A( M
Codec ID                                 : S_HDMV/PGS% v: `: p7 N. X6 R
Codec ID/Info                            : Picture based subtitle format used on BDs/HD-DVDs7 q5 p+ K  O1 y: E7 q, g
Duration                                 : 1 h 59 min
9 p" N1 h1 R, xBit rate                                 : 809 b/s7 z$ D5 {/ o$ e3 {
Count of elements                        : 66
( C0 ]/ E. T3 h1 J! |* AStream size                              : 710 KiB (0%)& N# P2 {1 I2 |" D4 x8 n6 f
Title                                    : Russian-FORCED-PGS2 ?, |# J" w7 A0 j
Language                                 : Russian, W) C0 v1 N5 ?8 E/ \
Default                                  : No. O% B' V- r. ^0 L' x: V  X
Forced                                   : No! r6 Q/ k  {; ]$ p- E
Original source medium                   : Blu-ray- E  @  p- z. p" E! W2 s0 H/ V$ U4 h

4 |" }' Q5 r/ |6 h2 JText #31- Q. b7 @6 v& t! ?
ID                                       : 47
3 U+ @7 z2 ?& I* GID in the original source medium         : 4791 (0x12B7), o/ w/ b4 V* J8 d! n
Format                                   : PGS/ o! ^' j  k: }: B$ K) L
Muxing mode                              : zlib
  x, b% y! ~5 @" B' U9 U# o8 c/ CCodec ID                                 : S_HDMV/PGS
  ^( |! c4 A/ W% i3 Q2 SCodec ID/Info                            : Picture based subtitle format used on BDs/HD-DVDs
6 V. [) @  n& f3 ?Duration                                 : 2 h 4 min
) M  R* O0 }1 [6 a+ QBit rate                                 : 32.3 kb/s
; R8 n. d5 ]9 M$ Q- H- G2 Z9 l( K2 _Count of elements                        : 3395
# r8 l2 W' i% f" N' C  w  oStream size                              : 28.8 MiB (0%)
7 S7 }* ?9 r. R7 w; O2 w0 V' rTitle                                    : Spanish-PGS, D+ [! V* D+ A( x7 t5 Z, ]: `3 O* Q
Language                                 : Spanish
+ ?0 ~" G3 `3 V- U* UDefault                                  : No
) {, X1 k" _. O( [: EForced                                   : No2 _2 }" l3 q5 K3 k3 T- E
Original source medium                   : Blu-ray
; C( e8 q  j( H% }( }! w$ Z6 m7 Z# a& v1 w) O
Text #324 n& f+ X) r4 b% a  E
ID                                       : 483 G# B' K4 Z. \* [- C
ID in the original source medium         : 4791 (0x12B7)
* t9 f% c; {! c. c' }Format                                   : PGS
$ X" k" y- P5 @3 B7 q) X* |# S7 PMuxing mode                              : zlib
4 r+ `" B: O5 T+ ^1 C9 a$ R: @Codec ID                                 : S_HDMV/PGS/ E5 e* C0 U/ M2 ^
Codec ID/Info                            : Picture based subtitle format used on BDs/HD-DVDs
% N% I6 i% I' a4 |, X! b7 rDuration                                 : 1 h 56 min) O: k$ l7 ?- _8 j* z  y
Bit rate                                 : 386 b/s" ?' _( l7 s" ^8 B
Count of elements                        : 383 K! X; k$ G1 _1 U. t
Stream size                              : 331 KiB (0%)% v6 z( n' N# ^+ C: Z7 k; _
Title                                    : Spanish-PGS
' R* x" A9 @. J, @- Z% D) tLanguage                                 : Spanish& e" z% w% v0 N! r, V/ P
Default                                  : No
& F: A5 F3 `, I6 S( V+ lForced                                   : No$ W: c( m$ v$ t( q. ^5 u
Original source medium                   : Blu-ray+ k/ F( k; N' l" w9 ^) _$ K2 K

' `; v8 j# R3 {Text #33
- x: ?' E$ p$ x9 X7 w6 t! |' c& rID                                       : 49- _/ _6 q  I& _
ID in the original source medium         : 4792 (0x12B8)
3 n4 c/ G  Y. T' WFormat                                   : PGS
) h$ j. J) W1 {# T* ~* qMuxing mode                              : zlib4 ?$ w( s2 d- W% U/ A, n
Codec ID                                 : S_HDMV/PGS
4 j% ^8 i; u: t. F4 Z1 a3 lCodec ID/Info                            : Picture based subtitle format used on BDs/HD-DVDs
5 e, @" W& e& [3 _Duration                                 : 2 h 4 min+ L# C6 ~3 J# i
Bit rate                                 : 29.9 kb/s
/ i  N% E3 u2 R5 F1 k' {( p8 nCount of elements                        : 2999  f# ~' N& c) @; T
Stream size                              : 26.7 MiB (0%)  X/ s. _. b% l
Title                                    : Spanish-PGS" p7 B' S% T) }9 p
Language                                 : Spanish4 A; i: l5 X& E/ j
Default                                  : No" c0 }" K3 f3 ]" ~# Y2 n
Forced                                   : No/ i  m) d( i  |! m. m$ I$ |( w* ^1 M
Original source medium                   : Blu-ray
: |  Y; R& p: S1 N
6 `7 i" k) e* iText #34+ b  a0 z$ g5 W0 q# ~' C
ID                                       : 50, E8 x" w$ H$ ~+ b' z, _/ g' _
ID in the original source medium         : 4793 (0x12B9)
/ s" C3 E+ z% OFormat                                   : PGS  s* G7 K( i9 V
Muxing mode                              : zlib8 k* M, `8 R' p( N4 G, z. W2 o
Codec ID                                 : S_HDMV/PGS
# \! \  s5 `6 m/ o  n) @; eCodec ID/Info                            : Picture based subtitle format used on BDs/HD-DVDs1 a+ M. r" N! D% p$ `2 k
Duration                                 : 2 h 4 min" @8 f3 _. m8 x9 J& t7 [3 Y
Bit rate                                 : 26.0 kb/s
7 M1 w; Y' z" v' ~Count of elements                        : 2224
9 h& e6 P4 Y9 [" x! sStream size                              : 23.2 MiB (0%)
5 _% z! r! A- B2 }6 v; @1 @Title                                    : Swedish-PGS
2 A) w6 T$ U' E' b2 u3 NLanguage                                 : Swedish
3 {* ~! Y! |0 {. a" V- [1 h& H5 VDefault                                  : No- F! \& @8 H) I. A2 C
Forced                                   : No
" t3 h9 c2 b2 K5 Z0 [- H8 x# bOriginal source medium                   : Blu-ray
5 {$ l+ a4 B. [9 M3 R3 |: v& w4 h4 D
Text #35
! |6 F+ }4 a# I7 _4 JID                                       : 51: l' q9 H% w( ]" |8 J1 c5 L: Y
ID in the original source medium         : 4794 (0x12BA)
" E, H% d; Y3 y' X2 m1 pFormat                                   : PGS
7 K/ r/ `0 y: E+ eMuxing mode                              : zlib' n2 i6 T0 l- L( D  p) j
Codec ID                                 : S_HDMV/PGS
# A8 N( r- @- QCodec ID/Info                            : Picture based subtitle format used on BDs/HD-DVDs
8 w' S3 C% t3 `5 [& ~) YDuration                                 : 2 h 7 min
2 S' {4 e8 \, o9 [Bit rate                                 : 29.2 kb/s
, ~2 l' Q& f4 o# D' kCount of elements                        : 3499
# V4 L) r; Q! a. ~8 f( BStream size                              : 26.7 MiB (0%)
. Z) {% N) t2 F. X9 U6 H% @Title                                    : Thai-PGS  _1 P" u" h4 B& r6 c; ~! ^
Language                                 : Thai
+ W2 f, `9 o, D2 E7 bDefault                                  : No
- f" S3 u: j7 L. [, F" u9 WForced                                   : No
4 w, v/ ]" s1 f6 m; U4 @Original source medium                   : Blu-ray! V" H  B1 g8 J

! p+ h; c2 [+ V5 a) KText #36/ a& o- ]- ]& i3 q$ a0 O
ID                                       : 52
% t$ A" @( t/ u3 RID in the original source medium         : 4794 (0x12BA)7 Y& L- \% e: f0 n% N# V# q; X
Format                                   : PGS
) E& R  _% E# V5 G% b; `Muxing mode                              : zlib1 E- z- v% Y$ k5 z
Codec ID                                 : S_HDMV/PGS/ I5 [: R! d- t
Codec ID/Info                            : Picture based subtitle format used on BDs/HD-DVDs, O7 V. J- d$ G7 _
Duration                                 : 2 h 3 min
# L- J$ T/ d9 h6 jBit rate                                 : 519 b/s' A. n5 `" X- B) Q- ?
Count of elements                        : 62
& a6 U4 R5 M1 V7 c3 f8 C- wStream size                              : 471 KiB (0%)
, S+ @) x7 Z9 w' DTitle                                    : Thai-FORCED-PGS
9 d5 L, l' a/ t+ W# qLanguage                                 : Thai5 V. ?1 v; W6 {$ U( n
Default                                  : No
& U1 D, T$ \7 }+ }/ wForced                                   : No& z# b9 ~$ J# l: D0 k* s
Original source medium                   : Blu-ray
9 D* Z: o* e0 C# s) H5 `
$ s! r+ j# m  m9 g9 W* @. A" p+ b- JText #37. O2 c: s  U" e2 C3 \+ z
ID                                       : 53
9 N/ g- G( y: x1 B# X( p6 sID in the original source medium         : 4795 (0x12BB)
, b" ^1 k) P) F5 T/ R6 s' Z" tFormat                                   : PGS. r/ p# X9 C3 P, |) A; w! j
Muxing mode                              : zlib" t3 \/ s" A9 |1 f+ }7 Y% ]% E: S
Codec ID                                 : S_HDMV/PGS
! t9 r- `# [. Y' W/ ACodec ID/Info                            : Picture based subtitle format used on BDs/HD-DVDs( M8 P) ?# U# G- m. G
Duration                                 : 2 h 4 min* L8 M3 d) e7 o- N1 p5 a. S  G. \5 E
Bit rate                                 : 31.5 kb/s0 ?! Z8 T; d9 W' u# Z
Count of elements                        : 33395 y! v: C; M  L, S
Stream size                              : 28.1 MiB (0%)
) e1 [3 S0 A# a* c! o: F0 CTitle                                    : Turkish-PGS0 }; w2 ~* O' n  a3 Q. ?
Language                                 : Turkish
/ |- E( n5 ^* C; A) T: `4 bDefault                                  : No
7 w- C) R. u; c1 y, k. kForced                                   : No6 x4 i  Q, j  u% B- L
Original source medium                   : Blu-ray
' ]0 Z3 I8 f% }' H8 D, {0 B; }" @; z9 o! W4 j3 V
Text #38
; f4 t# z, {) x8 sID                                       : 54
! H, T  j+ p8 Q9 A0 x; d! gID in the original source medium         : 4796 (0x12BC)
0 A0 h& b! Y6 M1 s/ w% PFormat                                   : PGS7 \  D, w; [1 F: I) ^! d* u, p8 V( n
Muxing mode                              : zlib
4 r$ c2 \; z& }, M& ECodec ID                                 : S_HDMV/PGS
1 u6 E( g( l, ^3 F  kCodec ID/Info                            : Picture based subtitle format used on BDs/HD-DVDs  M& q0 ?! ]- z4 N$ q- ~; v9 m: O
Duration                                 : 2 h 3 min
' w7 x* Y) ~4 dBit rate                                 : 542 b/s
0 w! f; d3 A) L& W3 r: L3 mCount of elements                        : 50' }0 v1 q* j) I" q/ ]( u' `8 d
Stream size                              : 492 KiB (0%)
. i  E; j* n/ ]  VTitle                                    : French-FORCED-PGS. I3 a1 h" o3 }
Language                                 : French
* z( [2 z& s& dDefault                                  : No7 ~7 p3 @0 g6 F& ~% j9 k
Forced                                   : No, C* V" k4 u$ r+ w/ ?
Original source medium                   : Blu-ray& J) Z. {0 @) Y0 o
4 d: n1 ~9 A# P: _) [7 n+ R4 S/ M9 n
Text #391 ~& G0 e1 P3 f; _% k7 w
ID                                       : 55# {9 c. W2 R- a' s' a* c6 f
ID in the original source medium         : 4796 (0x12BC)" M) }, ^* c+ ~( l' i8 k4 R
Format                                   : PGS" {/ e0 M0 h& p! y' E1 z5 H
Muxing mode                              : zlib
- }: G5 U7 _8 T3 G1 y# G- UCodec ID                                 : S_HDMV/PGS* O) h  V+ c2 p3 \# O9 y9 l" u
Codec ID/Info                            : Picture based subtitle format used on BDs/HD-DVDs
. A: n' }' P0 g: |2 gDuration                                 : 2 h 3 min
& L2 F5 B9 I4 w' [) D6 F. tBit rate                                 : 542 b/s
7 c( w0 l7 J  D" F1 c1 sCount of elements                        : 50
3 t; L9 z/ d" T8 L( y3 I. aStream size                              : 492 KiB (0%)
8 F3 C2 ~! Q, L) }# VTitle                                    : French-FORCED-PGS
1 R5 V  z& l! z$ d. GLanguage                                 : French
7 D# b7 `6 [. a# n0 @- ]Default                                  : No+ g% s- W5 i) e# Y- \
Forced                                   : No! X" }- l9 |( V7 w* V1 Z* R
Original source medium                   : Blu-ray
" g# O, O# _% {+ T5 a; _, g* ~
, @/ u2 ~5 ~- p" n: r/ p1 y3 I3 ~Menu
* z( V1 }3 [: V6 V1 q! s6 L8 P8 m$ X00:00:00.000                             : en:Chapter 01
: m& e- x% B2 \1 ]$ Z6 L7 R/ o7 C00:06:35.019                             : en:Chapter 02+ C+ Y% Z( J: ^  T9 _7 _" \; t
00:17:06.608                             : en:Chapter 03
, o( \2 `+ J7 k7 Y, s7 C00:22:09.244                             : en:Chapter 04( X( Z- [8 P# p
00:29:42.071                             : en:Chapter 056 i7 M: g3 ?  M5 j
00:36:18.301                             : en:Chapter 06" y& _5 r2 @$ @
00:46:49.723                             : en:Chapter 07
7 \+ |" v* d4 k00:53:11.897                             : en:Chapter 08
* {4 v0 _( c) T9 p9 ?+ d: s- R/ ?00:57:57.390                             : en:Chapter 09  L4 @+ Q0 V, \5 I
01:07:31.672                             : en:Chapter 10  f9 G0 H% i0 O( m
01:14:26.962                             : en:Chapter 11
1 `! o. o2 {- |4 v$ l01:22:28.193                             : en:Chapter 122 Y: P; n# p! V3 {
01:30:11.197                             : en:Chapter 130 i" Q0 \( h9 r# x) @
01:36:05.134                             : en:Chapter 14" D2 k" M" C9 q& f9 @: z
01:43:25.449                             : en:Chapter 159 E1 u1 F: l  v! v. q
01:53:45.151                             : en:Chapter 16

% b1 A5 J. `' f. y1 a" Y: @
游客,查看本帖隐藏内容请回复 | 加入VIP贵宾组可免积分免回复下载 立即了解 | 还不是会员:点击获取邀请码 Invitation Code

10

主题

1190

帖子

6379

积分

Sponsor

金币
821 枚
体力
3180 点
QQ
shiji1973 发表于 6 天前 | 显示全部楼层
感谢分享精彩电影

35

主题

999

帖子

3807

积分

Sponsor

金币
434 枚
体力
1334 点
lanpanshuma 发表于 昨天 05:20 | 显示全部楼层
这么好的帖子不回对不起自己!% E. ?( |# H1 G+ m0 }9 m9 e
Not see, I am a novice, the inadequacies of the first Please bear with me!5 `8 m& @( I4 j$ K9 L( W* I, D% O' g
该会员没有 ...

553

主题

1677

帖子

1万

积分

VIP advanced

金币
1278 枚
体力
3892 点

公主勋章卓越贡献勋章

21cn 发表于 14 小时前 | 显示全部楼层
啥也不说了,楼主就是给力!

0

主题

322

帖子

1582

积分

Sponsor

金币
75 枚
体力
879 点
zt6895 发表于 2 小时前 | 显示全部楼层
Bluraycd又有新电影发布了,激动中……!
: S8 G6 j  o5 h, ^2 w6 j8 H8 xBlu-ray Film Forum: I will always support you!! E  Q% |. p# H4 p. v" i

本版积分规则

小黑屋|Archiver|蓝光电影资源网

GMT+8, 2020-7-5 15:31

快速回复 返回顶部 返回列表