BluRayCD Forum

 找回密码
 立即注册【分享大片】

QQ登录

只需一步,快速开始

查看: 22|回复: 3
收起左侧

[科幻恐怖] 血量子/尸家禁地/血疫 Blood Quantum 2019 1080p BluRaycd x264 DTS-HD MA 5.1-FGT 10.13GB & 8.91GB

[复制链接]

3719

主题

4088

帖子

3万

积分

Post Share

金币
6770 枚
体力
6143 点

卓越贡献勋章

mvods 发表于 2020-7-13 17:14:43 | 显示全部楼层 |阅读模式

- L! G$ {" o+ N0 K+ u: h
+ w8 c' C2 N3 y0 L4 i◎译  名 血量子/尸家禁地(台)/血疫(台)9 B6 M0 p+ Z$ u
◎片  名 Blood Quantum
  a: `5 M& G8 A% u1 k* |◎年  代 20195 K. y' u0 o1 X: X$ ~2 x
◎产  地 加拿大
( ]3 J3 a3 M$ r* j; M◎类  别 恐怖; u: V0 \2 Y+ W
◎语  言 英语/米克马克语
% `+ a5 ~) L. k$ S: s8 \◎上映日期 2019-09-05(多伦多电影节)
8 U& c8 X: Z  c; w: S◎IMDb评分  5.6/10 from 1,388 users
3 A" r+ a# R, m9 B: B◎IMDb链接  https://www.imdb.com/title/tt7394674/
) o. ~* V0 `) w! i8 [7 P) Q◎豆瓣评分 4.8/10 from 133 users
+ e5 t* k: p  E+ K9 h8 w; T◎豆瓣链接 https://movie.douban.com/subject/33432158/
5 d: ?) o5 u0 m+ y  t' c) F; X◎片  长 1 h 38 min
, G& y3 m, e3 c- l* `◎导  演 杰夫·巴纳比 Jeff Barnaby( ~0 U4 H( q3 ]2 j* M! [. C
◎编  剧 杰夫·巴纳比 Jeff Barnaby8 ]7 P2 v; F7 d" S
◎主  演 麦克尔·格雷耶斯 Michael Greyeyes
! @1 T! h, ]3 e+ j" W       Elle-Máijá Tailfeathers
& H+ j# E. C( a. T) L       福勒斯特·古德勒克 Forrest Goodluck
& A/ M3 H$ K. X$ G4 Q       凯欧瓦·高登 Kiowa Gordon) ]8 r/ K! G! q* B4 r+ o
       奥利维亚·斯克里文 Olivia Scriven
9 |$ O; W, ]; G1 K; X       Stonehorse Lone Goeman
/ ?1 U, w' q$ N) T- X1 h6 }" k4 l       Brandon Oakes
* [: R  X+ r- C5 z/ ~       威廉·贝勒 William Belleau* K( u% X9 G4 w5 W( u. [1 e
       德芙丽·雅各布斯 Devery Jacobs/ I5 l( T( E% M% A! R$ g% j9 O
       加利·法梅尔 Gary Farmer. S# Z4 \5 }( x  X
       费利西亚·舒尔曼 Felicia Shulman* q& f) L! l& Q+ f/ g
       Lake Delisle, _- d- ]& y4 p3 v+ C' i
       特洛文·海斯 Trevor Hayes& M. ^# O+ S4 O/ A$ S; b
       Marc Assiniwi
: i( i# C  T) K* w       Natalie Liconti
5 Z0 g* O# _9 a! q+ w0 B+ A# c3 t- N+ t+ x& Y% S* n
◎标  签 丧尸 | 加拿大电影 | 血腥 | 恐怖 | PB-BusanC午夜激情单元 | 恐怖惊悚悬疑重口血腥 | 加拿大 | 2010s
2 ~8 @1 N* H2 L& S" V4 [# e5 p' `" [
◎简  介  4 v) N# A. n' w  A

5 t9 M& \- [/ n; `  死者正在红乌鸦孤立的米格马克保护区外复活,除了它的土著居民,他们奇怪的免疫僵尸瘟疫。
0 ^# q( n5 x+ Q, a9 t: @  @/ x& V' u! d  M$ n9 l
  The dead are coming back to life outside the isolated Mi'gMaq reserve of Red Crow, except for its Indigenous inhabitants who are strangely immune to the zombie plague., ^6 D/ C" ~- Q- I
Video
2 h1 g& r5 @8 G& |ID                                       : 1
" Z$ Y# \2 U6 {) Q' BFormat                                   : AVC+ D& I6 T' j6 m2 u' ~7 \
Format/Info                              : Advanced Video Codec
. M# g* s6 }6 y$ O+ x. @Format profile                           : High@L4.1. J6 C8 B% _2 O. K9 k, W$ G
Format settings                          : CABAC / 4 Ref Frames
. ]$ `7 O9 _# e$ m- F- LFormat settings, CABAC                   : Yes+ k6 {! Z/ m+ t# W$ }+ D% g! l
Format settings, Reference frames        : 4 frames+ a2 X- j* @# m- R9 C4 `' M) }
Codec ID                                 : V_MPEG4/ISO/AVC
! `' w2 T* C0 J7 ]* R+ e3 t( k, KDuration                                 : 1 h 38 min9 b, X7 p7 q' Q
Bit rate                                 : 11.5 Mb/s& U. L3 t4 e/ L) q  C. U6 A! ^
Width                                    : 1 920 pixels$ m1 N+ x. F& b3 w/ D5 t
Height                                   : 804 pixels
* T9 {( J/ u. J& }7 Z& n& mDisplay aspect ratio                     : 2.40:1
" o& Y& @. P! Y; V" w. V! C2 y- ZFrame rate mode                          : Constant, b0 q5 J' \* O, e4 s* k: N$ Z& u
Frame rate                               : 23.976 (24000/1001/37687) FPS
' C3 G0 h4 D  X8 x* {1 Y+ FColor space                              : YUV, a: P* R0 K, o9 y6 u3 L
Chroma subsampling                       : 4:2:00 Y( I0 R* @! n8 f4 J( C
Bit depth                                : 8 bits2 |: W, {1 i6 a9 T7 x: c
Scan type                                : Progressive
6 L4 M* A3 x$ M; UBits/(Pixel*Frame)                       : 0.311
0 [# V1 T/ [" D5 F3 u+ i1 _/ B# d' XStream size                              : 7.87 GiB (78%)
+ K5 ]: {% E, bTitle                                    : Blood.Quantum.2019.1080p.BluRayCD.x264.DTS-HD.MA.5.1-FGT
, _; Y& F6 ^$ k# t* qWriting library                          : x264 core 148 r2748 97eaef2+ L2 o7 R! G( N' V4 {0 f
Encoding settings                        : cabac=1 / ref=4 / deblock=1:-2:-2 / analyse=0x3:0x113 / me=umh / subme=9 / psy=1 / psy_rd=1.00:0.15 / mixed_ref=1 / me_range=16 / chroma_me=1 / trellis=2 / 8x8dct=1 / cqm=0 / deadzone=21,11 / fast_pskip=1 / chroma_qp_offset=-3 / threads=72 / lookahead_threads=3 / sliced_threads=0 / nr=0 / decimate=1 / interlaced=0 / bluray_compat=0 / constrained_intra=0 / bframes=3 / b_pyramid=2 / b_adapt=1 / b_bias=0 / direct=3 / weightb=1 / open_gop=0 / weightp=2 / keyint=250 / keyint_min=25 / scenecut=40 / intra_refresh=0 / rc_lookahead=50 / rc=2pass / mbtree=1 / bitrate=11500 / ratetol=1.0 / qcomp=0.60 / qpmin=0 / qpmax=69 / qpstep=4 / cplxblur=20.0 / qblur=0.5 / vbv_maxrate=31250 / vbv_bufsize=31250 / nal_hrd=none / filler=0 / ip_ratio=1.40 / aq=1:1.00# |" l% ?' \, ~# c
Language                                 : English. ?& h* O9 l0 F5 P* w# [" G
Default                                  : Yes" i1 U/ I1 C0 J1 W0 ?5 t
Forced                                   : No
- C9 [9 z; A! z0 l5 ^. f4 [' N& \/ @8 _1 |+ A
Audio
' O5 u/ p* A$ t! w3 aID                                       : 26 s5 [+ t+ z2 ~' i; V
ID in the original source medium         : 4352 (0x1100)
5 Z  Y: @  y' |# FFormat                                   : DTS XLL
8 H+ `5 z5 T- V9 ?8 B# m! u* ]8 ?Format/Info                              : Digital Theater Systems
/ H. R' q2 p& T) \9 P7 SCommercial name                          : DTS-HD Master Audio
! X5 |. e: q( x; U- K: ]& hCodec ID                                 : A_DTS1 u  [3 \: A8 C8 R6 n7 R
Duration                                 : 1 h 38 min5 H. D7 Q2 o+ ^9 n" ?) W
Bit rate mode                            : Variable
' M, y$ w( e2 n% e1 b5 G& }2 g9 YBit rate                                 : 3 292 kb/s
& ^9 i6 s0 n9 S% z) Q& O9 fChannel(s)                               : 6 channels
( X# Y" k; i4 IChannel layout                           : C L R Ls Rs LFE" B4 q* W3 G: d/ T2 [8 ~
Sampling rate                            : 48.0 kHz: S. N9 m" [0 _- S2 S4 a, }
Frame rate                               : 93.750 FPS (512 SPF)
5 S* O$ p4 m1 G- KBit depth                                : 24 bits
4 E: \3 V8 B8 \% R) M7 VCompression mode                         : Lossless
  f6 D) K& p: J6 S: H' x. z5 XStream size                              : 2.25 GiB (22%)- \" S, _, a+ Z) t  Q! Z% H% `
Title                                    : Blood.Quantum.2019.1080p.BluRaycd.x264.DTS-HD.MA.5.1-FGT
# r2 H4 l$ m1 Q* ULanguage                                 : English% T8 q2 f5 J+ M) h. N6 m; I+ b; f
Default                                  : Yes
8 ?$ y7 w+ {' R, b5 ]Forced                                   : No
, n# Z; e5 v+ L: d1 ]Original source medium                   : Blu-ray
0 E% ~" n( f+ L2 r. D% y0 u
' z1 t8 ^( C3 }+ K  E  eText #1
; K6 n  Y5 {4 K  I% R  V$ O( DID                                       : 35 i1 M* H+ _0 G
Format                                   : UTF-83 v( {- @$ D9 {1 d
Codec ID                                 : S_TEXT/UTF8
6 z6 A% \! c; Q! z9 \Codec ID/Info                            : UTF-8 Plain Text
8 A* \$ O  A$ H) T0 S% FDuration                                 : 1 h 17 min
, X* A0 z) t! Q7 U& e9 {8 v5 oBit rate                                 : 1 b/s
8 u  n6 T, \) X* Y) ?Count of elements                        : 30# o) S' K7 m5 J
Stream size                              : 638 Bytes (0%)
' C0 G7 [9 O8 V1 \  W6 @( S1 p1 K8 JTitle                                    : English-FORCED-SRT
# t0 n8 M% y" g: m& ]2 D& l" H+ U3 HLanguage                                 : English! h  H1 F" F  r# J
Default                                  : Yes0 b: v3 C; F) I( E( l, P* k1 s6 t  f
Forced                                   : Yes) e# Z- `+ P/ Y& V: Q7 P5 r
2 F) T7 Q4 ?6 W4 G6 G6 k, N
Text #25 V- S' E+ R: P
ID                                       : 4
1 U6 N2 r8 B! GFormat                                   : UTF-8( T' {* ~, F! \
Codec ID                                 : S_TEXT/UTF8" u) p/ ?2 p8 g
Codec ID/Info                            : UTF-8 Plain Text, I9 y) d6 s1 d) W- y/ a% G
Duration                                 : 1 h 31 min* s8 a8 _2 O4 Q4 D8 z/ g& _/ u0 Z
Bit rate                                 : 41 b/s
( m9 ]0 y3 [. |2 ]/ P! ?7 fCount of elements                        : 9083 a7 g) m4 y2 [6 J) p. g5 K6 ]
Stream size                              : 27.9 KiB (0%)% I* i& a& t7 t- E! _
Title                                    : English-SRT
, H9 T/ T+ z% e9 a8 K2 j6 Z6 dLanguage                                 : English
9 v. N( b$ x! n2 s( P4 cDefault                                  : No
' t/ g$ V1 Z$ mForced                                   : No
" \- n* L9 N+ H
) O+ ]% J  Y$ ~Text #3
9 {0 w$ W; d: f9 T  w' I/ y& BID                                       : 5
2 W; `9 ]0 K$ ?' X% ?) M1 tID in the original source medium         : 4608 (0x1200)& t& i% e+ I0 E( V+ Z8 |! u
Format                                   : PGS
8 f% N  i0 i& C' h9 d' \0 t2 UMuxing mode                              : zlib
' k) ~% A' W( f* c3 ?0 J- WCodec ID                                 : S_HDMV/PGS
+ y8 x5 R' {6 O+ uCodec ID/Info                            : Picture based subtitle format used on BDs/HD-DVDs
; C$ v. g. X: j: q8 e; ~3 h$ ?8 P; v8 oDuration                                 : 1 h 31 min
9 n- w" f. y* T" b6 VBit rate                                 : 20.4 kb/s! ]1 Q6 S6 o" f: d! t& X+ D  K7 t0 }
Count of elements                        : 21160 y5 Y8 }1 [$ F
Stream size                              : 13.4 MiB (0%)/ m' E4 q$ `8 p0 ^( O: c
Title                                    : English-PGS
0 \8 E* S$ a2 eLanguage                                 : English# k; r1 Z- |5 n( f4 N/ F% \3 a
Default                                  : No; o4 y1 y+ L( B; C# |
Forced                                   : No
+ }  Z/ i0 s3 F2 }Original source medium                   : Blu-ray
% X) H' J- d; L# O6 N8 [2 E( ]0 V) o+ M$ l! C0 W9 Y5 Y
Text #4
$ r! ~& y/ |$ }6 ~8 aID                                       : 6
  G+ c) i$ \5 t; E! GID in the original source medium         : 4609 (0x1201)+ j- a7 C) y4 \4 F; T0 Q' U
Format                                   : PGS6 T1 |) p4 M) T, L+ m6 k# x4 A
Muxing mode                              : zlib. x" c# [. R8 o, e5 R. O
Codec ID                                 : S_HDMV/PGS2 k* O" ]* @+ b4 m2 w: [
Codec ID/Info                            : Picture based subtitle format used on BDs/HD-DVDs- U0 R+ a2 G$ T; O8 D* }
Duration                                 : 1 h 17 min
( q# Q/ n! {( R. I2 D7 e) gBit rate                                 : 478 b/s; s- d$ V/ T7 d
Count of elements                        : 60
% D$ ?" o8 z+ q+ AStream size                              : 271 KiB (0%)
# w( C' h+ h1 o! K8 l2 U( sTitle                                    : English-FORCED-PGS
9 |+ D- X% D' A# N) K* KLanguage                                 : English
8 _+ P; P& E$ T0 G; @9 J. [Default                                  : No& a) c  {; W. m" o% h$ T6 c# E
Forced                                   : No
# u( o, _. q# s: a: COriginal source medium                   : Blu-ray
% w7 Z3 @( e! @; K$ G
& n) R5 `# {' @5 F. C% AText #59 W$ s% ]) u) k' c( [
ID                                       : 76 }' X- K9 s9 x$ a/ Q
ID in the original source medium         : 4610 (0x1202)1 A5 H5 N: v1 s8 f( P
Format                                   : PGS
) i: O" k" Q9 z  l* ]Muxing mode                              : zlib
4 ~% w7 _3 t' U2 Z  ?Codec ID                                 : S_HDMV/PGS
! m9 h3 e+ X  HCodec ID/Info                            : Picture based subtitle format used on BDs/HD-DVDs
4 t# f9 f. K+ a& `% t! lDuration                                 : 1 h 28 min$ g7 l3 |0 l- f$ u5 y
Bit rate                                 : 838 b/s2 ]6 o; |! G: l  ]
Count of elements                        : 88, q* Y' y* e& V& B0 l
Stream size                              : 544 KiB (0%); E, X+ L4 c+ o& f% J. K
Title                                    : French-PGS
& j: p9 _4 a/ L1 bLanguage                                 : French& M5 C+ p7 T' i) }/ v
Default                                  : No. ~" k0 a$ _7 C2 c% x& ]1 Z: l2 h
Forced                                   : No  W2 k0 E: M/ o" J# ^: ~/ T; H
Original source medium                   : Blu-ray
! z4 x( q9 N( E6 A  L
4 y2 e7 C+ Y  _6 ]5 j9 X# HMenu
$ k* O7 L. T( v; {6 H% R( s00:00:00.000                             : en:Chapter 00
! I6 u  o8 f2 M4 {00:00:17.017                             : en:Chapter 010 r' H* c# y  u) Y- x3 p( }; B- X6 m
00:06:17.085                             : en:Chapter 02) g- {3 Q' f  }# S# ]; ~/ v
00:12:05.933                             : en:Chapter 03* x5 ]5 ?/ T0 g9 f
00:18:16.470                             : en:Chapter 048 ^( ~7 }+ c7 V  L3 E, T
00:23:06.134                             : en:Chapter 05
* E( Z2 I) T6 L  o( K, n( i& G00:30:19.609                             : en:Chapter 06% c3 k6 ^0 p$ ~! E% ~
00:38:44.405                             : en:Chapter 07  w+ M: ^* A5 |% s
00:45:24.221                             : en:Chapter 08" F0 P# u* m) K5 `) A1 N
00:53:21.364                             : en:Chapter 09- @; R- g. m' l( Q2 W8 I1 a8 d
00:59:46.708                             : en:Chapter 10
3 O* Q2 M) v/ f01:06:15.012                             : en:Chapter 11
4 r- Z" w6 a* T# j* T- U. S. X01:10:42.655                             : en:Chapter 12
* b# m. O8 L5 X1 b6 M2 j% j$ p8 w01:16:28.709                             : en:Chapter 13( m) E: T5 x4 u- K3 [) x
01:22:38.745                             : en:Chapter 14: `8 K' s) |& s  G/ b4 H& B, {' k
01:27:35.792                             : en:Chapter 15' I- p$ b9 z; w, S: `' s. k2 F
01:34:45.763                             : en:Chapter 16
Video* N% d& B# c7 z- J8 ?9 v
ID                                       : 1
4 M* @- m! S! k5 ?5 H" G# mFormat                                   : AVC
& V0 r/ K9 l/ k+ u6 vFormat/Info                              : Advanced Video Codec- S5 B9 V0 u, q4 D! t* z
Format profile                           : High@L4.1$ c0 ]- k6 Q3 I$ f0 M
Format settings                          : CABAC / 4 Ref Frames
8 s7 }1 Y: E+ QFormat settings, CABAC                   : Yes
9 z0 B% ?3 y9 fFormat settings, Reference frames        : 4 frames4 t6 @( ~1 l( }- X0 h
Codec ID                                 : V_MPEG4/ISO/AVC
- g( t1 Q7 M$ h/ g+ F3 `Duration                                 : 1 h 38 min
5 D5 O  s7 Z3 \- q8 FBit rate                                 : 11.5 Mb/s
8 `2 d. ~9 ~+ w/ S7 B; vWidth                                    : 1 920 pixels* O# s8 h" i& B; P- t5 O, c, C0 w/ d
Height                                   : 804 pixels9 [0 f( i! [# t" w' p7 V
Display aspect ratio                     : 2.40:1
$ K5 h8 {# t) q$ @( l7 i8 DFrame rate mode                          : Constant
- q' m* L" W4 @$ wFrame rate                               : 23.976 (24000/1001/37687) FPS& y7 u0 Y7 Z: L" V. n2 K% i5 _3 }
Color space                              : YUV: M: z# c+ C" J% x
Chroma subsampling                       : 4:2:0& m: r& M$ P( S& X; k
Bit depth                                : 8 bits
$ v4 O$ Z$ @- i% x, w& Z5 |$ oScan type                                : Progressive% p/ V9 a% h# g6 Q- a
Bits/(Pixel*Frame)                       : 0.311
# L! X' \3 f+ C! K: a  ~( C  O; zStream size                              : 7.87 GiB (88%)
; g  U" z9 ~+ y  a' bTitle                                    : Blood.Quantum.2019.1080p.BluRaycd.x264.DTS-FGT4 v- _" S2 i4 @# S! l; W" j, p
Writing library                          : x264 core 148 r2748 97eaef2- P8 v* T* M( D) x+ R
Encoding settings                        : cabac=1 / ref=4 / deblock=1:-2:-2 / analyse=0x3:0x113 / me=umh / subme=9 / psy=1 / psy_rd=1.00:0.15 / mixed_ref=1 / me_range=16 / chroma_me=1 / trellis=2 / 8x8dct=1 / cqm=0 / deadzone=21,11 / fast_pskip=1 / chroma_qp_offset=-3 / threads=72 / lookahead_threads=3 / sliced_threads=0 / nr=0 / decimate=1 / interlaced=0 / bluray_compat=0 / constrained_intra=0 / bframes=3 / b_pyramid=2 / b_adapt=1 / b_bias=0 / direct=3 / weightb=1 / open_gop=0 / weightp=2 / keyint=250 / keyint_min=25 / scenecut=40 / intra_refresh=0 / rc_lookahead=50 / rc=2pass / mbtree=1 / bitrate=11500 / ratetol=1.0 / qcomp=0.60 / qpmin=0 / qpmax=69 / qpstep=4 / cplxblur=20.0 / qblur=0.5 / vbv_maxrate=31250 / vbv_bufsize=31250 / nal_hrd=none / filler=0 / ip_ratio=1.40 / aq=1:1.00' `9 D# T1 [6 |
Language                                 : English
4 Q. F7 a5 y! ?Default                                  : Yes
4 S  G* _5 G! I  Z2 g5 F8 j* jForced                                   : No
  z- R  d/ h" b5 P+ o7 v* X# D8 I- g3 E+ A  K
Audio2 a: d" s: Y5 y. a, |
ID                                       : 2
2 }$ w+ k0 {4 S% Z$ B3 vFormat                                   : DTS: g& f: U+ x; p# ^
Format/Info                              : Digital Theater Systems4 C1 v$ U+ Z: V9 q# \
Codec ID                                 : A_DTS
' G% I0 S) M- U/ fDuration                                 : 1 h 38 min
% y; N, Z, v3 P, k" XBit rate mode                            : Constant
) G* U4 h$ c9 r+ q" vBit rate                                 : 1 509 kb/s
: k3 j( `5 M! B) N% AChannel(s)                               : 6 channels3 x* J5 k+ ~* F
Channel layout                           : C L R Ls Rs LFE' ?1 s# V/ b9 K3 I: i
Sampling rate                            : 48.0 kHz' y! ?, x! P1 M; ]
Frame rate                               : 93.750 FPS (512 SPF): f1 W: M. |# s5 s6 }' Y. O
Bit depth                                : 24 bits! q0 M3 g3 _8 Z
Compression mode                         : Lossy2 K5 e  _4 w+ t9 M4 U( p( S
Stream size                              : 1.03 GiB (12%)
2 Z, }' u7 C) k/ X. @, [  MTitle                                    : Blood.Quantum.2019.1080p.BluRaycd.x264.DTS-FGT
4 r1 E. e0 A+ l; WLanguage                                 : English) n- e* R0 ~2 j6 M' u' p! F
Default                                  : Yes' X" _* N& a6 ?/ I  e2 C
Forced                                   : No
1 q: X2 N; U' Y1 r+ ^9 K4 }/ T1 }
2 M5 U0 p+ n1 @) m5 x/ t- NText #1
% c% J1 k5 w2 q, }9 v. R5 ^ID                                       : 3) O% t* g, G$ o) y. m
Format                                   : UTF-8
% ]1 [5 ^2 ?, d  lCodec ID                                 : S_TEXT/UTF87 ]( H0 g% |8 b) q
Codec ID/Info                            : UTF-8 Plain Text# p9 V" w5 S8 |  e6 \  K1 T4 a
Duration                                 : 1 h 17 min
4 y$ Y% z  z; Q. H# ZBit rate                                 : 1 b/s" L& e% j- E7 n6 W" Z' y& C/ ~
Count of elements                        : 30% J4 g- e; e4 e5 g
Stream size                              : 638 Bytes (0%)7 K' B0 Q/ A, f8 [) x1 G; h. M
Title                                    : FORCED, a9 Z7 @' I; \4 S& D) b- A
Language                                 : English
/ y, G3 C! G1 T& B& hDefault                                  : Yes" P& `/ {9 C* T5 }
Forced                                   : Yes' W. q$ I; V( _& g) \

9 s  y3 s! h) B! `; KText #2; O0 A  K' Y, M# {
ID                                       : 4% ?. l- {# r1 a( A3 W* a- s! Z
Format                                   : UTF-8
# c+ F  [. p: v: q/ ~' C& uCodec ID                                 : S_TEXT/UTF80 M5 ?& R0 |! v$ F/ S9 r
Codec ID/Info                            : UTF-8 Plain Text
+ ?. ]- U3 L! P: NDuration                                 : 1 h 31 min
9 O- ?% O" e6 i. fBit rate                                 : 41 b/s, t. r4 [" ]5 G* ^4 J
Count of elements                        : 9080 _: S9 K& k' V# \
Stream size                              : 27.9 KiB (0%)
, S/ `( ]6 S1 N4 [Language                                 : English1 b8 m( V  D( m0 W
Default                                  : No- `! o: n) v& m( }9 d
Forced                                   : No$ e9 Y% x2 }( O" Q5 O

5 C, f- `9 n$ M7 H8 f; NMenu) ~* \# x- w; G) \  h/ E! k5 N& P
00:00:00.000                             : en:Chapter 00
: S* @9 {  S! o, s% M0 @00:00:17.017                             : en:Chapter 01
3 N# n; Q" g5 @) `5 A00:06:17.085                             : en:Chapter 02
7 z- b: T! }2 Q# B8 B00:12:05.933                             : en:Chapter 031 D6 i9 R% G: N5 ~, i* S
00:18:16.470                             : en:Chapter 04
2 H. B' r+ x2 ~: g00:23:06.134                             : en:Chapter 05
& w7 v0 A( K: a2 M00:30:19.609                             : en:Chapter 06
7 N( l8 @3 X  B0 ?; H3 }( ~& I  I00:38:44.405                             : en:Chapter 073 }$ `# g4 P- X7 {/ U$ Z
00:45:24.221                             : en:Chapter 08
. e" R& z+ m5 E  [/ D3 {% @! O" ?) S00:53:21.364                             : en:Chapter 09
  G- ^3 P- \: r; H4 r0 ?00:59:46.708                             : en:Chapter 10
, _1 K6 K7 X1 l4 C+ x4 b01:06:15.012                             : en:Chapter 117 M" V( Q( [0 @
01:10:42.655                             : en:Chapter 12
3 p: A: K, g, w6 Y- z3 i! M01:16:28.709                             : en:Chapter 133 q- B/ k9 V' a: r1 S
01:22:38.745                             : en:Chapter 14
- A/ ~, E  B8 s2 ?0 u# x& P& a01:27:35.792                             : en:Chapter 15
* ?4 [. P4 g% f8 i" t; k  @01:34:45.763                             : en:Chapter 16
8 i$ S. \4 r/ a3 Y! \6 P3 {
游客,查看本帖隐藏内容请回复 | 加入VIP贵宾组可免积分免回复下载 立即了解 | 还不是会员:点击获取邀请码 Invitation Code

2

主题

676

帖子

2907

积分

Sponsor

金币
597 枚
体力
1033 点
tto138 发表于 2020-7-13 19:23:48 | 显示全部楼层
沙发是抢的而不是占的!
+ O! `6 G# ?9 H" e! k5 HNot see, I am a novice, the inadequacies of the first Please bear with me!
, t" v% O  }0 G1 h

560

主题

1816

帖子

1万

积分

VIP advanced

金币
1467 枚
体力
4112 点

公主勋章卓越贡献勋章

21cn 发表于 2020-7-14 01:41:44 | 显示全部楼层
Bluraycd又有新电影发布了,激动中……!
5 }- a$ s) ~# r1 Q8 q" x3 a! @, l* mI love your Blu-ray movies Forum!. I3 N+ J# [( W5 W0 m

35

主题

1204

帖子

4264

积分

Sponsor

金币
219 枚
体力
1610 点
lanpanshuma 发表于 2020-7-14 09:11:15 | 显示全部楼层
Bluraycd又有新电影发布了,激动中……!
( q! ?9 Y$ z/ a7 F; OThank you for sharing such a good resource polite reply, very sorry for myself!3 `8 h' ~& Y- n& T  ?
该会员没有 ...

本版积分规则

小黑屋|Archiver|蓝光电影资源网

GMT+8, 2020-8-7 16:58

快速回复 返回顶部 返回列表