BluRayCD Forum

 找回密码
 立即注册【分享大片】

QQ登录

只需一步,快速开始

查看: 23|回复: 3
收起左侧

[科幻恐怖] 血量子/尸家禁地/血疫 Blood Quantum 2019 1080p BluRaycd x264 DTS-HD MA 5.1-FGT 10.13GB & 8.91GB

[复制链接]

4187

主题

4562

帖子

4万

积分

Post Share

金币
8181 枚
体力
7289 点

卓越贡献勋章

mvods 发表于 2020-7-13 17:14:43 | 显示全部楼层 |阅读模式
! b1 g7 |0 L7 m8 A+ ?3 D+ p  c

6 R; o& F- I$ B, [8 M( V◎译  名 血量子/尸家禁地(台)/血疫(台)
& D9 \& Y% x2 O# c2 a" m◎片  名 Blood Quantum
; W$ i/ y  y8 e* V3 f; V3 E◎年  代 2019
! i: m3 n: u' [3 t$ r% i◎产  地 加拿大3 ~6 Y& K5 Q2 E, n5 r% e0 ]) X
◎类  别 恐怖$ H: R# s, o2 e
◎语  言 英语/米克马克语
0 P7 E4 R' L9 f; m' d7 [◎上映日期 2019-09-05(多伦多电影节)
, m: C& c* p8 h* J- s% O+ \◎IMDb评分  5.6/10 from 1,388 users, R' Z  C/ O3 u: Y5 n
◎IMDb链接  https://www.imdb.com/title/tt7394674/
+ i" V4 R2 w0 I  m3 f8 B  c◎豆瓣评分 4.8/10 from 133 users
* a9 t1 X5 N" K1 T' L+ @◎豆瓣链接 https://movie.douban.com/subject/33432158/
  X1 e0 d2 I7 n# ^' W/ u◎片  长 1 h 38 min) F7 v$ k& l4 }6 O5 i
◎导  演 杰夫·巴纳比 Jeff Barnaby
, `; r& ]/ I+ Z& A  [- U◎编  剧 杰夫·巴纳比 Jeff Barnaby
! R* b1 j1 p. X0 u◎主  演 麦克尔·格雷耶斯 Michael Greyeyes
: v" Q$ C2 |. ?% W       Elle-Máijá Tailfeathers
/ R/ f# A, I& O       福勒斯特·古德勒克 Forrest Goodluck2 a3 Z4 ]% j4 a
       凯欧瓦·高登 Kiowa Gordon
- P, r  h9 }3 q/ M% ?$ J       奥利维亚·斯克里文 Olivia Scriven: k8 c  t. }/ l5 G* ^: H( N
       Stonehorse Lone Goeman& \* f/ G. w4 K2 L
       Brandon Oakes
# ?. L2 K/ v2 D$ [4 N       威廉·贝勒 William Belleau
! X% }3 j* x5 h2 P9 _       德芙丽·雅各布斯 Devery Jacobs7 l" s5 n# |! Z( \5 z& \$ }* `
       加利·法梅尔 Gary Farmer( `+ E/ m" z, ]! m& x; J
       费利西亚·舒尔曼 Felicia Shulman
+ X( C  H; q, _% l9 X2 A       Lake Delisle2 s; Q+ D8 v% Q, t# m' U- v8 R. Z
       特洛文·海斯 Trevor Hayes# w( u# }6 x3 F5 [, g# F
       Marc Assiniwi
' w8 P6 y9 ]. C: k5 |       Natalie Liconti
( W0 G% g0 \- B, D  G% X
; Y& _7 }7 E3 v3 `+ w9 I/ p◎标  签 丧尸 | 加拿大电影 | 血腥 | 恐怖 | PB-BusanC午夜激情单元 | 恐怖惊悚悬疑重口血腥 | 加拿大 | 2010s
* I& u( S8 r2 ?0 m" d- O. k" b, d1 Q/ s
◎简  介  3 l; i3 T2 B9 l* E: F
3 S) e: P& U7 l1 _5 N# n1 a% g
  死者正在红乌鸦孤立的米格马克保护区外复活,除了它的土著居民,他们奇怪的免疫僵尸瘟疫。
" j1 u1 [" r' ]1 x" |) Z  |- i1 `' n* F+ \- {0 b
  The dead are coming back to life outside the isolated Mi'gMaq reserve of Red Crow, except for its Indigenous inhabitants who are strangely immune to the zombie plague.
, m" y1 A; {. Y
Video
$ S; o- |* n" r! d, T( gID                                       : 1$ T& n6 @% r" ^7 I$ P
Format                                   : AVC
) ~8 R0 {8 C: x5 K6 GFormat/Info                              : Advanced Video Codec
8 j' n4 @7 S% \" G+ dFormat profile                           : High@L4.1
1 K/ y, y! V7 j" K. ~; e; }Format settings                          : CABAC / 4 Ref Frames
# Z0 T8 Y% E% y& P. CFormat settings, CABAC                   : Yes
- p* W$ Q6 o5 S& @- B' Q+ _& AFormat settings, Reference frames        : 4 frames
+ g" A7 C% g, r# ]8 V8 WCodec ID                                 : V_MPEG4/ISO/AVC
! L# ~( t2 w; U& ~8 K* XDuration                                 : 1 h 38 min8 D* c* M: t  p& m7 f& S
Bit rate                                 : 11.5 Mb/s. l$ \/ ^" m5 J) K& N2 G( `: w# M
Width                                    : 1 920 pixels
  V# i+ \4 t" n9 h0 VHeight                                   : 804 pixels
& ?# Q- d' d. t# P, v; ODisplay aspect ratio                     : 2.40:1
( p- k; b% Z( b$ d" Y6 l! M) iFrame rate mode                          : Constant
9 }0 J' Q6 _+ h, H0 AFrame rate                               : 23.976 (24000/1001/37687) FPS' e. C- Q' x. O& X
Color space                              : YUV) j8 y- D3 `. j/ |/ c
Chroma subsampling                       : 4:2:02 ?  T1 z! |3 ~( L* c3 h) P
Bit depth                                : 8 bits
! A% C# B8 s7 V8 Z; p% [, WScan type                                : Progressive
/ f" v) h/ \) E- T4 b" wBits/(Pixel*Frame)                       : 0.311: r% C7 z$ |6 s) _% {
Stream size                              : 7.87 GiB (78%)  u% Q8 i: t$ y4 G( f
Title                                    : Blood.Quantum.2019.1080p.BluRayCD.x264.DTS-HD.MA.5.1-FGT; e8 x1 l6 r9 E3 p3 P7 V
Writing library                          : x264 core 148 r2748 97eaef2
! L. P) S# |% H+ q3 W" R9 vEncoding settings                        : cabac=1 / ref=4 / deblock=1:-2:-2 / analyse=0x3:0x113 / me=umh / subme=9 / psy=1 / psy_rd=1.00:0.15 / mixed_ref=1 / me_range=16 / chroma_me=1 / trellis=2 / 8x8dct=1 / cqm=0 / deadzone=21,11 / fast_pskip=1 / chroma_qp_offset=-3 / threads=72 / lookahead_threads=3 / sliced_threads=0 / nr=0 / decimate=1 / interlaced=0 / bluray_compat=0 / constrained_intra=0 / bframes=3 / b_pyramid=2 / b_adapt=1 / b_bias=0 / direct=3 / weightb=1 / open_gop=0 / weightp=2 / keyint=250 / keyint_min=25 / scenecut=40 / intra_refresh=0 / rc_lookahead=50 / rc=2pass / mbtree=1 / bitrate=11500 / ratetol=1.0 / qcomp=0.60 / qpmin=0 / qpmax=69 / qpstep=4 / cplxblur=20.0 / qblur=0.5 / vbv_maxrate=31250 / vbv_bufsize=31250 / nal_hrd=none / filler=0 / ip_ratio=1.40 / aq=1:1.00
; z8 X% Y% G( E0 M' S. r3 X& \Language                                 : English
, V/ \0 t' c& w, Q. ]- E2 n& HDefault                                  : Yes
& R# F6 G/ K/ i* ^" EForced                                   : No6 y  `7 N4 i0 F: w9 Q7 W6 T
5 k7 O0 P6 ]# Z: o" ~5 T
Audio: y7 l- A$ x$ k/ Z3 F* m
ID                                       : 2% d+ [# Y9 j6 v! ^, w
ID in the original source medium         : 4352 (0x1100): M2 a) n* j3 E% Y: G! c# H
Format                                   : DTS XLL: @; ^! o" c3 V$ c
Format/Info                              : Digital Theater Systems
# z7 ?" {" W7 d3 m8 A, r5 ]Commercial name                          : DTS-HD Master Audio1 T% q' K/ u' V! i
Codec ID                                 : A_DTS8 C5 ^: _" {2 H* \% X; e* T
Duration                                 : 1 h 38 min
# e: c( D$ j- XBit rate mode                            : Variable! g! O& n# Z0 G; z
Bit rate                                 : 3 292 kb/s
: y3 D$ R) S8 _- J6 j* L( UChannel(s)                               : 6 channels1 {. q  Z' M  ]3 g  p; w
Channel layout                           : C L R Ls Rs LFE
, s' i4 y* @* }' K" V+ FSampling rate                            : 48.0 kHz% o" V% n" t% v, A& j3 x6 ^& a
Frame rate                               : 93.750 FPS (512 SPF)$ ]& W5 S0 D0 a! d; E' X6 _
Bit depth                                : 24 bits
* s, n. H) U1 L4 a& k2 }1 CCompression mode                         : Lossless
* @8 P# k1 P1 g9 @6 k& i4 i* nStream size                              : 2.25 GiB (22%); L+ v- o  v& e+ r1 \4 C8 o; z- z
Title                                    : Blood.Quantum.2019.1080p.BluRaycd.x264.DTS-HD.MA.5.1-FGT
. K: g( |6 B$ s/ A0 P- h0 ULanguage                                 : English
) ]0 L9 o5 j- w7 pDefault                                  : Yes
' b5 J/ n- k* Y! B$ d+ x; jForced                                   : No; `; n7 f" R$ o3 L) _0 t" r* h
Original source medium                   : Blu-ray3 G: e1 h4 n! q- k- a

5 E% E1 w: f9 qText #17 Q2 N# s/ x( }* |! H
ID                                       : 3
  n+ s* Q9 e5 Z1 l/ pFormat                                   : UTF-8: J# Q. T6 S+ e
Codec ID                                 : S_TEXT/UTF8
( g# K  g- _- {/ yCodec ID/Info                            : UTF-8 Plain Text
0 L( b# F/ @6 oDuration                                 : 1 h 17 min2 Y8 ?1 o, N! s( p9 C
Bit rate                                 : 1 b/s
+ z! g0 c3 D; I% x9 N/ @Count of elements                        : 304 ^0 N7 Y( Y8 M( ^
Stream size                              : 638 Bytes (0%)
# |7 B. k6 C& U& m  {1 k: }; c6 VTitle                                    : English-FORCED-SRT
; ^9 b; ^" H  ]Language                                 : English
0 J4 l$ w# `- q; r" NDefault                                  : Yes
6 A1 b" X  }$ t7 ]' e. RForced                                   : Yes
4 c3 G9 H; N% ~( T
9 k( ?6 k- i# mText #2! l; C+ }% w  w) U- v
ID                                       : 4
) [: |7 E# C2 [Format                                   : UTF-8
( A' _/ a/ j8 O3 K- u" D4 bCodec ID                                 : S_TEXT/UTF8
( ]+ g9 t. e) P1 D1 h% f- CCodec ID/Info                            : UTF-8 Plain Text
% ?& r, n) ]$ N$ WDuration                                 : 1 h 31 min
5 i1 z$ d, s0 e8 W/ HBit rate                                 : 41 b/s
% x1 M* q4 ]7 QCount of elements                        : 908' a7 G( u. h& m
Stream size                              : 27.9 KiB (0%)
0 H% x2 R: x- F2 z( P: }Title                                    : English-SRT
( \$ G3 i- D2 Q7 d" ?: JLanguage                                 : English
$ O; e( Y$ d- P" uDefault                                  : No: m0 k8 t$ R4 F( V
Forced                                   : No. o* l( m0 s3 _. ~8 C

) n! n, `- {& ~1 tText #3: R. M! q; V0 r8 b+ c4 R2 D
ID                                       : 5. B' ~0 W, p6 ~# s
ID in the original source medium         : 4608 (0x1200)2 r5 Y: `7 z+ ]) G# o
Format                                   : PGS6 B! x* p( f, r6 ~
Muxing mode                              : zlib
; X# a, v6 ?* HCodec ID                                 : S_HDMV/PGS& H# K( w$ u' O( V7 z' K% t, Z
Codec ID/Info                            : Picture based subtitle format used on BDs/HD-DVDs3 O: O- z3 C) M; i7 _' D
Duration                                 : 1 h 31 min
/ g3 \/ v; n* dBit rate                                 : 20.4 kb/s) O. B% j. C, t- j3 T
Count of elements                        : 2116
7 F5 i/ P# @& Q: ^Stream size                              : 13.4 MiB (0%)* Z% ]- P0 [, H) K
Title                                    : English-PGS
/ r2 Q9 F7 Y3 K; L5 i& m+ qLanguage                                 : English; @7 ~7 y% X6 u# ]! O
Default                                  : No
- q% u; k; _, {3 J1 `Forced                                   : No" R/ o4 y* m: L( C( r6 {  p
Original source medium                   : Blu-ray
; A! c2 P! B4 |) A$ \
) D& H- Y6 z" m/ {! ?4 n# V0 f' [  `Text #4
' X& p* w* d! ^! p7 c# ?6 ^ID                                       : 6
3 q" k  w2 g9 v3 N' {9 E0 LID in the original source medium         : 4609 (0x1201)
  b( K3 G  I2 j% o; yFormat                                   : PGS
* {8 j* J5 c. ^9 qMuxing mode                              : zlib5 N1 z( E* P5 C3 @; d% V& G
Codec ID                                 : S_HDMV/PGS
3 R3 k2 ]+ ~! i- b/ g4 B% G, X" ICodec ID/Info                            : Picture based subtitle format used on BDs/HD-DVDs: E" Z! K4 l  I; E
Duration                                 : 1 h 17 min
9 Q( l9 l1 X' s# D, u* b% ]Bit rate                                 : 478 b/s) q; Z* c# [: _- Z9 j# `
Count of elements                        : 601 F$ S; b- s, }, D0 j3 ?0 H
Stream size                              : 271 KiB (0%)% [6 [* R( f# E- g
Title                                    : English-FORCED-PGS
* I& \1 ]5 b' y8 {Language                                 : English
. r* P% @" k) r. f7 i) d9 DDefault                                  : No
9 q$ F6 `2 S7 W6 Z4 U0 p" OForced                                   : No
  ?1 N  s3 [* y2 _/ Y4 kOriginal source medium                   : Blu-ray# V  b( [/ G1 O" ~' p" T, K6 i
5 v* z  C  ^. W) g
Text #56 d& E7 i1 w& W9 K
ID                                       : 7
& Q0 r; f; f: f3 ]. }ID in the original source medium         : 4610 (0x1202)
- Y) K& N2 t$ u5 K( iFormat                                   : PGS* N; K: r8 D# U! l4 r; N
Muxing mode                              : zlib4 n  F: b" u  B6 T
Codec ID                                 : S_HDMV/PGS# C+ p# Y8 ^. t0 V  }% f
Codec ID/Info                            : Picture based subtitle format used on BDs/HD-DVDs
2 @5 ~) k/ U/ ZDuration                                 : 1 h 28 min. |6 g" d, W/ f! [2 M1 L* I* n
Bit rate                                 : 838 b/s, K/ B! A) E1 M7 B8 |
Count of elements                        : 88
+ J- ]! F# f+ w' X$ }! ]5 Z1 VStream size                              : 544 KiB (0%)4 B0 s& u7 Y' o% h7 W
Title                                    : French-PGS
" p- x/ o" u' o- v) z. v/ x) d! V+ HLanguage                                 : French
, Q" E# w4 j' j; y. ^1 ]Default                                  : No
& S2 @% C7 `" Y6 j/ S  rForced                                   : No, Z8 J1 ?1 J: F% E, B- F5 ?
Original source medium                   : Blu-ray% e& l6 {* V' _7 ^# b

- s1 k9 o# {* M( U' zMenu
. t5 C$ w5 R4 I$ U9 I  i3 j4 n00:00:00.000                             : en:Chapter 00
2 @& B) s2 A; {' G2 A00:00:17.017                             : en:Chapter 01
; a9 E8 m9 j# |. z7 q. C% s00:06:17.085                             : en:Chapter 02, w: c0 f0 ?- H
00:12:05.933                             : en:Chapter 03
) d' C+ L0 J4 p1 `; Y00:18:16.470                             : en:Chapter 046 L1 N! V1 S9 Q# D. q% Q: z6 D/ N
00:23:06.134                             : en:Chapter 05
# R% w# Q7 F4 {00:30:19.609                             : en:Chapter 06
9 U) v5 G* q' f00:38:44.405                             : en:Chapter 070 s5 W0 u6 m; ^
00:45:24.221                             : en:Chapter 08
) l9 p, n9 Z3 Z6 Z* k1 ^00:53:21.364                             : en:Chapter 09; V% P' o9 l  Q6 k( |6 [/ {# x
00:59:46.708                             : en:Chapter 10
$ W6 h) C; m& I/ y( G+ `1 g, r01:06:15.012                             : en:Chapter 11( g. c8 k1 k; M5 b  f' k
01:10:42.655                             : en:Chapter 12
* G- c3 U* q5 }# e' v01:16:28.709                             : en:Chapter 13
9 Q) p8 I4 {( f- J% W01:22:38.745                             : en:Chapter 14
8 o( M' P2 P7 F* B8 w: E01:27:35.792                             : en:Chapter 15
% K& t4 J/ Z( T1 n1 D7 D. V01:34:45.763                             : en:Chapter 16
Video% ?) M3 [" \$ b& \- T8 r2 i
ID                                       : 1( e9 ?& u5 V9 e5 E
Format                                   : AVC
) f- [: e% [3 K" w7 k* f3 AFormat/Info                              : Advanced Video Codec/ A0 v. J$ A; |# U# {" ]" m/ _
Format profile                           : High@L4.1
% c) O. W+ |' C9 XFormat settings                          : CABAC / 4 Ref Frames' C9 D9 \7 R. c/ _; w
Format settings, CABAC                   : Yes" Z: S; Y5 o$ m! a
Format settings, Reference frames        : 4 frames$ v9 g/ Z  [& m  B3 O% E
Codec ID                                 : V_MPEG4/ISO/AVC9 N9 x  j1 v3 S/ y( R9 ~4 A! s
Duration                                 : 1 h 38 min
0 L$ L/ g) P6 {5 n  v: `) cBit rate                                 : 11.5 Mb/s
' P) O0 y. X7 sWidth                                    : 1 920 pixels' g  }5 K. m+ c& g2 t9 w! d9 |
Height                                   : 804 pixels0 T" k/ J% H& e5 V0 h4 D
Display aspect ratio                     : 2.40:1
4 @/ l7 X. A) F& i4 s) mFrame rate mode                          : Constant5 ?& J! J% O3 {' Y% k1 x# t
Frame rate                               : 23.976 (24000/1001/37687) FPS
8 A7 v9 N& f7 c9 S" {' eColor space                              : YUV" R! |9 p8 \* Z
Chroma subsampling                       : 4:2:0
& H' U  B5 W7 n  X9 J4 P2 mBit depth                                : 8 bits
$ a# ~% E; \+ R1 z) DScan type                                : Progressive" i3 p, P. Q! N5 p
Bits/(Pixel*Frame)                       : 0.311: z' Y9 [6 \2 t. ]! U! U
Stream size                              : 7.87 GiB (88%)
9 d" n. i* ^3 i. y, zTitle                                    : Blood.Quantum.2019.1080p.BluRaycd.x264.DTS-FGT* N/ U8 X! P" D6 @+ e, }
Writing library                          : x264 core 148 r2748 97eaef2
$ l* o; R& e! p( L" l7 G# \3 zEncoding settings                        : cabac=1 / ref=4 / deblock=1:-2:-2 / analyse=0x3:0x113 / me=umh / subme=9 / psy=1 / psy_rd=1.00:0.15 / mixed_ref=1 / me_range=16 / chroma_me=1 / trellis=2 / 8x8dct=1 / cqm=0 / deadzone=21,11 / fast_pskip=1 / chroma_qp_offset=-3 / threads=72 / lookahead_threads=3 / sliced_threads=0 / nr=0 / decimate=1 / interlaced=0 / bluray_compat=0 / constrained_intra=0 / bframes=3 / b_pyramid=2 / b_adapt=1 / b_bias=0 / direct=3 / weightb=1 / open_gop=0 / weightp=2 / keyint=250 / keyint_min=25 / scenecut=40 / intra_refresh=0 / rc_lookahead=50 / rc=2pass / mbtree=1 / bitrate=11500 / ratetol=1.0 / qcomp=0.60 / qpmin=0 / qpmax=69 / qpstep=4 / cplxblur=20.0 / qblur=0.5 / vbv_maxrate=31250 / vbv_bufsize=31250 / nal_hrd=none / filler=0 / ip_ratio=1.40 / aq=1:1.00- J. ^8 ?; m9 B( h6 b
Language                                 : English
% C0 d) j. n* d2 `Default                                  : Yes
2 H1 @9 x, U$ ~$ XForced                                   : No0 ?! x6 g- F. l/ W' j
  i7 \2 I  f- ~% y6 M9 \/ \
Audio
: Z+ w2 R& j) |0 H8 F7 UID                                       : 2: n0 A: \& R4 @& O- q( J
Format                                   : DTS
& D  `% f& V8 `- ?& qFormat/Info                              : Digital Theater Systems
9 A$ I7 E  J+ w& m& D+ CCodec ID                                 : A_DTS3 U; A* _0 k/ [3 Z) c) E$ C
Duration                                 : 1 h 38 min
6 r5 R& L# R) c: {+ o( fBit rate mode                            : Constant6 L  m4 `; k2 g8 u2 G, V+ L9 L
Bit rate                                 : 1 509 kb/s/ a" Y3 ^  y  i' b. t. p2 m8 @  S
Channel(s)                               : 6 channels0 |# A  ^4 ]' E0 E
Channel layout                           : C L R Ls Rs LFE9 o8 `4 L9 j0 L+ r. S) N
Sampling rate                            : 48.0 kHz
7 L4 `8 c2 r6 [0 ^# CFrame rate                               : 93.750 FPS (512 SPF)
! s. ~6 K& |+ U; [3 y7 I! M3 a0 sBit depth                                : 24 bits  y1 B- `8 `3 z# N6 e+ r
Compression mode                         : Lossy
$ K. [# r0 }5 Q0 b7 d/ JStream size                              : 1.03 GiB (12%)
7 M, a) T7 X# G) iTitle                                    : Blood.Quantum.2019.1080p.BluRaycd.x264.DTS-FGT, D0 v/ e0 D+ Q" {: y# U8 \
Language                                 : English  \- G) v/ i4 F2 N
Default                                  : Yes
3 S8 Q1 d9 ^) l% sForced                                   : No
& d2 G0 T3 f$ @3 U2 @
& G: e3 k, p2 T1 ~3 A$ m" IText #1
: M: J7 @1 F, D4 b8 OID                                       : 3
3 `8 r" Y# }: H. U& BFormat                                   : UTF-8
. B3 c$ x4 w3 B' i& vCodec ID                                 : S_TEXT/UTF8
+ ^4 Q, `  ~& a/ r  @1 m( KCodec ID/Info                            : UTF-8 Plain Text
3 f) `7 n) x- V+ F& h2 i6 WDuration                                 : 1 h 17 min! X1 a9 ~' H4 [5 u5 M% X8 o# i
Bit rate                                 : 1 b/s. d3 Z3 b7 ^: Q3 @0 Y
Count of elements                        : 30
) p+ [' x" Q1 R, W; A9 w3 U! iStream size                              : 638 Bytes (0%)# g- ?4 w# j) J8 o# d( f% h  F
Title                                    : FORCED' ^3 e+ O* y. f6 c2 p7 j* S
Language                                 : English9 Z; F( L. w5 }
Default                                  : Yes7 K% T8 \+ k% b- y4 q/ |5 [: u. \$ ?
Forced                                   : Yes
( c" G+ x7 u" @/ B' P- V  {0 q4 m7 s( N2 q2 o/ V" H& R
Text #2
% Z) b" g  g; C. IID                                       : 44 q5 j+ A. Z* n; f  g
Format                                   : UTF-8
+ T* g, P/ v$ a% p6 wCodec ID                                 : S_TEXT/UTF8
) W" c" {5 ]9 J4 v$ \Codec ID/Info                            : UTF-8 Plain Text
5 a7 H; ^$ u: Z5 X5 vDuration                                 : 1 h 31 min
8 t& m+ q; h2 C- j$ pBit rate                                 : 41 b/s
. E: T. K: s, O% hCount of elements                        : 908( D" q- c  o2 Z- m
Stream size                              : 27.9 KiB (0%)* @2 `8 S$ j0 B8 S% v
Language                                 : English
  N7 Z4 Z1 N: n* q0 j" `. z" iDefault                                  : No
( F( Q+ v1 Z- A4 L! Z/ YForced                                   : No5 B6 D; t: h, q: l( c
' e- N. U$ Q' R; D; u6 ^- h4 }
Menu
7 L' o0 T% C6 ~5 H: S00:00:00.000                             : en:Chapter 00. y1 t. y, s' d7 w& L. I
00:00:17.017                             : en:Chapter 01
0 ^+ i5 [* w& `! R6 B5 O00:06:17.085                             : en:Chapter 02
6 z6 v/ D0 l/ @5 F1 x9 G00:12:05.933                             : en:Chapter 033 v1 y& l1 Z2 q4 @
00:18:16.470                             : en:Chapter 04
: Z. |& G2 E) _+ Z& Y) t" v* |00:23:06.134                             : en:Chapter 05
9 _  P# Q9 G4 V+ M+ ]- G00:30:19.609                             : en:Chapter 06: f; V2 E: b4 u+ O& t  V( N1 k1 O
00:38:44.405                             : en:Chapter 07! i% [7 j+ o' o/ j3 ]& |% j/ y/ c1 p
00:45:24.221                             : en:Chapter 08
- [+ i6 W8 l1 p2 A; L- m/ Q00:53:21.364                             : en:Chapter 09
9 H& {0 q$ o; G00:59:46.708                             : en:Chapter 10
9 [$ ^5 p0 g: h0 J) M01:06:15.012                             : en:Chapter 11! G& g% h4 L. X' M) L" E8 `4 a5 ^
01:10:42.655                             : en:Chapter 122 |; F* C& G: }
01:16:28.709                             : en:Chapter 13
- f0 l' |# G" g* t+ q8 d/ Y2 c01:22:38.745                             : en:Chapter 14- p2 G8 \. Z4 \+ j  u
01:27:35.792                             : en:Chapter 157 v* q2 G6 @" R! p7 _! {# b2 k2 y
01:34:45.763                             : en:Chapter 16

8 k4 f' `: p) {: N( n
游客,查看本帖隐藏内容请回复 | 加入VIP贵宾组可免积分免回复下载 了解详情 | 还不是会员:点击获取邀请码 Invitation Code

2

主题

715

帖子

3295

积分

Sponsor

金币
586 枚
体力
1356 点
tto138 发表于 2020-7-13 19:23:48 | 显示全部楼层
沙发是抢的而不是占的!/ N4 o5 g" }! ^+ W0 s1 S& g  ]
Not see, I am a novice, the inadequacies of the first Please bear with me!
% |; R5 l4 a" g  s0 q1 p& Y7 P

641

主题

2196

帖子

1万

积分

VIP advanced

金币
1989 枚
体力
5005 点

公主勋章卓越贡献勋章

21cn 发表于 2020-7-14 01:41:44 | 显示全部楼层
Bluraycd又有新电影发布了,激动中……!
4 v% d; R7 M( m/ D; ?% TI love your Blu-ray movies Forum!8 Q. Q1 B. T. F$ g( ~

70

主题

1991

帖子

7569

积分

Sponsor

金币
736 枚
体力
2756 点
lanpanshuma 发表于 2020-7-14 09:11:15 | 显示全部楼层
Bluraycd又有新电影发布了,激动中……!
" W, H. W) }: BThank you for sharing such a good resource polite reply, very sorry for myself!
0 I; Y3 N' }$ J0 N, Q# t. P
该会员没有 ...

本版积分规则

小黑屋|Archiver|蓝光电影资源网

GMT+8, 2021-1-23 12:02

快速回复 返回顶部 返回列表