BluRayCD Forum

 找回密码
 立即注册【分享大片】

QQ登录

只需一步,快速开始

查看: 22|回复: 2
收起左侧

[蓝光原盘] 血量子/血疫/尸家禁地 [REMUX无损版] Blood Quantum 2019 1080p BluRaycd REMUX AVC DTS-HD MA 5.1-FGT 25.77GB

[复制链接]

4491

主题

4663

帖子

6万

积分

Post Share

金币
8525 枚
体力
16644 点

卓越贡献勋章

黄金嫖客 发表于 2020-7-24 19:50:05 | 显示全部楼层 |阅读模式
The dead are coming back to life outside the isolated Mi'gMaq reserve of Red Crow, except for its Indigenous inhabitants who are strangely immune to the zombie plague.' h! V4 O; h% f  S% A
8 w) u, n$ m, a+ l& H  N
01.jpg
+ d( r0 o& V) a9 I
' z( N% g# z( ?" L' f◎译  名 血量子/血疫(台)/尸家禁地, q: j6 y5 l1 z$ _/ q
◎片  名 Blood Quantum* e  O! q! ~9 U& x% m* ^
◎年  代 2019
$ k% V9 N/ i$ U! @: P8 Y3 }; ?8 L$ O◎产  地 加拿大
9 z6 c6 i; B5 h6 ~2 p2 |◎类  别 恐怖( f- d1 E& A5 l. l
◎语  言 英语/米克马克语
$ ~# P) l& p1 A* D# P◎上映日期 2019-09-05(多伦多电影节)
+ h: A( V$ `: Q$ ?$ F, j0 r◎IMDb评分  5.5/10 from 1,539 users
* ~0 n) O; L9 N! m: {2 Y2 N◎IMDb链接  https://www.imdb.com/title/tt7394674/
$ ]0 @* l5 y$ {4 c0 I' f% h◎豆瓣评分 4.8/10 from 153 users
4 b: {# f" k% u( E. u. f◎豆瓣链接 https://movie.douban.com/subject/33432158/
. A  i1 j. o! ?! K- F( a7 P# U◎文件格式 x264 + DTS 0 C. b8 D8 V) L9 v
◎视频尺寸 1920 x 1080- {$ y0 m$ _" b. _: M
◎文件大小 1DVD 25.77 GiB
  g( J& A/ G( ?4 L, a+ N. r- K◎片  长 1 h 38 min  f/ c' l: C4 q" O- ^7 d1 F# f
◎导  演 杰夫·巴纳比 Jeff Barnaby
& R* ^5 q; ?- _* w1 T3 D: S◎编  剧 杰夫·巴纳比 Jeff Barnaby
) F& j9 B' Q7 s◎主  演 麦克尔·格雷耶斯 Michael Greyeyes: }$ c# a  a% x8 H
       Elle-Máijá Tailfeathers
, N% t+ }5 `4 Q$ S9 r       福勒斯特·古德勒克 Forrest Goodluck" S% W; w. k1 A" w
       凯欧瓦·高登 Kiowa Gordon2 k7 S1 F" t) T4 J% y/ Y
       奥利维亚·斯克里文 Olivia Scriven' t2 g5 Q7 Z) }: t. X
       Stonehorse Lone Goeman, D& S8 J( e  o2 W! z' R" B7 X
       Brandon Oakes7 L: K) U) s: P% B  c4 [$ w0 ^
       威廉·贝勒 William Belleau
  t9 U( k  c5 I4 B/ C% r+ r, ?       德芙丽·雅各布斯 Devery Jacobs
- U6 C3 g( @) F& G/ G! R8 b       加利·法梅尔 Gary Farmer
& }# Q8 ]4 |4 V1 g7 c2 P0 D) \1 f       费利西亚·舒尔曼 Felicia Shulman
1 D# V0 H- t: Y, l- Q" q       Lake Delisle
1 Z, Y5 `( F; ~+ z( b" U7 u( d       特洛文·海斯 Trevor Hayes
: X/ w, }* C) t       Marc Assiniwi
8 ^0 x; k# x- G$ l% S5 N$ W       Natalie Liconti0 B6 ]2 o- r7 P. I, Z% _" j
# Z5 z* w4 G1 S5 F/ L
◎标  签 丧尸 | 加拿大电影 | 血腥 | 恐怖 | PB-BusanC午夜激情单元 | 恐怖惊悚悬疑重口血腥 | 加拿大 | 2010s8 t% T9 ]4 I" S: w
7 j: U' }$ T6 _+ c3 f) _
◎简  介  
$ G" r! x' c2 N! j8 i
0 z9 i* F& l" L# m# g$ m  死者正在红乌鸦孤立的米格马克保护区外复活,除了它的土著居民,他们奇怪的免疫僵尸瘟疫。
- g6 @+ `0 V# B( D; I
3 T# j" _  \4 r  The dead are coming back to life outside the isolated Mi'gMaq reserve of Red Crow, except for its Indigenous inhabitants who are strangely immune to the zombie plague.
8 ], M2 ]* k5 q
) p6 q: R7 A3 Z8 c
Video  {" y! }7 A. m5 T9 f
ID                                       : 1
0 D" O4 {6 [6 O" J. c8 vID in the original source medium         : 4113 (0x1011)5 a3 g# s6 g0 j: m% e) f
Format                                   : AVC
/ N3 v* C+ u0 B. e" b+ F' N* O& bFormat/Info                              : Advanced Video Codec
' b6 s+ O! N% y; a/ NFormat profile                           : High@L4.1: J7 g) m* j& q1 y! R( o
Format settings                          : CABAC / 4 Ref Frames" S, ^& C5 |% J& L) O6 ^
Format settings, CABAC                   : Yes4 C2 U( q3 g1 o8 }& ^5 P
Format settings, Reference frames        : 4 frames" q: z. T1 l6 |: f! Q- G4 _4 P5 u
Codec ID                                 : V_MPEG4/ISO/AVC/ L0 _" o% C2 U
Duration                                 : 1 h 38 min5 c' @+ c& k4 Z( c
Bit rate mode                            : Variable
) ~0 o, u! h6 b2 U, n% v0 v$ h: zBit rate                                 : 30.9 Mb/s0 e  p+ M/ g; E
Maximum bit rate                         : 35.0 Mb/s
: T1 X7 R5 i- E* ^5 TWidth                                    : 1 920 pixels$ A$ I' J9 J. {- Y1 x+ q4 Y
Height                                   : 1 080 pixels
( E. J. H, J: O3 YDisplay aspect ratio                     : 16:9
8 H0 q7 b2 y7 l" G' x' S; @2 d5 F4 RFrame rate mode                          : Constant0 R  Z, D( U4 ^, E, C, E; E
Frame rate                               : 23.976 (24000/1001/37687) FPS9 J3 R# D" [, d
Standard                                 : NTSC3 ]. x; Q1 @0 ^5 P
Color space                              : YUV' \( X0 k/ b5 v$ |" C+ U0 K. E
Chroma subsampling                       : 4:2:0
, c0 c: Z9 T4 V7 iBit depth                                : 8 bits
1 a; d+ d, D$ B" nScan type                                : Progressive
2 g) b7 Z- y( Z% v6 sBits/(Pixel*Frame)                       : 0.622- c+ O$ ~. f- B8 k& O2 |
Stream size                              : 21.2 GiB (82%)% k/ Z9 ?$ C6 C/ C5 k* O
Title                                    : Blood.Quantum.2019.1080p.BluRayCD.REMUX.AVC.DTS-HD.MA.5.1-FGT
) |" `8 U5 V# I0 x+ t; ^- e+ ULanguage                                 : English+ \1 H0 {+ H4 H$ s
Default                                  : No% l) T  c- V9 B! ^1 ^
Forced                                   : No
' t6 w  S9 X6 A' {Color range                              : Limited& D2 o4 _$ K( b& x
Color primaries                          : BT.709  @+ h6 ^: g  {+ F+ C' l& e/ C
Transfer characteristics                 : BT.709
2 ]+ Q2 n; X  R+ [Matrix coefficients                      : BT.709& Y7 H* l; f2 ~0 X! W0 ^, L) U  R
Original source medium                   : Blu-ray' E( c" P2 ]! D' Y$ ^
5 T) J. y' l" D: H
Audio #16 _/ n# }4 I$ a5 B# c; Q6 ~4 n0 l
ID                                       : 2
5 l. H; H: W1 e9 o) h: }' zID in the original source medium         : 4352 (0x1100)
* b: u7 V+ u: D# xFormat                                   : DTS XLL: J' q$ Q+ I) i5 W1 f: F; K# T
Format/Info                              : Digital Theater Systems3 s7 |( t6 f8 |+ M8 l" U
Commercial name                          : DTS-HD Master Audio5 G7 a) d5 n4 A! C
Codec ID                                 : A_DTS
$ B' l, j8 y% l# `' ]) uDuration                                 : 1 h 38 min- W% _& U! V  X( `. C$ ?
Bit rate mode                            : Variable
! _0 `) W+ z7 u$ n- ^/ b1 R* @0 sBit rate                                 : 3 292 kb/s; s; T' }. D! Z8 Q' R) W
Channel(s)                               : 6 channels" n( {, n9 U* j
Channel layout                           : C L R Ls Rs LFE5 L/ P% N: w2 d9 D$ k
Sampling rate                            : 48.0 kHz. t5 D+ P+ [: h& A4 W6 ^2 J- }5 l
Frame rate                               : 93.750 FPS (512 SPF)
) ?0 J& Q4 d9 }  r$ W, Y+ v6 E* G& aBit depth                                : 24 bits7 @$ l, _' V" g3 ^
Compression mode                         : Lossless, n: \& c3 f6 T' }- w
Stream size                              : 2.25 GiB (9%)- u' z/ @! `2 y3 _
Title                                    : Blood.Quantum.2019.1080p.BluRaycd.REMUX.AVC.DTS-HD.MA.5.1-FGT
7 L6 w, ^! }8 u8 B- dLanguage                                 : English3 E: b) U! H6 R7 a
Default                                  : Yes
3 j: K1 F( H3 |& h4 r2 E  XForced                                   : No
! [7 m, P+ _1 d; w8 Z8 q; jOriginal source medium                   : Blu-ray7 T' v. J( m# Y4 ~7 O1 p3 H8 L" u

: i1 P* o6 L2 _4 e: qAudio #2
4 [7 W4 M: D! @$ MID                                       : 3! z7 L' ?  W4 @  w4 \/ r9 }
ID in the original source medium         : 4353 (0x1101)$ O, ^! Y; p4 p( @! W2 u
Format                                   : DTS XLL& j4 ]. W  A; S& r8 U! h
Format/Info                              : Digital Theater Systems6 d: ?) h8 B. Q& b& p
Commercial name                          : DTS-HD Master Audio
: z4 }7 ^$ I2 |3 R. qCodec ID                                 : A_DTS
  W- N' w( i( i; y6 N2 EDuration                                 : 1 h 38 min6 l  u+ I: _+ u/ H
Bit rate mode                            : Variable( s) b. o5 e6 L6 W2 t& O% [
Bit rate                                 : 3 383 kb/s8 T/ @" X* H) ]  k# H0 b/ h
Channel(s)                               : 6 channels0 ^0 Q, @6 h4 {1 N! w6 U
Channel layout                           : C L R Ls Rs LFE3 h  A" j$ n! s
Sampling rate                            : 48.0 kHz7 c; o: k  T. j1 o1 v1 k$ F
Frame rate                               : 93.750 FPS (512 SPF)
$ J: V3 i# w  k8 M$ d; w1 bBit depth                                : 24 bits& h6 j9 o$ U4 `: l6 r
Compression mode                         : Lossless5 G# W" e! }2 ?$ w) V# `* {
Stream size                              : 2.32 GiB (9%)
: r" i- |" I' l) c7 {* O8 ATitle                                    : Blood.Quantum.2019.1080p.BluRaycd.REMUX.AVC.DTS-HD.MA.5.1-FGT; X! B6 e( u1 y4 [. s: r1 ~
Language                                 : French
- d3 K+ e. j4 q& W' J* ~& h$ aDefault                                  : No
5 I% }& p7 n) E( qForced                                   : No. B0 K7 Q; V. ?$ L3 l0 w2 o
Original source medium                   : Blu-ray
; O$ ^8 X! k. l4 {. q. T& t4 p- Q
Text #1" l  r! v/ v; l5 A
ID                                       : 47 e8 S- @9 ~& `
Format                                   : UTF-89 i6 b1 d/ d! i+ D2 l
Codec ID                                 : S_TEXT/UTF86 q; R" a7 d3 o
Codec ID/Info                            : UTF-8 Plain Text- q! t# k: E3 D  X8 [" c, o0 h
Duration                                 : 1 h 17 min& s  |+ f( J# V
Bit rate                                 : 1 b/s
) x4 Q6 x( M, e6 ~+ n6 o' C2 gCount of elements                        : 305 q( R6 \! K  N: v0 H
Stream size                              : 638 Bytes (0%)/ l2 @( d0 u  F: I% x  ^
Title                                    : English-FORCED-SRT4 T* \7 D6 u( |5 h
Language                                 : English1 v: k. d- j% O
Default                                  : Yes
" j5 {+ E# U% _( z+ S$ C$ T$ XForced                                   : Yes: f' O4 O1 ?* X- F

9 s" S% f# j+ d0 r+ W+ j! t1 yText #2. W: A6 K/ K/ v* M
ID                                       : 5% k1 O6 F, C- S( ~( m
Format                                   : UTF-8
* w) y* J/ {* N; ?5 z& r  RCodec ID                                 : S_TEXT/UTF8' f, x: n/ A; E6 b8 {6 Z" z
Codec ID/Info                            : UTF-8 Plain Text
0 j2 |  G* r5 |% @Duration                                 : 1 h 31 min5 {) \; F% o! Q7 L
Bit rate                                 : 41 b/s; ^' N/ e  T7 p! C3 I
Count of elements                        : 908
; x7 [' A, M0 z: Y* _* N% f) @Stream size                              : 27.9 KiB (0%)
% \, q# {3 }# B2 jTitle                                    : English-SRT
7 S8 x6 F0 z" H8 hLanguage                                 : English
/ m+ |. f( Y" F# fDefault                                  : No  l/ ~) _0 J! S! i! |4 G  T* ?% z4 }
Forced                                   : No! h9 m0 c& m* E% R1 t

* W, x2 J" H% {4 r5 cText #35 d: Q# h$ b. u6 h: L
ID                                       : 6
' Q2 X* N5 K* W% ~, [8 c; _5 |ID in the original source medium         : 4608 (0x1200)& D8 _$ I' e9 Z9 ?0 l, R
Format                                   : PGS' J9 X6 }* L  a
Muxing mode                              : zlib
) M! F! o! ^# sCodec ID                                 : S_HDMV/PGS# `- K6 e: U1 [$ x+ m- t7 R
Codec ID/Info                            : Picture based subtitle format used on BDs/HD-DVDs% {  W" n) M# H% W
Duration                                 : 1 h 31 min2 X4 o5 ?4 R/ E3 w1 S* j  j
Bit rate                                 : 20.4 kb/s3 m. z, I- _6 v
Count of elements                        : 2116: X2 C/ D# j9 Q2 m
Stream size                              : 13.4 MiB (0%)
: U- R+ C' _. J/ |8 t( n: xTitle                                    : English-PGS+ ^8 V9 |5 e$ o  `
Language                                 : English* o. y, ]& L; _4 ~9 d- y
Default                                  : No
" p# h+ B( w3 x, @/ e8 G; ], E3 nForced                                   : No
+ Q, D- L! s: x1 K' V; e0 J% hOriginal source medium                   : Blu-ray
- z. t5 _& q9 _% S
4 A+ E, o( S2 M1 t: P1 u. l8 Z* DText #4, T8 H; ^) v8 `: |4 C+ l, ~& Y$ s0 S1 l
ID                                       : 7" g% L6 b5 W6 r' j$ y( i) t0 k
ID in the original source medium         : 4609 (0x1201)
/ g7 n& Z: R9 I: NFormat                                   : PGS( b# K& i, H1 D2 h2 n3 V
Muxing mode                              : zlib' c' |% o3 G* u# g; ^. E
Codec ID                                 : S_HDMV/PGS" [. P) W- p' e( i! V& i
Codec ID/Info                            : Picture based subtitle format used on BDs/HD-DVDs( f( E3 f$ f% R1 h) |
Duration                                 : 1 h 17 min% N' T# b5 }" l/ D. ?5 Q
Bit rate                                 : 478 b/s
6 B' t" i0 m+ ?Count of elements                        : 60
- z4 X5 L8 o: L9 B" |Stream size                              : 271 KiB (0%)
6 n4 U. {% W, b8 j8 fTitle                                    : English-FORCED-PGS9 d# {* o$ H, q- c+ x. H5 x7 e
Language                                 : English7 y. u# e; X1 V7 r* F
Default                                  : No
1 `% L7 {/ h6 P+ v, o1 k+ v3 Z: UForced                                   : No8 k0 X" J- f" C5 z+ N
Original source medium                   : Blu-ray
# B% Q4 n/ E# [3 ], i6 N
5 @6 D" k& Q9 `) Y! `% O" N2 ~Text #5+ t$ m7 a+ L0 q( F, a7 k$ C
ID                                       : 8) h  ^: M% n, w6 n/ c8 t+ L" g, `
ID in the original source medium         : 4610 (0x1202)* U6 N# @% j8 h- Z# b
Format                                   : PGS* a9 b; P$ j3 o6 D" [* @
Muxing mode                              : zlib
. @& T: Z, R, P+ C/ K+ n/ y; G) jCodec ID                                 : S_HDMV/PGS4 n' V* e3 |& d- M2 r
Codec ID/Info                            : Picture based subtitle format used on BDs/HD-DVDs% r$ ^, n6 w) y6 V* \/ q
Duration                                 : 1 h 28 min
, O: s" y6 D  a% C6 ABit rate                                 : 838 b/s
% h2 C) d! r4 n1 X' r  ^/ [/ q+ k  {* FCount of elements                        : 88
+ z0 M3 X) h5 Q' Y8 N0 k. d% q' RStream size                              : 544 KiB (0%)
3 u4 X1 Q5 ?6 @1 s1 _& k. @Title                                    : French-PGS; L3 X+ |, I  W0 O, Z1 K- Z
Language                                 : French
2 k6 O. a, i- z/ jDefault                                  : No* A1 |; X& t3 Y! e
Forced                                   : No0 e0 Q4 N3 T( o# Z% O6 ?# \
Original source medium                   : Blu-ray7 g$ a1 B' ^2 s* ^' p9 c+ f7 Q! m# u

- `4 K& v+ I" sMenu
! d6 ~/ B. b* u00:00:00.000                             : en:Chapter 00
0 ]2 R9 C0 f- B00:00:17.017                             : en:Chapter 01
# c$ }2 }! M) D) W: c: q6 o) M00:06:17.085                             : en:Chapter 02: j0 S' G' j( o' L8 |  |
00:12:05.933                             : en:Chapter 039 U* z5 @: b0 D! l* F
00:18:16.470                             : en:Chapter 045 k  ]7 }+ |: @" Z, C# k5 a
00:23:06.134                             : en:Chapter 05
. [! W7 r) r0 g0 }; M; X& _00:30:19.609                             : en:Chapter 06+ e. @6 I2 d$ p/ ^! Q4 s1 U( n
00:38:44.405                             : en:Chapter 07; {9 o& V2 j5 V3 V1 n' g
00:45:24.221                             : en:Chapter 08
5 ~: ~$ z- W& I: b+ q8 W00:53:21.364                             : en:Chapter 090 ]8 M) W' p/ L* M
00:59:46.708                             : en:Chapter 104 y7 w$ r% r( n; H3 N  z5 Z& U
01:06:15.012                             : en:Chapter 11
2 \* M: b. n5 G$ ~- i+ Q01:10:42.655                             : en:Chapter 12
( ^$ \- _) X' k/ C+ F01:16:28.709                             : en:Chapter 13
( W+ {6 G1 Y3 P9 @01:22:38.745                             : en:Chapter 14
: J+ `% d8 k- k. x" e$ k' Y9 u0 z01:27:35.792                             : en:Chapter 15
* R  y, M$ ~- I5 m: v8 J5 b1 H2 u01:34:45.763                             : en:Chapter 16
/ B6 W$ ~0 u* ]# S2 G$ u# T
游客,查看本帖隐藏内容请回复 | 加入VIP贵宾组可免积分免回复下载 了解详情 | 还不是会员:点击获取邀请码 Invitation Code

582

主题

1912

帖子

1万

积分

VIP advanced

金币
1629 枚
体力
4371 点

公主勋章卓越贡献勋章

21cn 发表于 2020-7-24 22:26:23 | 显示全部楼层
楼主发贴辛苦了,I*老*虎*U!- ?" E* k- b. b: D- E3 K
Bluraycd.com movie updates really fast, also did not release issued, whether you believe it or not, anyway, I believed!

56

主题

1373

帖子

4948

积分

Sponsor

金币
228 枚
体力
1891 点
lanpanshuma 发表于 2020-7-25 18:04:43 | 显示全部楼层
啥也不说了,楼主就是给力!
+ _0 @2 D% W9 xBlu-ray movies Community: my favorite!7 M1 x' t) S5 l5 q; U
该会员没有 ...

本版积分规则

小黑屋|Archiver|蓝光电影资源网

GMT+8, 2020-9-27 02:51

快速回复 返回顶部 返回列表