BluRayCD Forum

 找回密码
 立即注册【分享大片】

QQ登录

只需一步,快速开始

查看: 15|回复: 0
收起左侧

[科幻恐怖] 血量子/尸家禁地(台)/血疫(台) Blood Quantum 2019 720p BluRaycd x264 DTS-FGT 4.80GB

[复制链接]

3719

主题

4088

帖子

3万

积分

Post Share

金币
6770 枚
体力
6143 点

卓越贡献勋章

mvods 发表于 2020-7-13 17:28:26 | 显示全部楼层 |阅读模式
01.jpg ; i* V* m7 v2 G) o  E% a# Q

6 X6 i# t! a& P+ T4 w8 u◎译  名 血量子/尸家禁地(台)/血疫(台)
! c1 t  A, i% N, a" _◎片  名 Blood Quantum$ f9 Y) F6 @: u% h7 J4 Z; m' L0 p
◎年  代 2019$ L+ U: q" u. t3 k0 n; s
◎产  地 加拿大
/ O& ~3 `( j2 [4 i4 R! n◎类  别 恐怖: a4 W7 }( S) V
◎语  言 英语/米克马克语
$ r4 g; q6 g8 U, \9 G' q( a◎上映日期 2019-09-05(多伦多电影节)/ M8 m9 O  a: q) y9 Y9 Y# X" E. \& A
◎IMDb评分  5.6/10 from 1,388 users+ z0 f8 B6 q* m
◎IMDb链接  https://www.imdb.com/title/tt7394674/# r9 m0 O3 p' H' v/ H2 S% c
◎豆瓣评分 4.8/10 from 133 users1 n  u% E9 r* I! L, B8 Y2 V
◎豆瓣链接 https://movie.douban.com/subject/33432158/: y  G8 K: L2 O! U: d
◎片  长 1 h 38 min, Z* G- b! j$ a8 ^! l
◎导  演 杰夫·巴纳比 Jeff Barnaby
7 |, u7 [- a6 U9 q◎编  剧 杰夫·巴纳比 Jeff Barnaby
' H+ J2 `% \; Z5 S" E◎主  演 麦克尔·格雷耶斯 Michael Greyeyes
5 o" w7 |9 S7 F6 Z  W# W& @' L       Elle-Máijá Tailfeathers
- n7 @$ {$ K; L/ u6 d& b7 l       福勒斯特·古德勒克 Forrest Goodluck* L5 [( Q: ^2 ~9 y" Z' ~
       凯欧瓦·高登 Kiowa Gordon
  }! {  c* p1 ^  a( }) m: m: W! b       奥利维亚·斯克里文 Olivia Scriven9 t9 O/ q0 z8 D. {( ]* I$ c
       Stonehorse Lone Goeman
, ~: ^6 |7 q" z" X) O       Brandon Oakes
5 x' Z; O( f8 {: b' j0 c2 l. ]6 u  m+ x       威廉·贝勒 William Belleau( s+ V% L* ]: x1 [" }
       德芙丽·雅各布斯 Devery Jacobs: S; z# A  e7 K3 \& L+ q9 K
       加利·法梅尔 Gary Farmer. _& N+ i7 A# L/ W
       费利西亚·舒尔曼 Felicia Shulman
& B& i7 ]4 y% }       Lake Delisle- @/ N2 {$ {: N/ ^. G
       特洛文·海斯 Trevor Hayes
% T6 k& u5 @3 z4 x7 A9 i: A       Marc Assiniwi, |, a' t# R8 i7 F
       Natalie Liconti2 C* y. l" D) D0 k
( Y0 z; z. y5 e
◎标  签 丧尸 | 加拿大电影 | 血腥 | 恐怖 | PB-BusanC午夜激情单元 | 恐怖惊悚悬疑重口血腥 | 加拿大 | 2010s) d9 C4 l% @- r; d' O
' u8 w9 f5 a( V# b9 d; @* J  ]* R* Q
◎简  介  
7 ?9 O8 V, G6 K4 ]$ e- z' s
9 s% q- z0 g. ^0 y6 A1 T6 E3 U8 ]  死者正在红乌鸦孤立的米格马克保护区外复活,除了它的土著居民,他们奇怪的免疫僵尸瘟疫。
6 `; x) G6 {; ], _" [
Video
& l# l/ i0 k# `ID                                       : 11 a& g3 b* }4 F4 C+ o
Format                                   : AVC* |) Q! i7 m, {+ j9 g" o! x+ R
Format/Info                              : Advanced Video Codec
; x( B' S8 `" E, `Format profile                           : High@L4.1. d- J% o/ {; E: O6 Q
Format settings                          : CABAC / 4 Ref Frames
  H1 W9 i7 y  \- Q0 D4 @2 eFormat settings, CABAC                   : Yes
! h0 _! m( C/ J- q* T! o% d6 {Format settings, Reference frames        : 4 frames7 p$ z/ t6 g! Q6 n
Codec ID                                 : V_MPEG4/ISO/AVC0 D# U, n# V  Q7 W5 i9 E
Duration                                 : 1 h 38 min) b9 O0 z0 E# o
Bit rate                                 : 5 500 kb/s8 B8 b- ]; ^- l. i* P, ^
Width                                    : 1 280 pixels
1 l6 _0 j% h4 m/ n/ FHeight                                   : 536 pixels- R! _8 }- V) ]7 @6 g8 X
Display aspect ratio                     : 2.40:1
5 @+ N# P2 G; Y. o& @Frame rate mode                          : Constant1 _; W; t3 Q0 k+ I* z$ C: ?+ c
Frame rate                               : 23.976 (24000/1001/37687) FPS( u: f5 _# i' U+ P2 I' n
Color space                              : YUV- G2 w; E/ Z" a$ y: @1 Q, n9 g9 c
Chroma subsampling                       : 4:2:0  b% x, j. v* T; A' ]
Bit depth                                : 8 bits
- C. P' o: g4 K) jScan type                                : Progressive
1 [- Z8 o  `$ J/ U. P$ t! eBits/(Pixel*Frame)                       : 0.334) d; f; l' }- P, D
Stream size                              : 3.77 GiB (78%)1 G! J8 S, x7 c( ~
Title                                    : Blood.Quantum.2019.720p.BluRayCD.x264.DTS-FGT
, g$ [' V. A! ]Writing library                          : x264 core 148 r2795M aaa9aa87 I+ o5 s- N" |  A/ F, d2 Q
Encoding settings                        : cabac=1 / ref=4 / deblock=1:-2:-2 / analyse=0x3:0x113 / me=umh / subme=9 / psy=1 / psy_rd=1.00:0.15 / mixed_ref=1 / me_range=16 / chroma_me=1 / trellis=2 / 8x8dct=1 / cqm=0 / deadzone=21,11 / fast_pskip=1 / chroma_qp_offset=-3 / threads=72 / lookahead_threads=3 / sliced_threads=0 / nr=0 / decimate=1 / interlaced=0 / bluray_compat=0 / constrained_intra=0 / bframes=3 / b_pyramid=2 / b_adapt=1 / b_bias=0 / direct=3 / weightb=1 / open_gop=0 / weightp=2 / keyint=250 / keyint_min=25 / scenecut=40 / intra_refresh=0 / rc_lookahead=50 / rc=2pass / mbtree=1 / bitrate=5500 / ratetol=1.0 / qcomp=0.60 / qpmin=0 / qpmax=69 / qpstep=4 / cplxblur=20.0 / qblur=0.5 / vbv_maxrate=31250 / vbv_bufsize=31250 / nal_hrd=none / filler=0 / ip_ratio=1.40 / aq=1:1.00
) H8 I. ^! `1 \; q& T# }Language                                 : English2 m' g" X" Q6 [% }
Default                                  : Yes$ f0 W4 {/ X( k! j% d2 b
Forced                                   : No: f: A1 J" x! O& Y  d3 q

( Q, J% ~6 w; }, n' ]# mAudio0 f. J. ~4 A! F5 U2 w& P: [+ ~% u
ID                                       : 2
6 F( I8 r9 _! _( OFormat                                   : DTS7 F: q5 g" |4 @: G5 T6 Q
Format/Info                              : Digital Theater Systems
9 @1 U4 x$ h7 e; Z* }Codec ID                                 : A_DTS* t, |, w2 a& F, R
Duration                                 : 1 h 38 min9 P9 j3 K: o  {- l7 W0 P
Bit rate mode                            : Constant2 L: I7 m* F4 P2 A) @5 f4 o& ?
Bit rate                                 : 1 509 kb/s
8 Q9 k( H: u9 G* _: G2 RChannel(s)                               : 6 channels' q( B9 F7 |' g8 a+ O- v, F
Channel layout                           : C L R Ls Rs LFE
9 ^) f; w" X: |* K4 ySampling rate                            : 48.0 kHz
/ [: i( x  r& S! |Frame rate                               : 93.750 FPS (512 SPF)
" K4 b1 I# F6 O. q( JBit depth                                : 24 bits/ q, z5 a" k& S0 ^1 \2 x
Compression mode                         : Lossy
0 _  k3 C: [4 GStream size                              : 1.03 GiB (22%)2 @' o9 J/ Q' k! g
Title                                    : Blood.Quantum.2019.720p.BluRaycd.x264.DTS-FGT; A8 V- g7 B9 ?5 K8 S
Language                                 : English
& Y: X- i$ w3 s$ `Default                                  : Yes
. H% Q, A* M2 MForced                                   : No" m% j! O1 `! y5 `) q. Q

- M" v/ @+ g/ N+ h( i8 ~/ @Text #1
- _0 \! H6 d4 KID                                       : 3  Q( E+ ~$ \8 R6 p. y
Format                                   : UTF-8
% @  F5 J  y/ k; c7 o- z3 S  LCodec ID                                 : S_TEXT/UTF8) I, i6 s: G9 m
Codec ID/Info                            : UTF-8 Plain Text3 i$ @% _$ i+ N% Y3 X
Duration                                 : 1 h 17 min
7 A: b: C8 \& O" p) oBit rate                                 : 1 b/s
8 z$ H' M) }! r1 F1 X+ Z1 OCount of elements                        : 301 q9 k7 ~8 _7 p$ C/ T9 w) e
Stream size                              : 638 Bytes (0%)
. f; L- n; r2 ~2 \* p7 ITitle                                    : FORCED
! \1 t4 y. N5 P  PLanguage                                 : English
5 |/ j. ?# P+ ^Default                                  : Yes
/ o- ?3 F% Y: aForced                                   : Yes- q9 N) ?. }7 c& w# u
; d0 |7 r2 }* Z$ z; L7 W& Z9 t& `4 X
Text #22 f1 ?# [# }. k, P& d
ID                                       : 4
& r- G! Q6 D; {3 ?9 J; aFormat                                   : UTF-8
! B! O8 n1 I% |Codec ID                                 : S_TEXT/UTF8& T9 ^3 B" k2 n: f/ s8 D
Codec ID/Info                            : UTF-8 Plain Text, |% m. \, [; u; X* K; l
Duration                                 : 1 h 31 min
( s! E4 o3 C* o5 BBit rate                                 : 41 b/s
( u+ c1 R- w8 J/ x8 rCount of elements                        : 908$ {5 D# z. C7 F3 l( Q
Stream size                              : 27.9 KiB (0%). ^0 s  E" k0 Q# I
Language                                 : English& `. L" T9 c% O3 o
Default                                  : No
( `2 Z" u. ?8 d. g1 Q4 BForced                                   : No
! a/ ?* {5 c' b6 o0 ]
# p. D4 [. {  t, n( F# L2 _Menu& i8 j8 t9 `. k' C
00:00:00.000                             : en:Chapter 00; v, w0 Y9 I& \7 o0 F2 {' K
00:00:17.017                             : en:Chapter 017 d. M" P. L* D; p, l
00:06:17.085                             : en:Chapter 020 e% l2 E; O9 X; U! L$ i
00:12:05.933                             : en:Chapter 038 ~' _& d. N7 K3 m
00:18:16.470                             : en:Chapter 04
0 B* X( W5 K/ n0 e' y00:23:06.134                             : en:Chapter 05
8 t7 @! m2 y  q. s00:30:19.609                             : en:Chapter 066 M. y/ A% a$ r- z1 O3 m& g  V
00:38:44.405                             : en:Chapter 071 a; y4 k$ [$ {0 W
00:45:24.221                             : en:Chapter 08* k% w; Q4 i: D$ Y; r3 }
00:53:21.364                             : en:Chapter 093 z7 ^/ H! [" G) \* k; h4 s
00:59:46.708                             : en:Chapter 10% F: ]: U+ v( `' C
01:06:15.012                             : en:Chapter 11
! L) z: i5 `( z, l6 t5 n4 q# I01:10:42.655                             : en:Chapter 12
0 ?7 u1 u$ v+ q' q. E, H6 P# a01:16:28.709                             : en:Chapter 133 p0 ^1 c/ d5 d6 }8 ^2 B. @
01:22:38.745                             : en:Chapter 14
$ C  G- N  J3 j' X& h01:27:35.792                             : en:Chapter 15# ^9 ~; [% ~' S  N; G/ O  v  w
01:34:45.763                             : en:Chapter 16

1 R0 C1 e0 v# Z* O- o1 |& t# [$ ~
游客,查看本帖隐藏内容请回复 | 加入VIP贵宾组可免积分免回复下载 立即了解 | 还不是会员:点击获取邀请码 Invitation Code

本版积分规则

小黑屋|Archiver|蓝光电影资源网

GMT+8, 2020-8-7 16:51

快速回复 返回顶部 返回列表