BluRayCD Forum

 找回密码
 立即注册【分享大片】

QQ登录

只需一步,快速开始

查看: 23|回复: 0
收起左侧

[科幻恐怖] 血量子/尸家禁地(台)/血疫(台) Blood Quantum 2019 720p BluRaycd x264 DTS-FGT 4.80GB

[复制链接]

4187

主题

4562

帖子

4万

积分

Post Share

金币
8181 枚
体力
7289 点

卓越贡献勋章

mvods 发表于 2020-7-13 17:28:26 | 显示全部楼层 |阅读模式
01.jpg
! f# j$ o/ t$ X! z% j! N$ X. E" n% P. y& Q+ z+ H  O
◎译  名 血量子/尸家禁地(台)/血疫(台)8 r2 [) C. W8 c( c
◎片  名 Blood Quantum
" L' z9 q8 g8 _1 P◎年  代 2019& k* k" M0 b3 s1 @' S; v6 a
◎产  地 加拿大) I$ l( N) L7 x# W5 y
◎类  别 恐怖
4 N& y4 {3 h# ?6 F' X# `◎语  言 英语/米克马克语
+ X8 p8 ?. j9 [  G* L! c/ i* R◎上映日期 2019-09-05(多伦多电影节)
: p: I  L1 m6 J" s& z◎IMDb评分  5.6/10 from 1,388 users- P  e1 {7 c% k4 k- ?1 s* H, C
◎IMDb链接  https://www.imdb.com/title/tt7394674/# U, ]# ]: A$ l3 v. J, s7 Q
◎豆瓣评分 4.8/10 from 133 users; @0 |* k* `1 N. H
◎豆瓣链接 https://movie.douban.com/subject/33432158/! ^0 x% {1 S6 g+ {$ I7 f
◎片  长 1 h 38 min6 J6 }& d) w; J$ S$ A* B4 v! E
◎导  演 杰夫·巴纳比 Jeff Barnaby" d5 e% a! w- X
◎编  剧 杰夫·巴纳比 Jeff Barnaby
  a0 b. n. n5 T◎主  演 麦克尔·格雷耶斯 Michael Greyeyes, |7 W& o% T5 r% x7 O7 Z4 a. g
       Elle-Máijá Tailfeathers
; u4 A" ?! P2 B( S: ]( f! V       福勒斯特·古德勒克 Forrest Goodluck7 A% F) T, U% s( M. x
       凯欧瓦·高登 Kiowa Gordon# K0 i5 V/ M* O! g) ]& b, b
       奥利维亚·斯克里文 Olivia Scriven
! a4 i, I( b% e8 X; n       Stonehorse Lone Goeman/ ]9 n7 i* N% x
       Brandon Oakes
4 T- `# v& j: _! a* f5 E5 i       威廉·贝勒 William Belleau/ A0 Y# M) A( g
       德芙丽·雅各布斯 Devery Jacobs) f2 @& `& m& X
       加利·法梅尔 Gary Farmer
6 J. D% d* U8 S6 G       费利西亚·舒尔曼 Felicia Shulman
* j9 Q( c. ^% Z' I; `, s       Lake Delisle
! w/ }  H$ F- e       特洛文·海斯 Trevor Hayes
8 H0 Q- b: U$ a- A3 y8 F! A       Marc Assiniwi
2 D' e5 y: ^. P0 J       Natalie Liconti' b5 ?4 w/ _) m( t" Q3 X

% [& F3 a2 b" c* Q) i◎标  签 丧尸 | 加拿大电影 | 血腥 | 恐怖 | PB-BusanC午夜激情单元 | 恐怖惊悚悬疑重口血腥 | 加拿大 | 2010s: F6 c/ ]9 L3 t5 d) S' e+ ?

5 ^8 a: n! l9 @/ F; P5 y◎简  介  0 A6 n3 J; _/ D; U! |; {) Z- X
0 _' H0 Z* d. m9 c& {2 M5 c+ _
  死者正在红乌鸦孤立的米格马克保护区外复活,除了它的土著居民,他们奇怪的免疫僵尸瘟疫。
1 H% R1 a7 v' j; ]9 Q- h" o  u
Video5 f! V* Q1 l! S* b% y* ~
ID                                       : 17 s% F# h' d# i. ^  ^8 I2 a
Format                                   : AVC/ }( c7 B$ l$ t1 n+ Y9 \# X
Format/Info                              : Advanced Video Codec
2 V  _& F8 w. P0 W% z5 J( \) mFormat profile                           : High@L4.1
* Q, I3 m8 K. g8 s# ~3 N: fFormat settings                          : CABAC / 4 Ref Frames  R& x+ ^: t" P& |9 @' c% A
Format settings, CABAC                   : Yes
, c, N" A, p% _. cFormat settings, Reference frames        : 4 frames0 w' p, ?4 z1 |/ T
Codec ID                                 : V_MPEG4/ISO/AVC: g+ J1 g  w  l8 d, I8 W  {
Duration                                 : 1 h 38 min
' q) C/ ]4 x  Z2 w' LBit rate                                 : 5 500 kb/s0 n$ ]- y# M6 P) {' r6 V
Width                                    : 1 280 pixels/ _/ B9 B1 S" m; {! _9 v
Height                                   : 536 pixels
/ r5 V% O2 H* H5 qDisplay aspect ratio                     : 2.40:1! k" I# C! p, o6 i4 p9 h
Frame rate mode                          : Constant% ^- W7 ]7 u! p+ ^4 Z
Frame rate                               : 23.976 (24000/1001/37687) FPS
1 Z% P5 I6 K( o# w2 b" @4 P2 S' K6 GColor space                              : YUV
! b3 X" a" R% T: F) WChroma subsampling                       : 4:2:0
1 Z8 x, [1 i6 r; e3 |, qBit depth                                : 8 bits! W9 w9 a: y- b7 }9 p" }* U
Scan type                                : Progressive: m8 h  J. V! Q
Bits/(Pixel*Frame)                       : 0.334
% I) B3 Y4 `& RStream size                              : 3.77 GiB (78%)
! a$ j2 a. w" d# J( S* R6 Z  ]: ^9 NTitle                                    : Blood.Quantum.2019.720p.BluRayCD.x264.DTS-FGT/ I; Q6 U+ D# b
Writing library                          : x264 core 148 r2795M aaa9aa8
+ ~: C. a- g+ j8 f% H3 TEncoding settings                        : cabac=1 / ref=4 / deblock=1:-2:-2 / analyse=0x3:0x113 / me=umh / subme=9 / psy=1 / psy_rd=1.00:0.15 / mixed_ref=1 / me_range=16 / chroma_me=1 / trellis=2 / 8x8dct=1 / cqm=0 / deadzone=21,11 / fast_pskip=1 / chroma_qp_offset=-3 / threads=72 / lookahead_threads=3 / sliced_threads=0 / nr=0 / decimate=1 / interlaced=0 / bluray_compat=0 / constrained_intra=0 / bframes=3 / b_pyramid=2 / b_adapt=1 / b_bias=0 / direct=3 / weightb=1 / open_gop=0 / weightp=2 / keyint=250 / keyint_min=25 / scenecut=40 / intra_refresh=0 / rc_lookahead=50 / rc=2pass / mbtree=1 / bitrate=5500 / ratetol=1.0 / qcomp=0.60 / qpmin=0 / qpmax=69 / qpstep=4 / cplxblur=20.0 / qblur=0.5 / vbv_maxrate=31250 / vbv_bufsize=31250 / nal_hrd=none / filler=0 / ip_ratio=1.40 / aq=1:1.00
, n5 b8 x# S3 r$ O; A( |! QLanguage                                 : English$ R* U4 J# b# E$ `, `
Default                                  : Yes6 P# r! n1 H( H+ w
Forced                                   : No/ }3 W8 I+ f9 O; B; Y
1 i0 F/ c' F8 a  F
Audio
; H+ S& x; x- G; Z# d8 \8 MID                                       : 2  F/ }& [" B3 c: F' q5 z  y; n
Format                                   : DTS
- L8 K! }: H6 j& e5 [1 T% X' rFormat/Info                              : Digital Theater Systems
! _' [8 G% ]) [Codec ID                                 : A_DTS
/ N5 {) F' A8 c0 L4 nDuration                                 : 1 h 38 min
& N0 x( {0 t- G+ T; h* d! gBit rate mode                            : Constant
! k  ~& y9 l+ @: P4 tBit rate                                 : 1 509 kb/s6 o# k$ n- {( Q
Channel(s)                               : 6 channels$ C2 g6 k5 P0 r1 k
Channel layout                           : C L R Ls Rs LFE
/ p6 |0 L; C, y8 f! cSampling rate                            : 48.0 kHz+ g' x% Y/ C) \/ x
Frame rate                               : 93.750 FPS (512 SPF)
2 }% X, R% q4 N2 t6 O) S6 f0 hBit depth                                : 24 bits
- Y$ k$ M4 o' g/ G6 l3 ?Compression mode                         : Lossy
& C3 q7 z' k: ~  S6 K8 EStream size                              : 1.03 GiB (22%)* x5 [' }, U3 W
Title                                    : Blood.Quantum.2019.720p.BluRaycd.x264.DTS-FGT$ Z- _, n4 t; D
Language                                 : English
8 V3 v+ ]/ j# q5 c4 \, oDefault                                  : Yes
* i2 ?( [8 ]4 wForced                                   : No# N' e$ r& I. ~3 Z# G0 ~
: z% c6 e- O: M7 C! B
Text #1" q' t9 O2 N! o9 Q. m4 i
ID                                       : 3' N) T0 i" _8 [% |- O6 w& m
Format                                   : UTF-8
* Y  ~/ @/ U+ ~, v& SCodec ID                                 : S_TEXT/UTF8
3 Y5 C  K6 R- L8 l1 [5 ?Codec ID/Info                            : UTF-8 Plain Text0 V3 t6 d' G4 R( R+ v, H# ~
Duration                                 : 1 h 17 min
; X' k3 G/ `8 \Bit rate                                 : 1 b/s$ O7 @+ ?; Q, @0 q2 e
Count of elements                        : 30
0 ^. h, G! V1 d0 H/ @6 Y: YStream size                              : 638 Bytes (0%)
7 j9 U9 L1 v" D* H' d% MTitle                                    : FORCED
2 t0 E' K) u+ q( P! vLanguage                                 : English
. o  |8 r( [: `% vDefault                                  : Yes  W4 T1 q1 b  s. v
Forced                                   : Yes# I8 N4 m; b& U" [& x: L
0 w9 i6 U( T/ }+ n6 @- T
Text #2" C  t1 h% N4 O. E) _9 v& C
ID                                       : 43 X' M7 D7 k- K4 W" u& ]" x
Format                                   : UTF-8% k; M, Q# f. W- V' j2 w
Codec ID                                 : S_TEXT/UTF8
; J# \5 ~5 _- Z, _Codec ID/Info                            : UTF-8 Plain Text
+ N, Y- d4 h- L6 K: _Duration                                 : 1 h 31 min" _. ^: q. t  k0 A9 U
Bit rate                                 : 41 b/s/ ?- ?. u# F) C  b0 g5 B. `
Count of elements                        : 908( N% t& Y  M1 f$ n
Stream size                              : 27.9 KiB (0%)
# X5 c# m% W8 iLanguage                                 : English, A' \" e0 }5 V3 I7 g7 C- Y
Default                                  : No9 w: ]$ [( C) @+ V3 S5 m( e
Forced                                   : No
4 t. Q1 _" P9 @4 y8 k1 E
& n3 n' Z, \. z3 n$ pMenu, V& I' D+ H" |  s- ]
00:00:00.000                             : en:Chapter 00$ [7 ]6 ]) Z1 s
00:00:17.017                             : en:Chapter 01' h& ~4 }# s6 \3 R! V
00:06:17.085                             : en:Chapter 02
) e# I5 B+ \6 g# h5 p  t00:12:05.933                             : en:Chapter 03
0 J0 j! |9 N$ o" l5 K00:18:16.470                             : en:Chapter 04
/ B* P9 }, n# Q& {9 Z8 V/ p$ U00:23:06.134                             : en:Chapter 05: K4 h+ o, `" w# I+ R
00:30:19.609                             : en:Chapter 06! r( I( Z. i' G- O
00:38:44.405                             : en:Chapter 07
9 L: k1 P- M& ~00:45:24.221                             : en:Chapter 089 p6 ]! B3 M  j" G- J+ S- _
00:53:21.364                             : en:Chapter 09
4 u' j, j, m2 `, s2 b; W1 u4 f3 z00:59:46.708                             : en:Chapter 10
, W- @3 n- k5 n& ?& j01:06:15.012                             : en:Chapter 11* K+ l: s- ?, h
01:10:42.655                             : en:Chapter 122 O* [0 L  }7 g/ x, ^8 m- {( I
01:16:28.709                             : en:Chapter 13' ~) z8 Q0 |% c2 n: ^
01:22:38.745                             : en:Chapter 140 s) @+ M& U2 F. }2 ^. m- Z
01:27:35.792                             : en:Chapter 15; w; E; ?- k) r
01:34:45.763                             : en:Chapter 16
7 X. z9 f7 A$ }% I3 f- s
游客,查看本帖隐藏内容请回复 | 加入VIP贵宾组可免积分免回复下载 了解详情 | 还不是会员:点击获取邀请码 Invitation Code

本版积分规则

小黑屋|Archiver|蓝光电影资源网

GMT+8, 2021-1-23 11:41

快速回复 返回顶部 返回列表