BluRayCD Forum

 找回密码
 立即注册【分享大片】

QQ登录

只需一步,快速开始

查看: 63|回复: 3
收起左侧

[4K极清电影] IMAX 大熊猫/熊猫们 [4K REMUX无损版] Pandas 2018 DOCU 2160p BluRaycd REMUX HEVC DTS-HD MA 5.1-FGT 27.40GB

[复制链接]

5387

主题

5741

帖子

6万

积分

Forum Moderator

金币
3760 枚
体力
25373 点

卓越贡献勋章VIP蓝光勋章

迅雷电影 发表于 2020-9-7 20:52:59 | 显示全部楼层 |阅读模式
In the mountains of Sichuan, China, a researcher forms a bond with Qian Qian, a panda who is about to experience nature for the first time.  u8 J9 n" f; @* C* e3 X. K
' A, l% M6 O+ q
01.jpg ! M, {0 a( a; o) ?* t! y* F

+ d7 \# t5 K3 P* t◎译  名 大熊猫/熊猫/熊猫们2 q3 Y5 K, \% r) k1 r, `) ]5 x$ b
◎片  名 Pandas# ?- g) k; O; m/ \7 `
◎年  代 2018& z* @# O) x$ l" \  n
◎产  地 美国8 e" R0 O; ?7 A' ~  F+ g2 d  L# N* n) h/ l
◎类  别 纪录片
! L+ ~, m1 Z, @# g! g  P" g◎语  言 英语
1 k! I2 P8 ]) b- u1 F" r; c& f◎上映日期 2018-04-06(美国)/2020-07-25(上海国际电影节)
% [& X" _5 t4 T7 E◎IMDb评分  7.4/10 from 488 users+ K2 S7 T9 N8 }" W$ @9 ~: i' R0 W& z
◎IMDb链接  https://www.imdb.com/title/tt7860270/% B: h" t* C* c4 [, y. O! o
◎豆瓣评分 7.8/10 from 228 users
! \1 ?. c* J* d0 l7 {2 w% _! {1 S◎豆瓣链接 https://movie.douban.com/subject/27666581/" k4 j1 [# d! {  R* c
◎文件格式 x265 + DTS ) z9 p5 h) t; l8 ]# p6 W; h
◎视频尺寸 3840 x 2160* P. T; t$ E9 t" }/ I: S
◎文件大小 1DVD 27.40 GiB: o5 `+ N: Z: Q$ N- l
◎片  长 42 min 17 s
* T0 ]( a( C! U8 `! y◎导  演 David Douglas
5 f/ l& n& M, _( L       德鲁·菲尔曼 Drew Fellman
" K! g0 ?/ v& U+ ]# r- y- b6 w◎编  剧 德鲁·菲尔曼 Drew Fellman& H; r2 D$ H$ O
◎主  演 克里斯汀·贝尔 Kristen Bell# Y3 J9 R( G: W8 p0 s' f. d. _8 s
       李冰冰 Bingbing Li9 H- r0 I6 P( f% F! R; N( a
       Wen Lei Bi+ n9 @) O8 g% |& e* r" {2 e- x
       Rong Hou# q: G& c! t+ c2 b4 H, O& [6 N/ O
       Jacob Owens/ W, o* m" P% r' ^* _" a% A
) z+ l6 X" S' e
◎标  签 纪录片 | 大熊猫 | 熊猫 | 美国 | 自然纪录片 | 动物 | IMAX | 2018
$ [0 e0 ^( j; }  h  d. i6 w
- p0 u, @1 q; m! n* x" p◎简  介  $ U( J9 L3 P5 a; Q; G
. T' K0 ]& @- H; l! f) w) }
  IMAX打造的原创纪录片
/ k! O6 n! B5 a  T" ^3 i  c  在中国成都熊猫基地,科学家们致力于让成年熊猫繁殖,将幼崽引入野外。
' d& p! z9 c, I: ~& Q3 l  该片聚焦一位充满热情的研究人员,她开发了一项新技术,灵感来自于美国新罕布什尔州农村的黑熊计划。一名美国生物学家跨国而来,一名来自内蒙的科学家,以及一名圈养出生、非常有好奇心的雌性熊猫幼崽“倩倩”,展开跨国合作,踏上了改变熊猫生/人生的旅程。! Z8 \" g/ |, t9 p# u: }
  该片以IMAX摄像机拍摄,全程捕捉倩倩的刺激新旅程,她将踏出保护栖息地,进入四川山区,发现动物的本性,即使会面临前途未知的挑战。; h& i. [. N# m/ F- j
  大卫·道格拉斯&德鲁·费尔曼(《天生狂野》《马达加斯加:狐猴之岛》)执导,费尔曼编写剧本并制片,道格拉斯同时担任摄影指导,Donald Kushner、Steve Ransohoff制片,Li Gen Xiong&Elie Samaha执行制片, Neal Allen担任线上制片人。6 X. `" q! j+ P: B" U+ K( J
  该片分级为G,将于2018年4月6日起登陆北美特定IMAX和IMAX3D影院。
) W* G7 A! D3 i! Y8 \/ P
. M) Y/ t  i0 _# ^  At Chengdu Panda Base in China, scientists are dedicated to protecting the species by breeding adult Giant Pandas in order to introduce cubs into the wild. This film follows one such researcher, whose passion leads her to initiate a new technique inspired by a black bear program in rural New Hampshire. What starts as a cross-culture collaboration becomes a life-changing journey for an American biologist who crosses an ocean to join her; a scientist from Inner Mongolia; and a very curious female cub named Qian Qian, born in captivity.
; y9 d! Z; I$ ^; C
Video
: Q  Q/ `, E) R8 pID                                       : 1  v; K2 f8 A6 {2 y" P; @3 z
ID in the original source medium         : 4113 (0x1011)
" t, z& K4 e/ U5 vFormat                                   : HEVC
  K; l0 Z* ]% k6 e' vFormat/Info                              : High Efficiency Video Coding
2 j& f) x" J* `  V& f+ `Format profile                           : Main 10@L5.1@High* P1 ^, `% n9 L4 R# ]9 t$ ], k" j
HDR format                               : SMPTE ST 2086, HDR10 compatible* D* E$ `  ]) `
Codec ID                                 : V_MPEGH/ISO/HEVC
* z/ m& A4 F$ l2 r- q  k9 yDuration                                 : 42 min 17 s$ l* L. M: i, ?7 c7 m! Q9 i
Bit rate                                 : 87.6 Mb/s3 r; E2 O$ _/ x8 t; I! `6 ?, w, T
Width                                    : 3 840 pixels
- x; ], s) g+ z3 U, S. H5 eHeight                                   : 2 160 pixels) R6 I/ ]7 @7 [  l* w
Display aspect ratio                     : 16:9
$ n0 z% c  w9 g6 z3 RFrame rate mode                          : Constant; ^) f/ A9 d& F4 D! O
Frame rate                               : 23.976 (24000/1001/37687) FPS" R/ @% U, P+ g% E5 f: q% t% f
Color space                              : YUV
" i. B9 {1 B: |, zChroma subsampling                       : 4:2:0 (Type 2)
# L  ?6 O. F+ T, n% \) K+ }8 tBit depth                                : 10 bits
1 t& q" V2 O* NBits/(Pixel*Frame)                       : 0.440
+ F, `$ ~2 a7 R. GStream size                              : 25.9 GiB (94%)7 `3 g+ _6 r. S7 d
Title                                    : Pandas.2018.2160p.BluRayCD.REMUX.HEVC.DTS-HD.MA.5.1-FGT
6 z3 x+ @4 A$ K- |. }! ^! `Writing library                          : ATEME Titan File 3.9.0 (4.9.0.0)        
' b/ }- Q. |) R  c- H- tLanguage                                 : English
1 p6 F- p. H2 s# G& R3 SDefault                                  : No$ h5 Q: I5 j) ]$ ]! j8 [
Forced                                   : No
- V4 l3 u' V8 t& N( gColor range                              : Limited
$ ]* q  D3 g% l, NColor primaries                          : BT.2020
  N# E- `" p+ K5 t" qTransfer characteristics                 : PQ7 b2 T. P3 I( e$ @2 F
Matrix coefficients                      : BT.2020 non-constant
' g4 R6 i! I4 J. NMastering display color primaries        : Display P3) O  ?. y% f8 q, b
Mastering display luminance              : min: 0.0010 cd/m2, max: 1000 cd/m2$ _2 @% m) {* `* u
Maximum Content Light Level              : 1034 cd/m2# }( d. W) C: a  _: n
Maximum Frame-Average Light Level        : 292 cd/m2
9 b3 s" u4 g$ x. z, A  p; gOriginal source medium                   : Blu-ray
5 G! g! n. C) c+ W) I& l/ }2 m) f( w  }0 k% i* y
Audio #1
# T+ ]# \, f: P4 DID                                       : 2" B2 U1 I0 R$ ?" U
ID in the original source medium         : 4352 (0x1100)! }& f% V* g6 q& W9 Z9 \2 R& J. J7 r
Format                                   : DTS XLL1 f% D1 ?" B2 _* n! J
Format/Info                              : Digital Theater Systems, |- j" A, j6 F! G  g6 F
Commercial name                          : DTS-HD Master Audio) Z! B! L: t5 I& [1 S- f  M
Codec ID                                 : A_DTS
5 @5 G5 l0 U9 u9 YDuration                                 : 42 min 17 s. ?8 q) Y$ l% X7 S5 l9 f1 N
Bit rate mode                            : Variable. a7 u% S8 \* ^" J' j6 T" k, B' n
Bit rate                                 : 3 881 kb/s5 ^; ^6 J  j- m
Channel(s)                               : 6 channels$ H8 L; r9 x8 a% h
Channel layout                           : C L R Ls Rs LFE, k  `# M% ?( ~9 d
Sampling rate                            : 48.0 kHz
" h( k0 O# G9 q, s. gFrame rate                               : 93.750 FPS (512 SPF)
5 ?8 A3 V' z' y% S" Z: `' A6 WBit depth                                : 24 bits
7 u; F$ r( A' FCompression mode                         : Lossless  K  J& z) F4 N: c5 t1 x
Stream size                              : 1.15 GiB (4%)* }6 Z8 b7 O6 @8 Z$ c6 G
Title                                    : Pandas.2018.2160p.BluRaycd.REMUX.HEVC.DTS-HD.MA.5.1-FGT/ h' r, K- i0 @' o) Z6 `/ W9 `
Language                                 : English9 d& a2 [; @8 [+ {3 D
Default                                  : Yes
0 |. I3 b) u' n# \' VForced                                   : No
+ R$ t. {7 Z6 `! h4 b7 z2 m  y9 {Original source medium                   : Blu-ray0 p- r- c4 ^# s* `
+ S! A4 n1 n! @! L: q: I0 |
Audio #2: J7 c1 E+ v7 @
ID                                       : 3
4 w8 a# f* Z- c( s% W2 q! {ID in the original source medium         : 4353 (0x1101)
" R- j  h0 E- G, PFormat                                   : AC-3
' H, r7 t7 m. D2 Y' G. O7 a# J  wFormat/Info                              : Audio Coding 3# _3 q$ m2 x- q4 c0 ?4 x5 r
Commercial name                          : Dolby Digital1 f5 W8 ?) F' d, Q+ r, e( O- _
Codec ID                                 : A_AC37 |3 ^+ F8 `) S# ?; |) a/ _+ Z7 ^
Duration                                 : 42 min 17 s
2 t; A7 t, M( h9 S5 n9 a$ H5 F) ]Bit rate mode                            : Constant
: L( r: j+ n; F) [; Z% N, K$ e* q  NBit rate                                 : 640 kb/s/ n3 q! I4 |) j
Channel(s)                               : 6 channels
) I( A3 d" U* H! Q3 ?Channel layout                           : L R C LFE Ls Rs
2 ?$ i: t6 h; p0 ]Sampling rate                            : 48.0 kHz
/ A2 {5 s- z% Z% ^. i2 wFrame rate                               : 31.250 FPS (1536 SPF): ]4 R6 N7 E( S
Compression mode                         : Lossy7 ]; z+ D+ w- g' y1 G8 s
Stream size                              : 194 MiB (1%)
# \1 d1 |  P# t$ @7 YTitle                                    : Pandas.2018.2160p.BluRaycd.REMUX.HEVC.DTS-HD.MA.5.1-FGT/ K8 Z6 k; s6 @% l! A8 @
Language                                 : French3 b: L1 Z0 D1 X. m0 y
Service kind                             : Complete Main
/ g* m1 y; {1 O$ F  P- P2 k9 @Default                                  : No. u$ w9 q- ]* e# o7 S( h9 N- g
Forced                                   : No8 \; H6 J2 m1 A4 P
Original source medium                   : Blu-ray
# F. a, ]1 L* h& @" N0 M- o$ @1 |
. ~/ g$ M0 S/ z9 ^5 OAudio #3
  g% o! M' [2 Q9 |0 z+ X* _! CID                                       : 4) l( v* t! N* ^1 ~# M) K
ID in the original source medium         : 4354 (0x1102)
3 b$ [& H! d' ^: x, `Format                                   : AC-3; X# h0 M, U; _- \" h9 g! I
Format/Info                              : Audio Coding 3
) U/ ]6 F9 s2 w0 M* u* E1 bCommercial name                          : Dolby Digital) q: K4 X" P: a1 @4 R, ]
Codec ID                                 : A_AC35 ~6 U+ e  q8 q2 A& n( U/ S
Duration                                 : 42 min 17 s" o2 a& {* o, S6 c; \, _! @
Bit rate mode                            : Constant
. x0 b( p' N7 {& m8 bBit rate                                 : 640 kb/s3 m5 \; D% v' |% E, U' M4 u& t
Channel(s)                               : 6 channels6 `3 \/ q( a1 T4 I5 J; T% w
Channel layout                           : L R C LFE Ls Rs: Y& A$ `3 q/ L8 J9 B3 p, v* z
Sampling rate                            : 48.0 kHz
9 [9 j5 F; k' y, [1 V* }, xFrame rate                               : 31.250 FPS (1536 SPF)
. |- ]& e& ?7 t9 ]' iCompression mode                         : Lossy; Z: l9 S- d4 c9 ^( T
Stream size                              : 194 MiB (1%)
# w" p6 J* I7 ZTitle                                    : Pandas.2018.2160p.BluRaycd.REMUX.HEVC.DTS-HD.MA.5.1-FGT. r, r' v0 u3 j. F5 E9 R. B
Language                                 : Spanish
( U& [: n5 m. V' m# bService kind                             : Complete Main
* ?7 Y: g- B, Y; wDefault                                  : No
, n4 t/ {; F  f. q- W0 y' BForced                                   : No
. Z/ Y: E5 c( o4 ]) n/ g' QOriginal source medium                   : Blu-ray0 B/ V; X! _! d  E7 l

. J: q8 U/ W7 w& j6 G6 `Text #1
& j4 Q. _/ A# I6 q( NID                                       : 5
0 b7 h, @& R8 E/ ^) X8 XFormat                                   : UTF-8
$ s9 I7 E" H. ~7 l" ^Codec ID                                 : S_TEXT/UTF89 b) @: x0 ]( \" T1 {5 x1 `" S
Codec ID/Info                            : UTF-8 Plain Text0 g( e/ A+ _- \
Duration                                 : 38 min 21 s
  y* X% \+ Q; Y7 |Bit rate                                 : 42 b/s
+ P8 z5 ?- j; D. p- BCount of elements                        : 337
6 H0 y0 j! J/ ~7 u; ?Stream size                              : 11.8 KiB (0%)
: H* W* q# y& Y" O/ \# o' `Title                                    : English-SRT+ Q( @! R) I+ P2 {  c
Language                                 : English/ c' ]" A4 r6 i3 O
Default                                  : Yes
4 R. V2 b% @# s' L* Z; |% ~6 NForced                                   : No
1 i9 O: @* S) Q, r5 w; K& ]4 ]" v8 x$ t6 T( M/ F
Text #2
& \# Z: d* H9 F  \4 ~4 b$ uID                                       : 6
. r2 d. w, _, n" `5 XID in the original source medium         : 4768 (0x12A0)
$ T& R7 S; r% e: q# D: ~3 YFormat                                   : PGS
, S4 N' g. ^* U# gMuxing mode                              : zlib
$ d) D+ N  E2 tCodec ID                                 : S_HDMV/PGS! X  t! D; l" Z( l
Codec ID/Info                            : Picture based subtitle format used on BDs/HD-DVDs
1 P9 A. h3 t# |+ z6 KDuration                                 : 39 min 27 s4 r5 D# U" r+ v3 Y
Bit rate                                 : 28.3 kb/s
' _  }, b" Z# LCount of elements                        : 7360 a; }. @6 @+ d/ s
Stream size                              : 7.98 MiB (0%)/ \/ b. b4 y) C" S% r9 y
Title                                    : English-PGS. |) c: `6 _. l/ `
Language                                 : English0 w1 l+ c3 r9 _7 h
Default                                  : No
5 c( `( @! |: ~3 pForced                                   : No
: L+ o5 L- ]/ D1 }. D7 N: }Original source medium                   : Blu-ray
: p/ d, M& S# s; ~% y; T
$ c8 M: E# P3 J# M" UText #3, w* r/ ^3 u1 T) ?
ID                                       : 7
" i4 N% ~  M  |5 s6 W/ zID in the original source medium         : 4769 (0x12A1)
% j/ s( e, \1 M" _3 J& Q/ j1 ~Format                                   : PGS
) B; r  k% i; m% {& k/ JMuxing mode                              : zlib2 u- I* G5 w1 q! g" d; ~4 L9 I. f8 s
Codec ID                                 : S_HDMV/PGS# ~% I0 i" b7 W' l  Z* `
Codec ID/Info                            : Picture based subtitle format used on BDs/HD-DVDs" c9 c1 ?5 w8 Y* s, o  g) N
Duration                                 : 40 min 22 s4 o( V; k8 p! J' W4 d9 d
Bit rate                                 : 25.8 kb/s
8 p+ i. G# \5 k! xCount of elements                        : 652
3 l! N) X# V2 k& T/ J4 AStream size                              : 7.46 MiB (0%)1 l2 ]. |3 p% s2 _# K, b
Title                                    : French-PGS
6 e: A7 H# E( Z/ F0 {7 r) mLanguage                                 : French
% i/ z4 P* [% I8 a4 B; b4 ZDefault                                  : No3 r; W4 R  c, Y# n' g2 q: f
Forced                                   : No
3 b1 o9 v3 N' I; o" V" |9 pOriginal source medium                   : Blu-ray3 Y4 ]2 {9 }! i" R5 E$ _/ ^, T

3 D$ [! w0 W& _  P: bText #4
+ m4 S3 q7 K( z1 }) C- ?6 D: |/ b0 nID                                       : 8
1 m0 X4 j1 o5 p" e" YID in the original source medium         : 4770 (0x12A2)
4 k  |& V* W/ D+ Q: NFormat                                   : PGS# Q2 o, ]. t5 e" w5 q( ~
Muxing mode                              : zlib
# [* e# H; |% F; W( m+ rCodec ID                                 : S_HDMV/PGS
7 F  Q4 f- `+ N8 j1 M, LCodec ID/Info                            : Picture based subtitle format used on BDs/HD-DVDs
( t7 {  r3 F' c, C( p3 A# N" }2 l0 JDuration                                 : 40 min 22 s
! q7 B8 e+ j0 D0 P1 \7 fBit rate                                 : 25.2 kb/s
# w; @2 _; n4 Q- NCount of elements                        : 652
/ W  t' r0 f& R# \: oStream size                              : 7.29 MiB (0%)% s3 h' v& S. {1 ]$ O
Title                                    : Spanish-PGS+ x% y- B: _  w+ U  @
Language                                 : Spanish
' }9 M3 }4 ]! v: p# C& e8 MDefault                                  : No
# N! U0 S5 y" X  M1 ?Forced                                   : No; N4 i7 z3 H3 ~. f, g- E5 u
Original source medium                   : Blu-ray' `( A6 n3 s$ ?/ c

2 F$ F- p; j) yMenu( ~% \, a- a- C$ }4 u; u, R
00:00:00.000                             : en:Chapter 01. o( S7 x  Q2 |! x
00:09:56.846                             : en:Chapter 02
6 F5 ?2 p  L! f00:20:53.835                             : en:Chapter 03" m, m' m. q/ G3 r
00:30:53.268                             : en:Chapter 04' U7 u/ t! D* K. I
00:39:53.974                             : en:Chapter 05
2 [3 @% v, q5 a- \; C( t& A2 z
游客,查看本帖隐藏内容请回复 | 加入VIP贵宾组可免积分免回复下载 了解详情 | 还不是会员:点击获取邀请码 Invitation Code

577

主题

1906

帖子

1万

积分

VIP advanced

金币
1631 枚
体力
4351 点

公主勋章卓越贡献勋章

21cn 发表于 2020-9-7 21:43:30 | 显示全部楼层
看了LZ的帖子,我只想说一句很好很强大!""
+ A9 |3 V! X9 m3 V- YBlu-ray Film Forum: I will always support you!* x2 u  ^0 Z8 d7 S! G$ J+ |

56

主题

1370

帖子

4931

积分

Sponsor

金币
224 枚
体力
1882 点
lanpanshuma 发表于 2020-9-8 09:53:37 | 显示全部楼层
这么好的帖子不回对不起自己!
5 ?2 s: }( h- T! `% n要想蓝光电影论坛发展好,资源多,就靠你我他!To the development of Blu-ray movies forum, resources and more depend on you and me!
; ~8 j) h# t6 L. m! ]
该会员没有 ...

0

主题

53

帖子

310

积分

Sponsor

金币
106 枚
体力
88 点
skyewan 发表于 2020-9-10 07:11:07 | 显示全部楼层
太强大了,不知道做成3d效果会不会更棒

本版积分规则

小黑屋|Archiver|蓝光电影资源网

GMT+8, 2020-9-22 03:56

快速回复 返回顶部 返回列表