BluRayCD Forum

 找回密码
 立即注册【分享大片】

QQ登录

只需一步,快速开始

查看: 90|回复: 3
收起左侧

[4K极清电影] IMAX 大熊猫/熊猫们 [4K REMUX无损版] Pandas 2018 DOCU 2160p BluRaycd REMUX HEVC DTS-HD MA 5.1-FGT 27.40GB

[复制链接]

5411

主题

5765

帖子

6万

积分

Forum Moderator

金币
3859 枚
体力
25445 点

卓越贡献勋章VIP蓝光勋章

迅雷电影 发表于 2020-9-7 20:52:59 | 显示全部楼层 |阅读模式
In the mountains of Sichuan, China, a researcher forms a bond with Qian Qian, a panda who is about to experience nature for the first time.& O) \' w' X1 ^8 x
5 t6 Y7 K1 ?7 H6 |; c/ I0 ]" a5 _
01.jpg
4 F0 ?* Z2 `+ s/ f0 y, d9 {% U
+ ]" u- i$ t/ _! R+ z◎译  名 大熊猫/熊猫/熊猫们
* E  X" p6 F0 o◎片  名 Pandas
0 b1 o* N0 g& v; [  ?0 K, j! d◎年  代 2018
2 g  A0 K1 D% H◎产  地 美国
# F  p4 h8 F0 b  o( U◎类  别 纪录片1 n, N& ~8 G' J7 r+ f. {4 W
◎语  言 英语
' @9 j# }! Y) ~5 g/ e* l! U" r2 L◎上映日期 2018-04-06(美国)/2020-07-25(上海国际电影节)
# \/ J! W+ m( ~% ^9 j: ^/ [◎IMDb评分  7.4/10 from 488 users5 J1 t3 H, b7 M4 e6 ?, J
◎IMDb链接  https://www.imdb.com/title/tt7860270/
6 |' F2 i2 `4 ^5 m) s# o* L◎豆瓣评分 7.8/10 from 228 users" x/ l* Q; s6 G. @- A+ u
◎豆瓣链接 https://movie.douban.com/subject/27666581/
6 ~: _9 e1 N9 X+ V2 V* A◎文件格式 x265 + DTS   ~0 ]' Y  ^8 @2 `  j
◎视频尺寸 3840 x 2160
0 u1 c/ V7 g! ^- j8 y◎文件大小 1DVD 27.40 GiB
: c; b& Q; I8 F& V◎片  长 42 min 17 s
0 K' S+ R) P/ t# I◎导  演 David Douglas
6 |2 J5 ^  _) h       德鲁·菲尔曼 Drew Fellman: {: F2 S0 }0 v3 T8 i' l5 y
◎编  剧 德鲁·菲尔曼 Drew Fellman
4 B8 y/ u/ Q. X, \/ h◎主  演 克里斯汀·贝尔 Kristen Bell: i! {8 N0 ~5 p! Y2 E; ?
       李冰冰 Bingbing Li
6 ~2 ]9 x: L6 E! I! g/ t# w" b       Wen Lei Bi  _2 u3 w) D5 ]6 j, R9 m
       Rong Hou8 S  d3 n' ~9 g7 i. v5 {# {
       Jacob Owens/ K9 b7 b1 \* Y) T% k! E
! z% i5 Z+ o% A: e( P# H
◎标  签 纪录片 | 大熊猫 | 熊猫 | 美国 | 自然纪录片 | 动物 | IMAX | 2018
" T4 i3 y/ d0 h' K/ S; y" L$ e5 h% K2 X2 R3 B5 l
◎简  介  
! D/ m+ t8 q6 I
& Z) m! B9 H2 p9 n1 ]4 K! b" G  IMAX打造的原创纪录片
9 Y5 R. X4 K4 W( {8 }) n. f$ u9 @  在中国成都熊猫基地,科学家们致力于让成年熊猫繁殖,将幼崽引入野外。
5 K/ j. }: R( y  该片聚焦一位充满热情的研究人员,她开发了一项新技术,灵感来自于美国新罕布什尔州农村的黑熊计划。一名美国生物学家跨国而来,一名来自内蒙的科学家,以及一名圈养出生、非常有好奇心的雌性熊猫幼崽“倩倩”,展开跨国合作,踏上了改变熊猫生/人生的旅程。
2 W+ s3 ?, [" ^) s# z: d1 T  该片以IMAX摄像机拍摄,全程捕捉倩倩的刺激新旅程,她将踏出保护栖息地,进入四川山区,发现动物的本性,即使会面临前途未知的挑战。
7 b$ T! Q2 l: e0 R& u$ V  大卫·道格拉斯&德鲁·费尔曼(《天生狂野》《马达加斯加:狐猴之岛》)执导,费尔曼编写剧本并制片,道格拉斯同时担任摄影指导,Donald Kushner、Steve Ransohoff制片,Li Gen Xiong&Elie Samaha执行制片, Neal Allen担任线上制片人。
8 ?: I3 x8 d  G  该片分级为G,将于2018年4月6日起登陆北美特定IMAX和IMAX3D影院。0 M: L# P! W1 x3 U# s
6 Z/ Y" Y  I, F8 k' K0 U1 k
  At Chengdu Panda Base in China, scientists are dedicated to protecting the species by breeding adult Giant Pandas in order to introduce cubs into the wild. This film follows one such researcher, whose passion leads her to initiate a new technique inspired by a black bear program in rural New Hampshire. What starts as a cross-culture collaboration becomes a life-changing journey for an American biologist who crosses an ocean to join her; a scientist from Inner Mongolia; and a very curious female cub named Qian Qian, born in captivity.& c3 ?) I; t. x
Video
) h* b. C, e# q8 n# g" m: W2 S* ?- _ID                                       : 1. d" o' S4 k! s5 m- P% H
ID in the original source medium         : 4113 (0x1011)
9 U* e# M8 w4 u4 L2 b5 C* r( ^* xFormat                                   : HEVC" o+ \3 B7 G0 N8 g: `! N3 v2 V1 ?, P
Format/Info                              : High Efficiency Video Coding' y  I# }6 I9 k; T& d
Format profile                           : Main 10@L5.1@High1 t5 O- }8 F& u
HDR format                               : SMPTE ST 2086, HDR10 compatible8 N* y$ U4 `* ^6 ~6 ^
Codec ID                                 : V_MPEGH/ISO/HEVC
5 J. [8 {& R) G; ^# GDuration                                 : 42 min 17 s
# _+ l2 G4 G0 j8 sBit rate                                 : 87.6 Mb/s- S$ l+ H- {% f2 A- c
Width                                    : 3 840 pixels
; @. n3 G: y# w6 t9 fHeight                                   : 2 160 pixels
* i, n1 ]" O# e; w% [5 wDisplay aspect ratio                     : 16:9
0 c; H9 {+ _0 M/ I" WFrame rate mode                          : Constant
2 D6 I! A$ r4 {& V( n* EFrame rate                               : 23.976 (24000/1001/37687) FPS2 z& j- B% D1 }4 Z$ F  Y& s
Color space                              : YUV
% [* U1 I+ y7 Q" q& BChroma subsampling                       : 4:2:0 (Type 2)$ E$ z/ j) Z" M% m3 v( @$ p8 y1 `
Bit depth                                : 10 bits
) S6 [4 |; M: N. X# qBits/(Pixel*Frame)                       : 0.440
! L0 k0 e1 [# E0 i, `Stream size                              : 25.9 GiB (94%)! s' `$ _) k* q
Title                                    : Pandas.2018.2160p.BluRayCD.REMUX.HEVC.DTS-HD.MA.5.1-FGT
- e( }% @3 R! u' d0 D) S* SWriting library                          : ATEME Titan File 3.9.0 (4.9.0.0)        4 C& T+ K1 A2 J; ]
Language                                 : English
% z0 c( t/ |3 H( z) s  P  cDefault                                  : No
/ ?* R9 X! o" m& s8 q. ~, nForced                                   : No
( E' C: ^: Y" t4 N* N; TColor range                              : Limited, M$ N. m7 j4 Y+ y
Color primaries                          : BT.2020
' y" {9 {  ?2 cTransfer characteristics                 : PQ1 Q. p6 s/ G1 {: K' Q0 ]. k
Matrix coefficients                      : BT.2020 non-constant
& H2 u: w2 x- T- ~! @4 dMastering display color primaries        : Display P3$ G, ?  d5 {* S( x7 T# L
Mastering display luminance              : min: 0.0010 cd/m2, max: 1000 cd/m2# s' b8 f; X% J( Y+ i/ D, g, h
Maximum Content Light Level              : 1034 cd/m26 ]0 _( I3 T* I5 q
Maximum Frame-Average Light Level        : 292 cd/m23 }9 G& }! e: K, u! d! l3 E
Original source medium                   : Blu-ray; W6 ~" q# E! Q2 u

3 [$ M- A% b8 Z! ]# Y& \Audio #1% g9 a( x. J1 X
ID                                       : 2
/ Z/ r; F% a8 T6 w9 C6 a* LID in the original source medium         : 4352 (0x1100)/ M/ b& l5 }( `+ Q1 ]7 k: k
Format                                   : DTS XLL
1 ?# [4 F/ T8 U) H# E6 K" ^Format/Info                              : Digital Theater Systems2 z( \  I9 n% u
Commercial name                          : DTS-HD Master Audio
7 W, G& R7 u, ?Codec ID                                 : A_DTS3 d9 `" [4 T+ x& ]7 H
Duration                                 : 42 min 17 s
' u  \) R- c; K8 pBit rate mode                            : Variable
1 D. ?7 Q5 W% B( M. fBit rate                                 : 3 881 kb/s
0 J% t6 ~4 ?0 b2 p! jChannel(s)                               : 6 channels- s) F8 D$ v2 i. g$ R6 ?: Z3 }
Channel layout                           : C L R Ls Rs LFE
" n( A2 c2 \5 K% e% E, HSampling rate                            : 48.0 kHz
9 D. H5 D# C# t( r! J8 v5 tFrame rate                               : 93.750 FPS (512 SPF)% T3 e' }: Z. M. @
Bit depth                                : 24 bits
; d* y7 `8 o& l! S6 Q0 ~0 K6 j  f  TCompression mode                         : Lossless
4 Y9 _% g5 x' Y: OStream size                              : 1.15 GiB (4%)" l! v  x! q* E- t
Title                                    : Pandas.2018.2160p.BluRaycd.REMUX.HEVC.DTS-HD.MA.5.1-FGT5 z8 m  F' n0 {- C
Language                                 : English: x! f1 U5 w  v
Default                                  : Yes
. o! a0 }5 z3 t. TForced                                   : No
9 v( X# o& }, }$ S4 ~8 d5 {Original source medium                   : Blu-ray7 ]7 }1 ]$ z4 {2 y4 C3 C

3 z' q. D8 z+ B) E; `1 hAudio #2
/ l, S+ Y8 P4 E3 X1 f, x; g; ZID                                       : 3
1 M+ {8 f" e! T" z; Z6 |ID in the original source medium         : 4353 (0x1101)
0 G& V4 g: X8 L' b4 JFormat                                   : AC-3
* C- ?* H/ \- }( X4 |Format/Info                              : Audio Coding 3
' ?& V! b1 Z5 n! sCommercial name                          : Dolby Digital6 Z2 H% g; T5 m' h
Codec ID                                 : A_AC3
" @+ I3 o0 R3 o8 Y1 c% q$ qDuration                                 : 42 min 17 s
8 n) |$ |8 V( j* O9 {Bit rate mode                            : Constant( K6 L! v' b: s  G6 D9 ^+ O3 f1 ~
Bit rate                                 : 640 kb/s
5 x6 K; o+ ?1 ?9 a) D; HChannel(s)                               : 6 channels
+ @+ |+ B3 A3 ~- _8 z4 lChannel layout                           : L R C LFE Ls Rs
* V" f* N# h9 d! d, q$ K7 _2 Y: E- V! ASampling rate                            : 48.0 kHz
3 ~3 s, M! o( L. UFrame rate                               : 31.250 FPS (1536 SPF)6 _2 ~! `  E) y+ v, Q# `8 f8 Q1 _
Compression mode                         : Lossy7 ^# R- J$ J9 ~5 H4 K
Stream size                              : 194 MiB (1%)8 j6 N) i( {/ z% G4 A
Title                                    : Pandas.2018.2160p.BluRaycd.REMUX.HEVC.DTS-HD.MA.5.1-FGT
0 |: D( p, ~1 `+ j- L0 qLanguage                                 : French
3 f2 o5 Y, n- W4 p; o) bService kind                             : Complete Main; b- Y) h4 e+ B, V8 L* I1 _
Default                                  : No
; J* B  H( i4 W3 |Forced                                   : No
* z5 d: B0 W) fOriginal source medium                   : Blu-ray
0 L+ Z" t( A/ A& O; O$ F# g8 h6 a* w3 G8 b& w) u, i# v
Audio #3
" b: O! R( e1 j) ]  JID                                       : 4
2 M3 T7 T7 p. V$ jID in the original source medium         : 4354 (0x1102)
8 C* o, ^. Z- nFormat                                   : AC-3% |! {; c& f$ ]; v
Format/Info                              : Audio Coding 3
: Q. x$ o2 ]7 `9 A. ]Commercial name                          : Dolby Digital3 x8 I9 W2 T8 S' [3 v
Codec ID                                 : A_AC3
. m9 a( W1 Z" d' RDuration                                 : 42 min 17 s
  V: }+ |" o# o/ ~9 N' O( bBit rate mode                            : Constant
2 W, b* x+ p7 CBit rate                                 : 640 kb/s. O% r" v  m+ i, i4 j
Channel(s)                               : 6 channels
2 p6 H0 X7 q& u+ oChannel layout                           : L R C LFE Ls Rs
4 Q" o2 z! i$ |, ^0 B6 o$ J) hSampling rate                            : 48.0 kHz
0 |* @2 M8 b$ q& [) E8 |Frame rate                               : 31.250 FPS (1536 SPF)
/ O$ [5 C4 R* T' Y; X% rCompression mode                         : Lossy5 ?, s( v" D; S% \% s
Stream size                              : 194 MiB (1%)
3 t8 x# e# a2 _# I* T* u! QTitle                                    : Pandas.2018.2160p.BluRaycd.REMUX.HEVC.DTS-HD.MA.5.1-FGT/ C" O: h# O! a5 z+ Y* ?
Language                                 : Spanish: ?  k% f* ]) E/ \" D
Service kind                             : Complete Main
+ ^9 m3 W# P+ o: P* y& s) ]: NDefault                                  : No% B% F9 \+ a$ W% B8 w/ _/ }: |
Forced                                   : No, F" ^0 H( p, i* U
Original source medium                   : Blu-ray
; _; E$ u+ Q# a2 c8 N, U6 y- n1 _: a% R8 T9 y+ w' {- T+ p  W/ y: v
Text #1% u* e& n) J2 Z* f( c! H
ID                                       : 5
2 }* @) H% d: S  a: P  y, q% oFormat                                   : UTF-85 o# b+ R' V/ J/ n$ j
Codec ID                                 : S_TEXT/UTF8, ?9 w6 r% p+ e9 O; F
Codec ID/Info                            : UTF-8 Plain Text. r- k( V* H' n( B9 l
Duration                                 : 38 min 21 s8 U* N+ f) C' T# \* T
Bit rate                                 : 42 b/s9 j7 E- \" ~( C+ w1 N( j
Count of elements                        : 337
! s. t6 b4 S6 RStream size                              : 11.8 KiB (0%). U/ k& G1 M! o3 a# g1 e; q  O* X
Title                                    : English-SRT) s' N' P- `3 g' @2 ~# }! U
Language                                 : English
% O) j$ b; _  E5 QDefault                                  : Yes
7 w* z, ?2 E8 w+ q3 a5 w- PForced                                   : No' ~* O  X' P; a& U
+ N8 S; m) g4 A9 B/ J& c* D
Text #2
, z. f4 A) J: ?6 O7 v  pID                                       : 6: A9 y* B9 j% I' \
ID in the original source medium         : 4768 (0x12A0)
+ ?8 I; ^; n, VFormat                                   : PGS# e3 Z9 k" N$ I" P* r
Muxing mode                              : zlib
5 x  m/ f- c0 eCodec ID                                 : S_HDMV/PGS# i1 c( q" G. _+ Q. E) c* Y
Codec ID/Info                            : Picture based subtitle format used on BDs/HD-DVDs
9 X0 c8 L& f. _% @' R' \) oDuration                                 : 39 min 27 s
4 l0 m( v: R/ I* A4 Y1 Q/ WBit rate                                 : 28.3 kb/s
% ^8 k  c: q  B4 v) wCount of elements                        : 736  Z4 c/ L2 {7 G  C1 [
Stream size                              : 7.98 MiB (0%)$ p0 z5 g4 z+ P( N% N% U, p' M
Title                                    : English-PGS
+ s" N9 A! ]; C* Y$ ]: tLanguage                                 : English7 ]) j/ K7 p, l0 |" g
Default                                  : No9 n% \6 V+ h1 U- J: R8 L9 @; M
Forced                                   : No" `9 p9 i. x/ r- j
Original source medium                   : Blu-ray9 z+ Z) B" _# {2 O) n4 A8 K& {# S
; q- e/ P4 M" M$ j1 F9 p# y4 @1 B
Text #3" C6 L5 c- x7 U
ID                                       : 7, j  N' U, n4 X1 G, V  ~* O) |8 t8 {. u; W
ID in the original source medium         : 4769 (0x12A1)& R0 ~' X8 s3 L( c
Format                                   : PGS9 ?& Z- j; t+ S0 m
Muxing mode                              : zlib
; r. E8 f& }- ?! }% bCodec ID                                 : S_HDMV/PGS* x/ B  w7 I) h6 E* Z! @
Codec ID/Info                            : Picture based subtitle format used on BDs/HD-DVDs
3 ~+ B- c) t3 [0 t0 _, T: p# H8 p4 N3 wDuration                                 : 40 min 22 s
! t% t3 c) L7 w* V. w; {0 uBit rate                                 : 25.8 kb/s
  ~4 q; z0 j$ D; ~. H2 Q/ vCount of elements                        : 652
% r! v: q7 S, U2 cStream size                              : 7.46 MiB (0%)
: w; l& N, a8 ^0 ITitle                                    : French-PGS% j2 D* J9 w- k' ^" W& {
Language                                 : French
6 ?& l4 ]! o& H0 ~5 JDefault                                  : No
' v% c6 K8 |7 K3 h& NForced                                   : No5 G, V9 a) n7 m  o7 ~# Z; W
Original source medium                   : Blu-ray
2 u% I1 g" E3 U5 k: ~4 \* ~# |$ W* Q- ]6 O( t
Text #4# b* M1 @/ c# C# e& u
ID                                       : 8" |8 O9 r) t  Y0 o0 m
ID in the original source medium         : 4770 (0x12A2)+ K% Z) t: c' h' _: V
Format                                   : PGS* m4 l0 ^) s+ _" G4 W
Muxing mode                              : zlib, ]6 l& u  ]) z
Codec ID                                 : S_HDMV/PGS. T9 h' E7 K) Q/ B+ g
Codec ID/Info                            : Picture based subtitle format used on BDs/HD-DVDs  _& e, X; g6 _& I7 A1 f
Duration                                 : 40 min 22 s3 {$ _; ~. U% D& ?( }' S+ p
Bit rate                                 : 25.2 kb/s: \- n7 \0 X* L: B3 Q! N
Count of elements                        : 6521 A7 h& V/ H; G! ?  c* E7 w
Stream size                              : 7.29 MiB (0%)
% {8 |  Z7 v1 ?Title                                    : Spanish-PGS
; W' F9 O- M+ F- U. F, w. tLanguage                                 : Spanish
, _9 o, w* @# g; u2 LDefault                                  : No3 K4 Z! X' g/ D0 W, X9 K! Y
Forced                                   : No
* ^; N: [" r; Q# hOriginal source medium                   : Blu-ray
# K9 c" }& p$ P( S
- u. E6 O; W, R4 V5 q' _1 W! eMenu  u' }, F& Y5 P: l3 F
00:00:00.000                             : en:Chapter 01- O- q% x$ ]) P; D: _1 H! X
00:09:56.846                             : en:Chapter 02) ^* |" u" }  h) I! c! K+ s+ D- x
00:20:53.835                             : en:Chapter 03
% F9 X( }+ Q- u, P00:30:53.268                             : en:Chapter 04* Y& A2 Q! |" W$ ^
00:39:53.974                             : en:Chapter 05

# J2 U0 r9 o; L  P& E) P' q8 [
游客,查看本帖隐藏内容请回复 | 加入VIP贵宾组可免积分免回复下载 了解详情 | 还不是会员:点击获取邀请码 Invitation Code

618

主题

2087

帖子

1万

积分

VIP advanced

金币
1849 枚
体力
4762 点

公主勋章卓越贡献勋章

21cn 发表于 2020-9-7 21:43:30 | 显示全部楼层
看了LZ的帖子,我只想说一句很好很强大!""
& l% J2 V% U9 m5 v; R/ y# G$ pBlu-ray Film Forum: I will always support you!( t' B9 y1 S. f3 ^4 W6 {2 x

67

主题

1718

帖子

6408

积分

Sponsor

金币
512 枚
体力
2368 点
lanpanshuma 发表于 2020-9-8 09:53:37 | 显示全部楼层
这么好的帖子不回对不起自己!
9 g: x7 ^8 R/ u) x/ r2 e5 z要想蓝光电影论坛发展好,资源多,就靠你我他!To the development of Blu-ray movies forum, resources and more depend on you and me!
. t& j& @# W3 L$ H) e" d# W# ]
该会员没有 ...

1

主题

65

帖子

381

积分

Sponsor

金币
117 枚
体力
129 点
skyewan 发表于 2020-9-10 07:11:07 | 显示全部楼层
太强大了,不知道做成3d效果会不会更棒

本版积分规则

小黑屋|Archiver|蓝光电影资源网

GMT+8, 2020-12-5 14:04

快速回复 返回顶部 返回列表