BluRayCD Forum

 找回密码
 立即注册【分享大片】

QQ登录

只需一步,快速开始

查看: 19|回复: 0
收起左侧

[剧情悬疑] 亡命徒 The Quarry 2020 720p BluRaycd x264-YOL0W 5.03GB

[复制链接]

3897

主题

4271

帖子

3万

积分

Post Share

金币
7316 枚
体力
6584 点

卓越贡献勋章

mvods 发表于 2020-9-9 21:48:52 | 显示全部楼层 |阅读模式
01.jpg 0 B/ V# u4 ~, i% `- v" ]
$ x5 O# c1 Q1 P$ q6 h
◎译  名 亡命徒
; F9 R. `. p5 W0 [# m* a  C◎片  名 The Quarry
8 x) D6 S) |' n0 ]" y. l◎年  代 2020/ Z4 f4 }2 d6 n2 q5 }1 Y
◎产  地 美国( g7 \% K5 ?* m6 b) ?' t
◎类  别 悬疑/惊悚/犯罪
  o9 S3 n& U+ W& Y5 ~( A◎语  言 英语
2 b2 e+ }0 _8 n5 h. @8 k4 R◎上映日期 2020-04-17(美国)
! p7 |4 ]0 H8 Q5 M5 B. A! {◎IMDb评分  5.2/10 from 1,461 users2 W% V) [, `1 J( _: x/ Y* W
◎IMDb链接  https://www.imdb.com/title/tt10151054/: M) |+ c' A- y+ O
◎豆瓣评分 5.1/10 from 185 users% W7 ]1 E: N- z; [% {0 f5 l
◎豆瓣链接 https://movie.douban.com/subject/33458692/0 ]$ t# W- f0 Y3 `. P) x
◎片  长 1 h 43 min+ e3 b  ~. t  e$ i! k
◎导  演 斯科特·泰姆斯 Scott Teems
7 p/ r6 _% N- t  S/ O. I◎编  剧 斯科特·泰姆斯 Scott Teems
, B1 j$ f$ Z6 P9 W8 ?2 I. e) A# Y/ L  |       Andrew Brotzman
6 V6 i4 h, Y" d3 x$ X8 i       Damon Galgut9 ]( ^3 y0 t% v+ p) m8 c- h
◎主  演 谢伊·惠格姆 Shea Whigham
- [, R7 H; S8 b7 E. r       迈克尔·珊农 Michael Shannon
8 D+ R) X4 I6 K% a! v9 P       卡塔利娜·桑迪诺·莫雷诺 Catalina Sandino Moreno
. f" X7 j6 a# ?& q% e0 A/ ?       鲍比·索托 Bobby Soto
; K( T3 R( K" X% z& T       布鲁诺·庇屈 Bruno Bichir, d' M( z5 f( f) y; ^$ R
       Alvaro Martinez! {9 j$ t) {' J6 R8 r  m
       吉米·冈萨雷斯 Jimmy Gonzales0 ]' P1 d1 V. r' g% f0 h
       阿贝尔·百色拉 Abel Becerra" L- E( q7 y+ g) {/ I$ m( F: _/ t2 n
       安东尼·雷诺兹 Anthony Reynolds
/ G% r3 s3 |" F' }; ]; @& Q       Rose Bianco
1 y" t6 \8 {/ K( L: [0 Q       朱莉娅·维拉 Julia Vera
9 y; r0 u! n$ ^7 w1 e2 @& i; ~       大卫·詹森 David Jensen2 b# D& Z/ R' ]8 N6 F& e+ B
       Gordon Dexheimer" W& b8 U* A  R) C0 r% `

6 Q3 q& z4 A8 E◎标  签 2020 | 美国 | 美国电影 | 犯罪 | SheaWhigham | 惊悚 | MichaelShannon | 悬疑
3 \" A$ M& V! f6 M$ h' ~- n, Y1 R6 A* ~
◎简  介  + X) [: F" a0 t

! P0 R5 @4 j$ y1 T6 c  一个从自己的自家自家的辛纳中逃跑的男子,发现自己在得克萨斯州的一个小边境小镇,冒充牧师。小镇很快被这名男子非正统的布道所吸引,但一位有怀疑的警察局长也是如此。
% K. G* }2 o2 W
Video
" Z/ Q9 K2 Q0 m8 ?4 N1 }; j/ o4 L. oID                                       : 1$ v5 G' L$ W4 @9 _0 {- i' t
Format                                   : AVC
( a7 S/ `1 X6 P1 u  {2 b1 WFormat/Info                              : Advanced Video Codec& e" h) U/ w6 ]9 g
Format profile                           : High@L4.1
2 |5 K8 t7 e7 v; W. C  DFormat settings                          : CABAC / 8 Ref Frames7 @) G$ Q! V8 d4 B1 x
Format settings, CABAC                   : Yes
! i4 J2 m7 d% u- u; [0 QFormat settings, Reference frames        : 8 frames: \% o- g  |: N( l& K; Z
Codec ID                                 : V_MPEG4/ISO/AVC9 H4 y, K3 Y3 O$ E
Duration                                 : 1 h 43 min
( u8 w( z/ G* r9 eBit rate                                 : 6 210 kb/s
: X* x8 w" t% V& ?6 xWidth                                    : 1 280 pixels$ T. g( h$ M5 j8 D0 `
Height                                   : 534 pixels8 k& \! O* B" ]8 N9 k/ m0 n
Display aspect ratio                     : 2.40:1; v$ W! b* _. |$ Y
Frame rate mode                          : Constant0 k$ B; m( @/ x/ a4 H9 u
Frame rate                               : 23.976 (24000/1001/37687) FPS
4 }, c$ b: U1 U7 F# s' v1 y1 U% GColor space                              : YUV
5 G' f7 H& Z8 ?" T: d1 \Chroma subsampling                       : 4:2:0- w! ~2 q" G9 T5 |) O
Bit depth                                : 8 bits3 g. ]3 ~/ c/ Y& B5 N
Scan type                                : Progressive4 Y1 v6 S3 H8 z" m5 R
Bits/(Pixel*Frame)                       : 0.379
( j1 b( M- n( d3 h$ A( l4 aStream size                              : 4.47 GiB (89%)" ]1 R/ Q1 D5 ?4 [( H2 X
Writing library                          : x264 core 160 r3000 33f9e14
2 E, _5 j  g$ {( S# s+ kEncoding settings                        : cabac=1 / ref=8 / deblock=1:-3:-3 / analyse=0x3:0x133 / me=umh / subme=9 / psy=1 / psy_rd=1.00:0.00 / mixed_ref=1 / me_range=16 / chroma_me=1 / trellis=2 / 8x8dct=1 / cqm=0 / deadzone=21,11 / fast_pskip=0 / chroma_qp_offset=-2 / threads=16 / lookahead_threads=2 / sliced_threads=0 / nr=0 / decimate=0 / interlaced=0 / bluray_compat=0 / constrained_intra=0 / bframes=8 / b_pyramid=2 / b_adapt=2 / b_bias=0 / direct=3 / weightb=1 / open_gop=0 / weightp=2 / keyint=250 / keyint_min=23 / scenecut=40 / intra_refresh=0 / rc=crf / mbtree=0 / crf=17.8 / qcomp=0.60 / qpmin=0 / qpmax=69 / qpstep=4 / ip_ratio=1.40 / pb_ratio=1.30 / aq=3:0.70
) H# z, ?- @" K5 \3 }, E* A9 ]* a8 ^Language                                 : English$ \  ~- L  |: w/ q' n
Default                                  : Yes/ @  X# \  C0 x; F9 u
Forced                                   : No6 {+ u0 @; C7 r! Q4 S
Color range                              : Limited
/ w% |6 P9 \$ o2 M7 T7 u8 _! m+ n4 r8 eMatrix coefficients                      : BT.709
5 p; v7 r0 g, ]8 y6 a6 M+ M, l4 k9 M- Q" qAudio #1
9 C& `( v8 j% d/ \4 a; l4 c" R+ oID                                       : 2
4 U8 Z+ {. {( e: N" v1 tFormat                                   : AC-3# \% y9 _+ Q2 q/ `
Format/Info                              : Audio Coding 3
* Q: [8 b; Q2 w" u8 p6 bCommercial name                          : Dolby Digital4 ?7 S5 O/ ^+ n, g' ~' y
Codec ID                                 : A_AC3
3 f4 E7 r1 q' |9 b7 LDuration                                 : 1 h 43 min5 U0 A" J' K8 n7 u" K* R- P
Bit rate mode                            : Constant
  V# y# E* g5 C/ Q2 g' Z4 bBit rate                                 : 640 kb/s
1 t# i; `% l' B1 J4 MChannel(s)                               : 6 channels
6 \4 S* g0 Q: p: IChannel layout                           : L R C LFE Ls Rs2 c# @  b0 _1 M. |: O% p& a9 V4 o+ Z
Sampling rate                            : 48.0 kHz5 g/ B$ I, Q7 b6 n& _
Frame rate                               : 31.250 FPS (1536 SPF)
3 a4 q6 D" y% fBit depth                                : 16 bits
) |3 C: ~" D& U# X6 ICompression mode                         : Lossy
' @+ c+ L0 v$ {+ J: T$ nStream size                              : 472 MiB (9%)
; |. l/ w# p2 O# ~: `+ sTitle                                    : English
7 P" X9 g) E) O( m. GLanguage                                 : English
4 U" \" `% `$ W( \4 sService kind                             : Complete Main
6 ]9 o; k! Y% }( b# y  Q8 LDefault                                  : Yes
, A- |3 p: k( XForced                                   : No
. ~3 S2 P9 e: x5 h+ ]9 f' FAudio #2, a: n& w+ i7 S* i
ID                                       : 3  [" w; y4 E" h* y4 u, _; m
Format                                   : AAC LC
2 z0 Q7 T. \! N+ W, sFormat/Info                              : Advanced Audio Codec Low Complexity
: `! u. N$ n2 I( e" A4 D4 `$ h2 [Codec ID                                 : A_AAC-24 ?* f5 k& D9 g! \$ v) z
Duration                                 : 1 h 43 min
- f. m' T; R3 m. ?Bit rate                                 : 96.0 kb/s
" f/ n# T/ r6 G( b( X8 x, fChannel(s)                               : 2 channels
! g% J1 O- u$ j7 mChannel layout                           : L R, c" W  N6 W1 Z- |
Sampling rate                            : 48.0 kHz! b$ h( [1 s5 V; V. b0 M
Frame rate                               : 46.875 FPS (1024 SPF)& u. L! t3 e& _* ^) I) {8 X; q) Z
Compression mode                         : Lossy
4 [  C% i: A6 `$ |1 G; @9 FDelay relative to video                  : 9 ms2 }; ?+ a  n2 e, Z+ ?7 N! y
Stream size                              : 70.2 MiB (1%)# z, F1 D# a. g
Title                                    : Commentary With Director Scott Teems& m( f0 ~* ?( T& v7 @  N* `
Language                                 : English( f# `: M6 ]# e7 A
Default                                  : No
- A9 D6 s# o' _. W+ s4 D, I) ?) lForced                                   : No' U2 h' ^3 x- T4 _$ H: F
Text #1+ m( ?9 t$ |8 O4 m# _
ID                                       : 4) u, Z" {! t% F5 u  `1 y
Format                                   : UTF-8! u% p9 e7 I3 T& [3 v
Codec ID                                 : S_TEXT/UTF8; G. a1 g3 g5 _/ a' }, G8 }
Codec ID/Info                            : UTF-8 Plain Text$ R, o! Y9 M5 Z
Duration                                 : 1 h 32 min& F, V, o/ Q! V$ @8 W( z
Bit rate                                 : 2 b/s: w3 L) d1 S- e- s: b
Count of elements                        : 89
& d6 E  v5 Y8 H/ [3 ]Stream size                              : 1.89 KiB (0%)
* O9 f4 P5 G" t; d( B1 dTitle                                    : English Forced
, x8 w2 P. U( Z. gLanguage                                 : English
! ?9 h: D: G; N+ M; j  zDefault                                  : Yes
1 ^7 l0 E9 \' d4 oForced                                   : Yes+ [/ ~. r) n3 m+ ^5 `" B8 s6 R  A
Text #2
% ?. E( B" T. _. YID                                       : 5; H+ ?( c! \% s0 h& {
Format                                   : PGS
8 k5 f9 r6 j- V- _' TMuxing mode                              : zlib9 {* I" W+ I4 W" T
Codec ID                                 : S_HDMV/PGS& p* v3 |* ?) m& W
Codec ID/Info                            : Picture based subtitle format used on BDs/HD-DVDs  @/ |# k) y2 y! e  i' l) c' C
Duration                                 : 1 h 40 min
( a4 H; y: R8 ]/ T$ b; G& dBit rate                                 : 21.5 kb/s
, J$ m& D2 k0 z- S3 }0 n" KCount of elements                        : 1936# M- C+ A' g' H( L
Stream size                              : 15.5 MiB (0%)
% u1 I% H% u5 p8 z# e+ rLanguage                                 : English
* I, |- D, v6 yDefault                                  : No
+ d$ e) E) q  vForced                                   : No6 F) n9 ]0 `7 ~% E
Text #3; G3 c+ }$ j) {9 c/ b' V* |# e
ID                                       : 6$ t, U1 C1 {& {0 ~# a! e
Format                                   : PGS
  E7 F9 C6 j* l$ ?$ c' f- z' YMuxing mode                              : zlib
. _! M$ ~" L5 t2 ?# m& `Codec ID                                 : S_HDMV/PGS
! z2 u9 L+ s" v0 xCodec ID/Info                            : Picture based subtitle format used on BDs/HD-DVDs
/ l2 Z8 `# F/ Q( qDuration                                 : 1 h 34 min
9 ?" j( u$ v' X4 ^/ o) f2 VBit rate                                 : 17.3 kb/s
4 R1 ]; M) J% a' V5 N! y% s5 O! _7 CCount of elements                        : 1402
; B/ ~; E( M( n/ Z1 sStream size                              : 11.7 MiB (0%)
$ X( W7 Q2 U5 \+ `/ d2 N+ YLanguage                                 : Spanish3 w( {& v# w- u
Default                                  : No
* ~9 C: Q) L  R8 e) X: x$ VForced                                   : No
" @: U; z1 `7 {: ~5 b9 BText #4
: m: f& B- a; w+ q1 jID                                       : 7
7 D0 @5 M4 M" g6 ?- m! Q. qFormat                                   : PGS$ W* H% l/ L, A" z$ P
Muxing mode                              : zlib. ^( \% k/ E" {, ~
Codec ID                                 : S_HDMV/PGS
' v& \3 N) f* Q0 z/ r6 W) a; sCodec ID/Info                            : Picture based subtitle format used on BDs/HD-DVDs; p9 E7 T  i7 g! X: q
Duration                                 : 1 h 37 min
4 F* ~- T! c" m5 ~4 o$ HBit rate                                 : 18.0 kb/s
; p- s* b; t* b% Y# u# Q: jCount of elements                        : 1476
, l# d. W5 `/ o" SStream size                              : 12.6 MiB (0%)& ^( p2 {! K- {7 p& x+ u9 U
Language                                 : French& y% ]1 v; e7 G* _: q
Default                                  : No8 y+ {! `7 s% k( w2 n
Forced                                   : No/ i* |$ H+ N0 ]/ C6 N) W3 |5 Q, v
Text #5
$ \/ D! M* w+ i4 _& n2 I$ iID                                       : 8
# T2 b1 q2 D9 f! D# y& MFormat                                   : PGS$ Q+ ^, B/ x5 N" B7 Y2 w
Muxing mode                              : zlib
8 l2 J4 {, ]+ j! |Codec ID                                 : S_HDMV/PGS3 K$ }# E1 B" y* c: U' u0 j4 Y
Codec ID/Info                            : Picture based subtitle format used on BDs/HD-DVDs
2 d$ W5 {( y' d* q% F, @6 tDuration                                 : 1 h 41 min7 `) K4 y) \' Z6 w# u, r9 u
Bit rate                                 : 19.3 kb/s
" v- |' Y9 }! T/ g$ fCount of elements                        : 15763 K0 k  R) j# d# O) l& t  ^
Stream size                              : 14.0 MiB (0%)
# X& D8 I/ [6 g- P9 L; E1 KLanguage                                 : Portuguese' y2 S& t' `5 j5 P* L  C
Default                                  : No/ i* r, P9 k' i; F
Forced                                   : No
! V5 U- c0 Q) [Text #6
% m+ u2 q+ e1 i0 ?# Q/ p% ZID                                       : 9
' {2 T! O$ w, ~6 _, \* w1 gFormat                                   : PGS
) ~1 d+ o( y' }* x: i7 V* d6 O( x) RMuxing mode                              : zlib
6 E& a+ x7 ?7 h/ LCodec ID                                 : S_HDMV/PGS
2 D+ V! U# g1 g# d$ R% k3 u  q+ {) SCodec ID/Info                            : Picture based subtitle format used on BDs/HD-DVDs
6 i4 V( E8 ]9 L: @$ q7 z* m  BDuration                                 : 1 h 32 min
% C# I9 ], P1 N4 x0 zBit rate                                 : 1 732 b/s/ Y" C' ]. j' C
Count of elements                        : 1787 w9 B( q( b, s
Stream size                              : 1.14 MiB (0%)2 O. j; j6 L# h/ b+ h
Language                                 : English- r" _8 d7 X* N- r4 V# m3 K1 }: \, J
Default                                  : No% W7 Q, @2 o- I
Forced                                   : No
4 \5 D2 t7 I4 L# F$ DMenu
2 `: y  u1 j5 c+ `2 m# L2 D* f9 t# H7 q00:00:00.000                             : en:Chapter 01
  Z' O( p8 g/ s6 J00:06:51.995                             : en:Chapter 02
, W4 n' B. [  M0 d7 p00:14:59.398                             : en:Chapter 03
, K- h& ^9 t3 V! j" m00:20:30.438                             : en:Chapter 04
& }5 V' ?: o# n  l4 ^00:26:28.086                             : en:Chapter 05
: R/ D2 P' E+ B7 N* \! z* |/ r  H00:32:04.631                             : en:Chapter 06
: I- J5 k, p( g00:39:41.337                             : en:Chapter 072 _. c. b3 @6 h5 A
00:44:08.813                             : en:Chapter 08
" R- |0 w0 t: J- p6 P7 B00:51:33.841                             : en:Chapter 09
1 N! J. k7 R# t  i! a+ G00:56:33.724                             : en:Chapter 10
$ c0 R, ~: a' a% X01:02:27.827                             : en:Chapter 117 h% V0 {& `. _: [( h- i9 m
01:09:52.605                             : en:Chapter 125 N4 z# V4 @# H: }/ p- ]
01:17:52.167                             : en:Chapter 137 i5 H+ U) ]. r4 |7 H
01:23:27.502                             : en:Chapter 144 b' \) G$ d5 N5 {' g3 H
01:27:47.095                             : en:Chapter 15' k2 T/ b* O( b) f: ~
01:36:22.777                             : en:Chapter 169 y$ l6 V$ B5 K' E: [
- N; ~* m0 {# y4 o: \, g# P
The.Quarry.2020.720p.BluRayCD.x264-YOL0W
. c4 f2 O/ S# ]  a% X1 I  K
% M# X4 ^8 \2 P, `Date........: Sat 06/06/2020& ]! Q/ [( h7 L* S
Source......: BluRay$ O: @& z/ v# a' C
Runtime.....: 01:43:05.2488 ~9 w$ I) q& U5 c
: W* l/ [( G7 o5 [2 t6 \6 I
Video.......: x264 @ CRF 17.8
+ S( K* I% U9 C& ^. u8 X  s( zResolution..: 1280x534 2.40:17 y2 Y9 k- `) l4 R. E4 ?" ~! i1 p
Bitrate.....: 6210 Kb/s
  L0 o: E5 Q7 d+ n- E9 }FPS.........: 23.9764 z2 P9 J* s/ o) b1 ^2 W
Source......: 23827  Kb/s; }( A# ?$ e8 c+ h5 _5 I; r

1 u$ D  z+ L7 l2 J0 PAudio.......: English AC3 5.1 640 kb/s; y& s4 \% R2 t! V$ }/ S! z- m
Commentary With Director Scott Teems AAC 2.0* {5 F$ E: }( S8 l# A9 ^( I
Subtitles...: English Forced, English, Spanish, French, Portuguese
" V" X* ^3 m9 Z5 G6 H1 USize........: 5148 MB: I( ~  }& D4 U& P; X. K- ^
Link........: https://www.imdb.com/title/tt10151054/
! ]4 U7 P# I( Q( U, \Note........:

+ b# |2 X9 J) @6 j+ j$ w* E
游客,查看本帖隐藏内容请回复 | 加入VIP贵宾组可免积分免回复下载 了解详情 | 还不是会员:点击获取邀请码 Invitation Code

本版积分规则

小黑屋|Archiver|蓝光电影资源网

GMT+8, 2020-10-29 03:49

快速回复 返回顶部 返回列表