BluRayCD Forum

 找回密码
 立即注册【分享大片】

QQ登录

只需一步,快速开始

查看: 48|回复: 4
收起左侧

[蓝光原盘] 亡命徒 [REMUX无损版] The Quarry 2020 1080p BluRaycd REMUX AVC DTS-HD MA 5.1-FGT 19.72GB

[复制链接]

7777

主题

7971

帖子

6万

积分

Forum Moderator

金币
10563 枚
体力
9607 点

卓越贡献勋章

24小时 发表于 2020-9-12 22:19:09 | 显示全部楼层 |阅读模式
01.jpg
9 z- N% v. f7 B  N% K) h3 L
& q0 W2 @9 U7 S! K1 p◎译  名 亡命徒/ {" m3 n) ?" }) @$ F8 V* n1 @3 E
◎片  名 The Quarry, P, \; G$ _. c" x% X0 G
◎年  代 2020' v' n8 V2 A1 s. i! s% ~5 W
◎产  地 美国: l2 G2 h4 D0 C$ C  {
◎类  别 悬疑/惊悚/犯罪& C5 a! F- T& K( k3 `  z' @  D# ]
◎语  言 英语% p; B. X( c$ I* z! G$ e& Q
◎上映日期 2020-04-17(美国)1 ^7 b) t2 @" }7 L8 F; s
◎IMDb评分  5.2/10 from 1,471 users7 B6 n. `9 ]: |5 Q5 w
◎IMDb链接  https://www.imdb.com/title/tt10151054/
6 h' c8 n* B& ?- d' G◎豆瓣评分 5.1/10 from 186 users/ t% w) m/ P1 C: S* Y* R
◎豆瓣链接 https://movie.douban.com/subject/33458692/- O3 n& P2 H, ~  [
◎文件格式 x264 + DTS
: l( l' z( r. V◎视频尺寸 1920 x 1080! b6 }' U/ i+ D
◎文件大小 1DVD 19.72 GiB& v% S/ D3 \: m; Y4 G9 I* j: m% ~
◎片  长 1 h 43 min
* m( L- e5 y9 P) e◎导  演 斯科特·泰姆斯 Scott Teems. _( K& [' B5 k
◎编  剧 斯科特·泰姆斯 Scott Teems
( N" k+ [  p# P5 J: B8 z0 T. ?* j       Andrew Brotzman2 I7 X9 L2 l- I% B2 F2 q
       Damon Galgut
, C9 S" K# w. A◎主  演 谢伊·惠格姆 Shea Whigham
6 M- U, {  U! @8 N1 R       迈克尔·珊农 Michael Shannon7 q! d8 j& z4 B4 h/ i
       卡塔利娜·桑迪诺·莫雷诺 Catalina Sandino Moreno
' g: y4 n7 T8 [: k2 Z       鲍比·索托 Bobby Soto
' F( T7 c1 T' `( g# h1 {6 I( P       布鲁诺·庇屈 Bruno Bichir. ?1 l" x# v6 ?6 h  l5 ?; [
       阿尔瓦罗·马汀内兹 Alvaro Martinez
; k" B6 I/ j2 y/ c& c. ^% j6 U0 g       吉米·冈萨雷斯 Jimmy Gonzales
. _9 {  T0 ^& Z0 a/ Z: d       阿贝尔·百色拉 Abel Becerra
# E8 u8 Q& ~. N  p       安东尼·雷诺兹 Anthony Reynolds# W. ?6 E+ ]* G. _3 y* k, l
       Rose Bianco& {9 r2 G6 ]1 R4 E7 p
       朱莉娅·维拉 Julia Vera, z5 M  \  M9 ^/ d/ T5 }5 Q
       大卫·詹森 David Jensen* z9 h3 L1 y$ G
       戈登·德克海默 Gordon Dexheimer/ }+ s9 m6 X0 K3 m; W6 D

: S( W( ~0 l4 m% P: e/ u6 Y) F◎简  介  3 q$ _/ v, \, l$ v2 o, W
8 C! D$ q$ l1 x
  A drifter (Shea Whigham) kills a traveling preacher and takes his place at a small-town church, but the police chief (Michael Shannon) suspects foul play.
+ U8 i8 K, e# g) F# U* @2 U1 v) D- b* t6 g, z0 l8 a" q
  一个从自己的自家自家的辛纳中逃跑的男子,发现自己在得克萨斯州的一个小边境小镇,冒充牧师。小镇很快被这名男子非正统的布道所吸引,但一位有怀疑的警察局长也是如此。
' I8 L) }8 l# A( z
/ B+ v) @) g; j$ r$ Z  A mysterious new minister takes up residence at a rundown church in a desolate Texas town. Despite the growing suspicions of the townsfolk - the hardened local police chief, the drug-dealing brothers caught in the chief's cross-hairs, and the mournful woman who keeps up the church - the congregation grows. But how long can the minister keep his secrets safe, and who can be forgiven when the truth comes to light? Based on the acclaimed novel by Damon Galgut.; s6 d( l1 l( q, b; @5 |+ l
Video9 b, H: ~3 _0 p
ID                                       : 1
4 y0 y, T+ q6 h! _ID in the original source medium         : 4113 (0x1011)
0 O3 W5 m5 ^' i) J; _& F  J. V0 DFormat                                   : AVC9 f# R5 j; |5 c( _) ?5 v* \* \
Format/Info                              : Advanced Video Codec
4 ]8 R2 b9 L3 t+ l; A4 JFormat profile                           : High@L4.1$ M. I6 Q$ n" i2 A, K0 m! \6 ^+ O
Format settings                          : CABAC / 4 Ref Frames
. x* N* w: f$ A8 MFormat settings, CABAC                   : Yes' ?& T# g  t* e- s1 i, s$ h$ H
Format settings, Reference frames        : 4 frames
) a' N% H2 x) b* |Codec ID                                 : V_MPEG4/ISO/AVC+ ~5 i0 J8 W1 `1 t
Duration                                 : 1 h 43 min) Y" Y" ^- N) X8 R5 _+ l
Bit rate mode                            : Variable
0 V2 @8 h% E' }3 h/ M3 F8 Q/ L( sBit rate                                 : 23.6 Mb/s# @# h5 r0 e3 Q. B6 z
Maximum bit rate                         : 37.0 Mb/s; @0 p8 a, g/ j& ]* d9 i) f3 e& B
Width                                    : 1 920 pixels
0 W/ V; _# v/ U: L9 Z' ZHeight                                   : 1 080 pixels- z" U1 k! x8 ~- h& f- t  U
Display aspect ratio                     : 16:9& o+ w) S7 u4 C7 e  c0 m
Frame rate mode                          : Constant
/ E3 c+ U0 }! R6 e7 Y4 o& wFrame rate                               : 23.976 (24000/1001/37687) FPS# J3 c! Q( \: P0 @4 ~, T  D
Color space                              : YUV" b) |7 y+ n+ k9 l* z/ H( I3 A
Chroma subsampling                       : 4:2:0) o5 I" F, y. W4 \
Bit depth                                : 8 bits, d% C: q* u5 q, S8 a
Scan type                                : Progressive
7 o3 Z( |; ?- r7 Y0 VBits/(Pixel*Frame)                       : 0.475
6 V* |9 @5 r; E7 p8 Q+ y! h8 cStream size                              : 17.0 GiB (86%)
" J! ?! A5 d- N9 U4 N. sTitle                                    : The.Quarry.2020.1080p.BluRayCD.REMUX.AVC.DTS-HD.MA.5.1-FGT* C% F, ^5 i" d7 a  x& b1 B8 {
Language                                 : English
8 a: M% o* ~# F' {0 o1 ?9 _+ J; PDefault                                  : No
- I! @2 s  K! }# _Forced                                   : No
3 }6 _. b6 O' {7 Q* K8 ~Original source medium                   : Blu-ray
- r( g6 ^. B- n0 q/ L- V' x! Z  P  w! Y/ e/ Q2 o3 I7 I7 K
Audio #1
' M  \* {* T3 p) r9 \ID                                       : 2
: y5 A3 g4 m% W% K' y5 x/ r, LID in the original source medium         : 4352 (0x1100)* ?: B8 P+ U  a
Format                                   : DTS XLL" G+ D3 [, d; _7 b  y. V
Format/Info                              : Digital Theater Systems
: J1 }$ `6 M, n' b( K# rCommercial name                          : DTS-HD Master Audio
- U% r4 I4 h8 `9 I1 h$ iCodec ID                                 : A_DTS( j4 d8 d. D0 [: g
Duration                                 : 1 h 43 min+ j- K6 V5 f9 `7 @; g
Bit rate mode                            : Variable: `6 u* H! f5 a" t, o, g
Bit rate                                 : 3 093 kb/s
  b/ [! k+ X7 B. G0 |0 W# LChannel(s)                               : 6 channels
% C8 H& o& @: ~! S/ U$ P# `Channel layout                           : C L R Ls Rs LFE
/ e( e; F0 D/ cSampling rate                            : 48.0 kHz4 W4 W5 d6 [- K( E, S
Frame rate                               : 93.750 FPS (512 SPF)8 ^" v/ C, ^, I1 p, o  Y( O( L4 ^
Bit depth                                : 24 bits4 Y  T9 B4 [" s' q! D1 y- b8 ], {
Compression mode                         : Lossless
( ]5 \' Q% `/ S+ pStream size                              : 2.23 GiB (11%)/ ]/ u8 \, `6 K6 Y% R5 ^+ w
Title                                    : The.Quarry.2020.1080p.BluRaycd.REMUX.AVC.DTS-HD.MA.5.1-FGT
6 i3 v/ P  P/ y/ ~9 iLanguage                                 : English
5 a% F& S# ^7 P& I3 PDefault                                  : Yes- m) N$ p6 [9 G, u! V1 ^! |" _
Forced                                   : No
2 [3 M5 t" X, @1 \2 wOriginal source medium                   : Blu-ray2 f/ r1 A- J2 X' e

- V1 n8 f6 H: q3 T" mAudio #2
3 z1 H# V6 F1 t" \& m; z* uID                                       : 3
$ {* W% M% C) g8 aID in the original source medium         : 4353 (0x1101)
6 m5 n. ^7 M0 |$ I# ~0 g9 AFormat                                   : AC-3+ r! @' \7 i" q, \
Format/Info                              : Audio Coding 3
2 _; e8 C" t# E# Q! O: ZCommercial name                          : Dolby Digital" P1 |6 I# O# u* n
Codec ID                                 : A_AC32 t* o$ @6 p) `3 {# n0 `3 c
Duration                                 : 1 h 43 min& k/ o$ N2 W2 u" T7 s
Bit rate mode                            : Constant% o# ~1 }" m% j  d9 ]5 E
Bit rate                                 : 192 kb/s: r9 Q' ^0 h8 V
Channel(s)                               : 2 channels) B) c# t/ F  O" k2 P! b
Channel layout                           : L R. B2 I% n. c0 d2 K- ^
Sampling rate                            : 48.0 kHz
, Z' t/ o9 d, @; y8 J! O  O# ]. AFrame rate                               : 31.250 FPS (1536 SPF); N5 T- ?* C1 b1 X
Bit depth                                : 16 bits
7 x$ z. O& R5 b9 N* Y: Y) YCompression mode                         : Lossy
3 }+ B3 o' {" ^+ c8 QStream size                              : 142 MiB (1%)
0 L5 X+ j3 Q1 N( W) k0 P1 FTitle                                    : The.Quarry.2020.1080p.BluRaycd.REMUX.AVC.DTS-HD.MA.5.1-FGT, z7 f5 T1 Z4 w0 s* x; s
Language                                 : English* x5 }. E0 D; @1 i( i
Service kind                             : Complete Main8 T0 N+ P; h3 o
Default                                  : No) K9 a. e4 a' W# h/ v# \
Forced                                   : No
7 V- W" n: t8 m0 l9 ^+ a! l- }9 `/ q( ]Original source medium                   : Blu-ray/ n0 S, {) ?3 \4 M, X7 y
6 \, N( ^5 ]/ w* j* V# X
Audio #36 K0 u& U1 z8 ~% F9 ~: |
ID                                       : 4
4 s1 C4 `! F% A; y; vID in the original source medium         : 4354 (0x1102). @3 P5 k9 K' u& p/ [# u% X" G% \- e
Format                                   : AC-3( M. k) @# _; U" K/ l- n
Format/Info                              : Audio Coding 3. u/ q5 ~# `9 ?
Commercial name                          : Dolby Digital2 D9 F, h. G; Q- k3 U2 Q! s
Codec ID                                 : A_AC3
- {5 X0 [7 B7 |' [Duration                                 : 1 h 43 min0 W* K* @) W+ @6 x$ Z3 O
Bit rate mode                            : Constant
# Y% Y, S- f' e+ X. X$ A" JBit rate                                 : 448 kb/s& N" E) U. V1 g' v* j$ O+ J
Channel(s)                               : 6 channels  \+ g5 E# e+ K8 D: @8 D
Channel layout                           : L R C LFE Ls Rs
" k  i6 F) W6 X8 y' A; l4 ySampling rate                            : 48.0 kHz3 O/ I0 i, v% x6 i3 K
Frame rate                               : 31.250 FPS (1536 SPF)7 Q5 Z& c1 r* o: y
Bit depth                                : 16 bits7 x- I- {: ^  b( G
Compression mode                         : Lossy
# l9 K6 z7 O2 g! LStream size                              : 330 MiB (2%)$ r6 p  i" g) g& b% H3 h
Title                                    : The.Quarry.2020.1080p.BluRaycd.REMUX.AVC.DTS-HD.MA.5.1-FGT
4 @7 E, [9 I' ~& f% OLanguage                                 : Spanish$ A3 o/ B' {) H7 r
Service kind                             : Complete Main, m& K+ F9 @8 L
Default                                  : No
8 H/ c3 p1 n, S0 W0 F/ J; W/ y. {Forced                                   : No
) f$ H4 I! G4 \" NOriginal source medium                   : Blu-ray
  [- Y5 h/ {+ B* ^, J1 j$ W1 T6 _  w! f. D
Text #1
5 `: o" b0 H4 B0 ?& bID                                       : 5; G& ?5 r, U  o9 R7 K5 F. i
Format                                   : UTF-8
- J. ?, Y) G. v9 rCodec ID                                 : S_TEXT/UTF8
. ~" F7 W( r( E9 E, J# }Codec ID/Info                            : UTF-8 Plain Text6 J7 O6 S% n. C" A! L+ j7 ]
Duration                                 : 1 h 38 min4 x& M* x1 |$ ?& Z* \; e& t, u0 ]( N: t
Bit rate                                 : 30 b/s
! U2 v9 Z  K/ j0 w! }9 H9 {; FCount of elements                        : 813
/ ?0 B& w% i/ O7 v$ OStream size                              : 21.8 KiB (0%)
5 u1 J+ l: r7 A6 ITitle                                    : English-SRT
0 `; B, o: h, f1 s+ {Language                                 : English
) C8 ]5 U0 E/ D% ADefault                                  : Yes
3 C8 Q! e1 C9 rForced                                   : No% u( f4 o4 G# X. r2 }( q

1 q0 \1 v/ Q+ h9 j3 D/ sText #21 o  S  k* ~9 X6 D( P1 t0 ?, s
ID                                       : 6" P0 N2 z0 D! P, b5 `- W' D, N
ID in the original source medium         : 4608 (0x1200)
) v- i& r% [9 A$ c8 n& t1 [5 WFormat                                   : PGS7 f4 h2 Q4 d* l  z9 A! J
Muxing mode                              : zlib, p4 E2 j  `# Y
Codec ID                                 : S_HDMV/PGS& x$ v2 w& S3 _* [% ?
Codec ID/Info                            : Picture based subtitle format used on BDs/HD-DVDs
" W" `$ t4 D) J1 V! n( I5 YDuration                                 : 1 h 40 min3 a3 M( Q; C8 K, ^4 l
Bit rate                                 : 21.5 kb/s' T# V( C6 \$ v+ w, k
Count of elements                        : 1936
) x  ~2 I( }. e8 mStream size                              : 15.5 MiB (0%)/ d3 |+ G% K8 D) d* [
Title                                    : English-PGS
8 o. }. f. u6 Y+ a( ^Language                                 : English' _5 {% I/ X6 O/ T
Default                                  : No
9 V9 H3 Q% A/ V/ `& Z0 UForced                                   : No
/ d; b- r: i4 h' WOriginal source medium                   : Blu-ray* {' A* V! y$ A# A! X% l' ^
; ^" D, w' Z& c& i5 d
Text #3
$ [5 U( \1 F" T9 ~+ zID                                       : 7  I+ U) Y3 M5 g" k8 ~
ID in the original source medium         : 4609 (0x1201)% p2 D. G$ W% \' K; s
Format                                   : PGS
0 R5 l( v  e# p9 A4 WMuxing mode                              : zlib
/ e$ r- H; R5 dCodec ID                                 : S_HDMV/PGS
$ m8 d* M5 Q$ M* s: ~Codec ID/Info                            : Picture based subtitle format used on BDs/HD-DVDs
* _' `' S. @) h# K% Q4 ?Duration                                 : 1 h 34 min
5 B" D" m* \6 j& {' d  lBit rate                                 : 17.3 kb/s
; H. m0 ~' ~7 ^8 j* g' hCount of elements                        : 1402; u  H  i1 A4 s; X3 j
Stream size                              : 11.7 MiB (0%)
9 N" P5 O& V* O9 W! lTitle                                    : Spanish-PGS
5 A  m+ U2 B4 ~4 h2 i  s$ \Language                                 : Spanish
7 C$ x6 m+ p" S3 {4 NDefault                                  : No& U  j) F- B6 I3 f2 S
Forced                                   : No
: E- |" O, o" z8 `Original source medium                   : Blu-ray- t  j: U  u7 s8 ?4 U( i
" }. Z6 {' ?0 h; ]1 g
Text #4
9 O8 s  `1 D. {' bID                                       : 8. }% k& [0 ^, w0 z
ID in the original source medium         : 4610 (0x1202)- `- [; I: n& o6 H
Format                                   : PGS
* u7 W0 D1 z' r! vMuxing mode                              : zlib/ x; N4 x* @# n0 l* W" P  E9 H2 P
Codec ID                                 : S_HDMV/PGS
7 [! X3 c4 r8 k' |3 u% L. P3 \Codec ID/Info                            : Picture based subtitle format used on BDs/HD-DVDs
. `1 D1 u0 K+ u3 w, G4 _- g0 |Duration                                 : 1 h 37 min
2 [9 e; `! a5 C: k; A6 I: O( sBit rate                                 : 18.0 kb/s
3 r8 Q* L! s' SCount of elements                        : 1476
) d; A' G. m  V, n+ T- s& x0 CStream size                              : 12.6 MiB (0%)
* I. d3 n( E, v6 O# r# uTitle                                    : French-PGS
5 o' s, l6 \1 c" T9 A6 U$ _# PLanguage                                 : French7 \4 M0 i) O9 g' B7 @* |7 n/ ]! q
Default                                  : No5 Q$ M- U( r$ {
Forced                                   : No: x8 T7 w" ~0 I
Original source medium                   : Blu-ray
: t% p# ?3 t5 U7 U/ a. R( O+ B. }8 W- ^' R0 H
Text #5
, l2 u, Z- u8 K* oID                                       : 9# C6 O2 C7 y9 G  T5 \% G: `% \
ID in the original source medium         : 4611 (0x1203). A# z7 t' q/ X5 v8 h! a
Format                                   : PGS
$ s# v6 @0 j3 x& t& W% vMuxing mode                              : zlib
$ Y5 s  C7 N. g' k" m+ W6 aCodec ID                                 : S_HDMV/PGS
0 B/ a- P: g# E# R& |2 NCodec ID/Info                            : Picture based subtitle format used on BDs/HD-DVDs
" D( a) I- g3 i8 e) s; FDuration                                 : 1 h 41 min* j/ U  k+ q) h0 e" D9 O8 @$ L
Bit rate                                 : 19.3 kb/s
9 y$ z; Y5 y3 H, r/ xCount of elements                        : 1576
8 R( y! W. B1 h- m- fStream size                              : 14.0 MiB (0%)
$ D; x' z' K  ]% M5 B; V9 \4 UTitle                                    : Portuguese-PGS3 K1 S! Z" J. k4 e8 e, C" g" B
Language                                 : Portuguese' P. t0 q+ Q/ h+ l( J
Default                                  : No
: }$ G6 @6 o2 t* I+ lForced                                   : No# E) @8 T' X  n2 G# r/ a
Original source medium                   : Blu-ray8 K+ \7 N$ o" g4 L( j
! W( F; c% e" r2 C/ ]: T! h8 h; W* @
Text #6
9 g3 x0 Q' k0 `+ q# s$ E  OID                                       : 10& e7 y$ n- S3 i0 o+ W6 b5 D
ID in the original source medium         : 4612 (0x1204)& t8 n- g. d+ B/ G' k% T) K5 w
Format                                   : PGS
. a+ x! y; A3 C/ gMuxing mode                              : zlib
/ i: E" W) h& v, T* _Codec ID                                 : S_HDMV/PGS
% p) w+ u8 O% v9 F9 v  d  w7 W+ t2 OCodec ID/Info                            : Picture based subtitle format used on BDs/HD-DVDs+ C9 P$ x" m3 V$ h# I
Duration                                 : 1 h 32 min
) n) E( x6 L, k) n( e" ~: X2 QBit rate                                 : 1 732 b/s
% v2 W- b3 N: K/ D& ~2 BCount of elements                        : 178& e9 F" H$ V1 f6 P) C% C9 A
Stream size                              : 1.14 MiB (0%)" V' ?  A! R% c/ y
Title                                    : English-FORCED-PGS$ }+ q& D8 v8 h# r3 e% x: \# X9 |% ?$ H
Language                                 : English* [! d/ l! U$ ~
Default                                  : No
9 Q* V( M- w4 L0 @1 O! n; v# j; [Forced                                   : No
$ l! N" \1 G  }$ V4 U5 I. J/ COriginal source medium                   : Blu-ray
: q4 q2 Q5 P) w: u
7 \6 X. F, a" R  hText #76 C) u) S5 q0 B& B  t+ V3 ]
ID                                       : 113 G3 w  i4 r4 M& J$ q6 ~
ID in the original source medium         : 4612 (0x1204)
# C' V2 M+ |( A1 ^' u7 f% kFormat                                   : PGS
# k# t$ I/ h* C$ k' `7 t: NMuxing mode                              : zlib
2 D+ ~) E* g; M/ L3 C& V( Y" yCodec ID                                 : S_HDMV/PGS
/ `. b: s1 F5 `4 jCodec ID/Info                            : Picture based subtitle format used on BDs/HD-DVDs3 `! C2 [& ]2 Z6 V& ~
Duration                                 : 1 h 32 min' X6 q0 M( y2 q# p
Bit rate                                 : 1 732 b/s
( k2 n' ~. a, ?' HCount of elements                        : 178) A" b! s6 X7 h9 I- Q! f# p
Stream size                              : 1.14 MiB (0%)
, Q5 d; i) X+ KTitle                                    : English-FORCED-PGS% X8 `2 n2 {/ t! }# N; w: e% i! c- m9 w
Language                                 : English
2 m  m# W0 u' `' y% ~/ }Default                                  : No
3 G3 f# J. A; G% C: v6 DForced                                   : No9 n- b( c# p5 }" c4 x7 J1 d. `+ Z
Original source medium                   : Blu-ray
; l8 K% q4 ^! O% ^
5 Y$ N& O, y, MMenu: b8 j; X, k4 O7 N1 u
00:00:00.000                             : en:Chapter 01! D% P( Y4 Z/ Q# a4 I4 Y
00:06:51.994                             : en:Chapter 02
: g) r1 G1 {  I9 _0 _00:14:59.398                             : en:Chapter 03
% T8 m3 ], [- u7 ?& ^00:20:30.437                             : en:Chapter 04* S8 n, X! r  L" [3 w$ o0 T
00:26:28.086                             : en:Chapter 05
% J0 n) z0 d! M# d* R& R00:32:04.631                             : en:Chapter 06, r, u  V- a- v/ ~, g& Q+ F
00:39:41.337                             : en:Chapter 07
1 @+ q. x5 J% g3 t00:44:08.812                             : en:Chapter 08
5 J' J, H! Y( x: N00:51:33.840                             : en:Chapter 09
- |# h7 t' {! |6 M( V00:56:33.723                             : en:Chapter 101 s8 k4 J# O6 g3 T( o, y
01:02:27.827                             : en:Chapter 11: c3 [1 B; K! E1 X* x2 P/ U  Z( h! Q% `
01:09:52.605                             : en:Chapter 12: e1 r6 W# X+ c
01:17:52.167                             : en:Chapter 133 |' ?; E3 L1 B6 H7 }
01:23:27.502                             : en:Chapter 14' ?. ~4 `7 `9 Y. _% z; u7 l3 m4 E
01:27:47.095                             : en:Chapter 15
- w: y5 @" h! d# i. b01:36:22.777                             : en:Chapter 16
( Q6 S( M' [# z, G$ R* B$ z4 j' c5 M
游客,查看本帖隐藏内容请回复 | 加入VIP贵宾组可免积分免回复下载 了解详情 | 还不是会员:点击获取邀请码 Invitation Code

64

主题

1506

帖子

5493

积分

Sponsor

金币
308 枚
体力
2082 点
lanpanshuma 发表于 2020-9-13 08:28:25 | 显示全部楼层
楼主发贴辛苦了,I*老*虎*U!
/ ^) V, i2 F9 R3 `After reading the posts have nothing to do I Amoy posts!- B9 l0 H5 S' \
该会员没有 ...

611

主题

2010

帖子

1万

积分

VIP advanced

金币
1774 枚
体力
4576 点

公主勋章卓越贡献勋章

21cn 发表于 2020-9-14 01:10:41 | 显示全部楼层
看完了帖没事做我还是淘帖吧!
; m6 x  X- R# B! l* ]4 WI love your Blu-ray movies Forum!
% V) J8 j" |5 _: t7 |

0

主题

194

帖子

1034

积分

Sponsor

金币
157 枚
体力
502 点
2475017 发表于 2020-9-30 17:35:07 | 显示全部楼层
Bluraycd又有新电影发布了,激动中……!0 j5 o! ^2 i8 s2 G6 l' D& J/ R* w/ e3 D
该会员没有 ...

0

主题

343

帖子

1405

积分

Sponsor

金币
10 枚
体力
751 点
luyife 发表于 2020-10-9 20:11:50 | 显示全部楼层
谢谢楼主的分享

本版积分规则

小黑屋|Archiver|蓝光电影资源网

GMT+8, 2020-10-29 03:51

快速回复 返回顶部 返回列表