BluRayCD Forum

 找回密码
 立即注册【分享大片】

QQ登录

只需一步,快速开始

查看: 11|回复: 0
收起左侧

[科教记录] 第四阶段 The Fourth Phase 2016 DOCU 1080p BluRaycd x264 DTS-HD MA 7.1 & TrueHD 7.1 Atmos-FGT 8.56GB & 9.34GB & 6.56GB

[复制链接]

3897

主题

4271

帖子

3万

积分

Post Share

金币
7316 枚
体力
6584 点

卓越贡献勋章

mvods 发表于 2020-9-9 22:08:38 | 显示全部楼层 |阅读模式

7 K  I9 [& i; h7 I) ?: Z+ S# A
◎译  名 第四阶段$ f) J. h2 D2 i% b. D9 `
◎片  名 The Fourth Phase
$ L- D1 h( Z* m" P# s/ v; M◎年  代 20163 [% @$ V  z2 E, c6 `! p. t/ Q
◎产  地 奥地利/法属波利尼西亚/日本/俄罗斯/美国4 ]) z  ]5 U4 v$ g) s; h
◎类  别 动作/纪录片/冒险/运动9 i( T! d* H7 ^' w% u0 e  I+ q, Z( I
◎语  言 英语
: B) h% o0 {$ a+ ?5 g* M! \◎上映日期 2016-10-02(日本)/ M) R  P" c, {% ]- `6 x& ]- p
◎IMDb评分  7.1/10 from 1,321 users
3 o$ [: F9 ~3 W* Z. I7 n◎IMDb链接  https://www.imdb.com/title/tt5226436/: s+ a9 T: p* R& e
◎豆瓣评分 8.8/10 from 121 users
& h1 u5 }( l+ r3 |0 g9 a◎豆瓣链接 https://movie.douban.com/subject/26868383/
1 Z) p$ |9 z% f+ c) h6 k◎片  长 1 h 32 min
( U4 K: z* D. l  e( l  Z' |0 B, _◎导  演 Jon Klaczkiewicz
  |& Q9 r9 a1 |1 _* Y◎编  剧 Melissa Larsen
9 x+ t+ Z; r- a2 R/ E' E# y, E4 o) e◎主  演 Travis Rice: Q$ C8 f. ~( j6 C  d/ l
       杰里米·琼斯 Jeremy Jones
& S8 e' O* X( K1 Y7 i: N- F       Mark Landvik
, t$ B) m/ G; R7 q( t# j# H       Ben Ferguson
# d6 O5 i0 B1 y& t; S       Eric Jackson
9 _6 p, M& a2 e4 v       Bode Merrill
3 m5 a4 q3 Q! U' w" a# _6 G       Victor de Le Rue
1 d2 v, H: c% Z7 |+ s# {9 W3 f       Bryan Iguchi8 N. V3 B$ c! N
       Shin Biyajima
0 i3 D3 x0 ^# c9 Z8 w0 @       Pat Moore
3 N3 I. D  w/ m3 W% c' Q* ~       Mikkel Bang0 A  {8 U. d+ k  c, G' j. b) [( X
       Cam FitzPatrick
$ j! ^& X% X4 A3 j3 ^3 R: A+ O/ @, z$ F3 Z6 n: s
◎标  签 纪录片 | 极限运动 | 滑雪 | 单板 | 奥地利 | 2016 | 俄罗斯 | 美国电影
) q. c, J: `  F5 _* z" k. ^- z3 J: X) ^% \! U% D+ C
◎简  介  
# V7 H9 t2 E; j/ N, i, E9 g: d$ _# x8 g5 @
  eztv 历时两年拍摄的单板大电影《The Fourth Phase》再次聚焦单板届的标志人物Travis Rice和其它大神级滑手。本片也是继2011年的The Art of Flight和Thats it Thats all之后的又一部单板大作。
- @0 S( r  `; j/ Q1 W5 Z
; y" _- ?1 |/ u  From the innovators of "The Art Of FLIGHT" (2011) comes a documentary about the iconic snowboarder Travis Rice. The production of the movie started in 2013.
1 r+ G/ I5 k- U
Video* _: z: g- T6 g6 p  e
ID                                       : 1
: A/ s7 v9 k/ Y0 M3 XFormat                                   : AVC
5 o% i  }# i5 M: a4 `+ pFormat/Info                              : Advanced Video Codec
6 P# b' E+ n* J4 V8 i7 @: k' {Format profile                           : High@L4.1
* |$ a' [2 G6 @2 g! W0 O; I# RFormat settings                          : CABAC / 4 Ref Frames
! n* k0 H/ M' J+ ^; G  w/ eFormat settings, CABAC                   : Yes
5 H1 }$ Z4 I' {& I; cFormat settings, Reference frames        : 4 frames
* L' ^0 p$ a7 Z4 ^1 {6 L( {; GCodec ID                                 : V_MPEG4/ISO/AVC+ C% e, `8 w; Y! m: r- z& A
Duration                                 : 1 h 32 min0 z+ w9 ~9 P0 Z8 S/ J
Bit rate                                 : 9 536 kb/s
2 k* U, }. @$ z3 FWidth                                    : 1 920 pixels: C# }: l1 Q; }2 i6 p7 t
Height                                   : 1 040 pixels
& b7 d- ?2 o; P! V4 W% `' XDisplay aspect ratio                     : 1.85:1
; I' M" X8 z6 y$ f' CFrame rate mode                          : Constant' q" y. i# F! r1 H: s0 r
Frame rate                               : 23.976 (24000/1001/37687) FPS
" p4 s6 g  ^' e; ]" f1 }( F: ^8 uColor space                              : YUV
# ?# H1 J: v1 q1 ?5 f# V! M4 Y9 OChroma subsampling                       : 4:2:0. x) \, ^/ s4 U: Q' F
Bit depth                                : 8 bits
2 K" U, [. _8 W4 T$ L! HScan type                                : Progressive
8 p- N# i& m" X8 r9 I5 E3 Y0 tBits/(Pixel*Frame)                       : 0.199
' h! g7 ^$ w% {% f8 W' z; zStream size                              : 6.14 GiB (72%)4 D- }- u2 U& c
Title                                    : The.Fourth.Phase.2016.DOCU.1080p.BluRayCD.x264.DTS-HD.MA.7.1-FGT6 ~$ s8 q" N5 d
Writing library                          : x264 core 148 r2744 b97ae062 V9 ^9 m* ^2 `
Encoding settings                        : cabac=1 / ref=4 / deblock=1:0:0 / analyse=0x3:0x113 / me=umh / subme=7 / psy=1 / psy_rd=1.00:0.00 / mixed_ref=1 / me_range=16 / chroma_me=1 / trellis=1 / 8x8dct=1 / cqm=0 / deadzone=21,11 / fast_pskip=0 / chroma_qp_offset=-2 / threads=12 / lookahead_threads=2 / sliced_threads=0 / nr=0 / decimate=1 / interlaced=0 / bluray_compat=0 / constrained_intra=0 / bframes=3 / b_pyramid=2 / b_adapt=1 / b_bias=0 / direct=1 / weightb=1 / open_gop=0 / weightp=2 / keyint=250 / keyint_min=23 / scenecut=40 / intra_refresh=0 / rc_lookahead=40 / rc=2pass / mbtree=1 / bitrate=9536 / ratetol=1.0 / qcomp=0.60 / qpmin=0 / qpmax=69 / qpstep=4 / cplxblur=20.0 / qblur=0.5 / ip_ratio=1.40 / aq=1:1.00
0 b! H2 ~3 [( P9 |& S9 e  XDefault                                  : Yes
3 i$ y5 A- k& n' J1 D# yForced                                   : No3 C8 J: S( Y: d2 V1 X/ D4 E
4 h/ C: H# Z5 D% w$ {
Audio
' Y1 Y2 a. \, v4 [7 bID                                       : 2( j: o% d! g" @' ]& @1 q
Format                                   : DTS XLL1 X4 y- |% `* k6 L) b0 f8 w7 O
Format/Info                              : Digital Theater Systems, q& H" M5 x8 q; N7 S' K
Commercial name                          : DTS-HD Master Audio
# t9 F) ~+ ~% I& j3 m7 T' V+ q: @5 ~Codec ID                                 : A_DTS1 W) w) {8 B. b5 p- t
Duration                                 : 1 h 32 min) ]% \# O- Z) R6 W/ V& n
Bit rate mode                            : Variable
. s6 u7 K5 A; s, G: Y; qBit rate                                 : 3 718 kb/s
* W$ t& x9 ~7 v0 h6 _, p) i% XChannel(s)                               : 8 channels! @- w: E7 Z* A5 A* f$ u
Channel layout                           : C L R LFE Lb Rb Lss Rss
$ P7 |/ H$ S. d; `+ jSampling rate                            : 48.0 kHz1 |$ ^5 z9 d! R6 R0 ^
Frame rate                               : 93.750 FPS (512 SPF)
7 q- @' u' R2 k2 K; o6 V( iBit depth                                : 24 bits
7 {& |$ g; p" S' f0 C# aCompression mode                         : Lossless
, q7 ~7 C& a/ V* X$ W; `' F6 QStream size                              : 2.40 GiB (28%)
9 J) S5 _4 R9 A9 ]5 y4 f$ G/ e) MTitle                                    : The.Fourth.Phase.2016.DOCU.1080p.BluRaycd.x264.DTS-HD.MA.7.1-FGT/ t, Q& Z) R7 F) y% m: x
Language                                 : English4 g# L2 [5 D( [% W7 _# E1 G1 t
Default                                  : Yes# o2 R  [; g2 [  v& @/ J% E" F
Forced                                   : No- C* d! R0 e" X4 h" Y; B

2 ?2 L/ p( p5 U7 R  i, W- GText #1$ b$ H* M( K: L) q
ID                                       : 3" v5 j) O/ Z4 c5 w# |6 i4 n3 i1 [
Format                                   : UTF-81 f7 ?: f1 y" ^6 ?3 E( I" v! G
Codec ID                                 : S_TEXT/UTF8
' Z7 ?* p, K1 A- T- y) \Codec ID/Info                            : UTF-8 Plain Text
4 U4 u4 B2 o5 ]$ ?0 ~' `& _5 c4 S) GDuration                                 : 1 h 30 min. B. q- k% s/ x' t- F7 w
Bit rate                                 : 38 b/s: n. [- q( O! S$ c/ \8 g
Count of elements                        : 745
1 ]1 N/ L( Y/ e& J/ [Stream size                              : 25.7 KiB (0%)
( B/ K. Y, u" V* t0 n4 H! B: s# iTitle                                    : English-SRT2 B+ c' Q+ ]+ i
Language                                 : English9 ^* @5 t5 a1 G7 C. F2 L8 @: V
Default                                  : Yes* Q3 h6 X3 _- Y' E; @( l  U
Forced                                   : No" `3 X' m+ ?+ S. Y) U. u
7 T0 g5 b" f& [# h
Text #20 c" N2 u$ D3 h
ID                                       : 48 d2 N( q+ O$ v
ID in the original source medium         : 4609 (0x1201)
/ _2 \; @5 H$ p: D8 r4 aFormat                                   : PGS
# [" v( v0 J- k; A7 @5 F5 @Muxing mode                              : zlib  a# T1 g2 e7 ?& @
Codec ID                                 : S_HDMV/PGS
3 q% N, I8 t6 P0 L2 Q5 c# TCodec ID/Info                            : Picture based subtitle format used on BDs/HD-DVDs
  c+ v* Z& s' B* @6 g4 W. [- }Duration                                 : 1 h 30 min
/ ~# S) n* X/ w/ K7 v) dBit rate                                 : 21.8 kb/s
; P2 R% B* ~9 L9 {0 \) p6 _Count of elements                        : 18268 P9 b# m- I% j5 v) o. v0 B
Stream size                              : 14.0 MiB (0%)9 }4 S# L- _5 O: g
Title                                    : English-PGS  A" ?% x8 @5 f- b# Z  d
Language                                 : English
( S( f& a3 p  U( F7 ]Default                                  : No" a2 m# ]" j8 z. @7 H; f
Forced                                   : No
" T; p! V8 L- G/ x. |! w' OOriginal source medium                   : Blu-ray
! E' D$ O9 v% ?4 V0 w$ h
6 i5 x) G% E- U# c* X0 b6 k$ }0 aText #3
7 n5 x6 y* Y5 N. w3 W7 }ID                                       : 5' ]- V3 _! \7 ~7 \4 |! s* j. q
ID in the original source medium         : 4610 (0x1202)# e5 b: a7 }( D" U5 c
Format                                   : PGS
; m; y5 }4 L3 P8 K& k, ~- h0 w1 z# IMuxing mode                              : zlib
8 I8 ?* X4 K/ PCodec ID                                 : S_HDMV/PGS
1 X4 x) m+ b( d" H* @0 hCodec ID/Info                            : Picture based subtitle format used on BDs/HD-DVDs
! }) J: j' ]$ E" L% a% H- ?Duration                                 : 1 h 30 min
) U* G) j: D* k0 B8 P3 X8 I4 ?Bit rate                                 : 18.1 kb/s2 X. W% r+ M! O6 Y& S6 p! e( L% E
Count of elements                        : 1400
9 O: r0 L( i; C' B. yStream size                              : 11.7 MiB (0%)
2 J7 x+ s% ]) }; i! `! ]3 QTitle                                    : French-PGS9 z; A9 A9 F$ t% Y7 B# j4 o
Language                                 : French, O) E0 ?) X0 x6 [
Default                                  : No
4 ]$ ?5 a$ G) q3 k* L  N3 ^Forced                                   : No
5 `) c3 M, }7 t. n. V$ ]Original source medium                   : Blu-ray
) y2 n" }' T. ^, v
5 s6 D! S4 f5 x; m. |Text #4! v& g; X' Y9 h$ a; [" }4 P- G6 K- k
ID                                       : 61 ?' [+ h: V; d' Y, s% h
ID in the original source medium         : 4611 (0x1203)
7 d+ W- p, h) R6 h6 y3 NFormat                                   : PGS
2 l: L  F" G/ E( T/ iMuxing mode                              : zlib
# j+ v2 S4 k0 w1 {/ Z8 B8 k7 H) TCodec ID                                 : S_HDMV/PGS( \* u, p0 z5 V8 H, s! Y- e
Codec ID/Info                            : Picture based subtitle format used on BDs/HD-DVDs9 I/ a+ }, _0 A: d
Duration                                 : 1 h 28 min4 |4 @1 ^. |1 B
Bit rate                                 : 19.5 kb/s" H* z  \- A1 [8 B9 `  I
Count of elements                        : 1444
  K5 T$ A- s  P2 aStream size                              : 12.4 MiB (0%)4 ]5 s, w. w6 i3 r1 M/ r2 y
Title                                    : Italian-PGS: u9 ^% r( Z2 X+ ~) ?% X) C
Language                                 : Italian
6 j* A! g8 {9 E8 ]% MDefault                                  : No
- u% O6 m# k" T& R& A( o1 R. rForced                                   : No
2 W: D! B. D' K- Q) u; g$ \1 O1 mOriginal source medium                   : Blu-ray
5 c; t7 X6 q* T; N4 y, f/ t% o2 X
Menu
+ e' o6 y% h/ n9 R1 F& Z" j00:00:00.000                             : en:Chapter 01
2 D+ W# B+ a# M* Y+ F! H00:04:17.715                             : en:Chapter 02$ \7 F& s# O& M+ b' Q
00:10:55.529                             : en:Chapter 03& D& t* Y& |" ]: S/ l4 d! {; }
00:18:20.057                             : en:Chapter 04) o1 _! Q2 `5 p
00:21:40.173                             : en:Chapter 05
% i( P- d- h. w: ^) c6 A. x00:38:10.288                             : en:Chapter 06
0 S* l  C/ B* H9 Y00:52:22.180                             : en:Chapter 07% y3 d) d% r. C8 u& i
01:19:14.666                             : en:Chapter 08
Video; x* u1 l% X4 o- h' I; |% H! S
ID                                       : 1
1 a6 ]% S/ q5 p* ]Format                                   : AVC5 u6 O" |9 U* H% X) W5 r7 n3 R$ P0 D7 }
Format/Info                              : Advanced Video Codec
- a6 A: Z$ u4 m( YFormat profile                           : High@L4.1
- r/ m, G& C& I! v, gFormat settings                          : CABAC / 4 Ref Frames
+ M6 D7 _5 U2 uFormat settings, CABAC                   : Yes8 f6 z4 \5 A9 Z, h
Format settings, Reference frames        : 4 frames- [- c6 {5 }& O! B% O4 |% P
Codec ID                                 : V_MPEG4/ISO/AVC
' C  `8 P% z0 P/ z& [! H) n$ `: jDuration                                 : 1 h 32 min
& [2 l! M& s3 ~7 kBit rate                                 : 9 536 kb/s
9 Y8 s5 X( r0 |9 l2 P/ |Width                                    : 1 920 pixels; l; Q! I: B* ]- e) M% c# M* k
Height                                   : 1 040 pixels; U8 O; d& Z' A5 B. u; T
Display aspect ratio                     : 1.85:1
$ j5 @( ]* K$ d  O6 e. E; a2 V( qFrame rate mode                          : Constant! x$ W+ N6 O- D6 K" w& z* ~
Frame rate                               : 23.976 (24000/1001/37687) FPS
; \0 y* @. e; f# AColor space                              : YUV1 o! j- n. r8 j
Chroma subsampling                       : 4:2:0
; e, U- u# s$ K8 o+ [$ xBit depth                                : 8 bits" z3 |6 N  Y/ g9 e$ @
Scan type                                : Progressive
; n* y5 O4 x0 \Bits/(Pixel*Frame)                       : 0.199
# E0 n) h/ `/ x3 A- s" SStream size                              : 6.14 GiB (66%)
( P" W% L$ e# k, V3 h$ J" i' |  BTitle                                    : The.Fourth.Phase.2016.DOCU.1080p.BluRaycd.x264.TrueHD.7.1.Atmos-FGT6 g, E( O  t1 I+ m, @
Writing library                          : x264 core 148 r2744 b97ae06
; U* V8 ?# m+ a& l% J+ N. g+ e* i  B3 lEncoding settings                        : cabac=1 / ref=4 / deblock=1:0:0 / analyse=0x3:0x113 / me=umh / subme=7 / psy=1 / psy_rd=1.00:0.00 / mixed_ref=1 / me_range=16 / chroma_me=1 / trellis=1 / 8x8dct=1 / cqm=0 / deadzone=21,11 / fast_pskip=0 / chroma_qp_offset=-2 / threads=12 / lookahead_threads=2 / sliced_threads=0 / nr=0 / decimate=1 / interlaced=0 / bluray_compat=0 / constrained_intra=0 / bframes=3 / b_pyramid=2 / b_adapt=1 / b_bias=0 / direct=1 / weightb=1 / open_gop=0 / weightp=2 / keyint=250 / keyint_min=23 / scenecut=40 / intra_refresh=0 / rc_lookahead=40 / rc=2pass / mbtree=1 / bitrate=9536 / ratetol=1.0 / qcomp=0.60 / qpmin=0 / qpmax=69 / qpstep=4 / cplxblur=20.0 / qblur=0.5 / ip_ratio=1.40 / aq=1:1.00; L8 c' T, v3 \  l8 u, j
Default                                  : Yes5 a' o" R& m6 U( Y3 T6 r5 C
Forced                                   : No- H5 y# ^4 E. b* J  o+ W% r. ?

7 W6 z" ]  {, j( I4 [& ]0 RAudio #1
: Q3 P7 T  F* t6 j+ W: ?* f1 ~* eID                                       : 2
' l0 J* s; m; ]  sID in the original source medium         : 4353 (0x1101)
) z7 G% X- {8 x8 aFormat                                   : MLP FBA 16-ch
' |" \) s6 J9 v- q2 p; @$ |2 KFormat/Info                              : Meridian Lossless Packing FBA with 16-channel presentation7 b1 c/ \* @( ~# @6 g$ H
Commercial name                          : Dolby TrueHD with Dolby Atmos% N" y8 w3 H. @% ]8 x' i4 b8 I
Codec ID                                 : A_TRUEHD) p4 u! y' D* r8 @; ?# F/ |8 a# v
Duration                                 : 1 h 32 min
  m, c% p9 T" N% j- O) QBit rate mode                            : Variable* \  L4 f8 z2 u. z
Bit rate                                 : 4 209 kb/s
5 R2 Q% [7 ]* d' V$ P. G/ X4 yMaximum bit rate                         : 6 384 kb/s
) k* g1 [" ?5 C" g. S% ]( ^Channel(s)                               : 8 channels
- U! H* t" [0 R. Y- p( p4 U4 qChannel layout                           : L R C LFE Ls Rs Lb Rb
: X% A( E7 n6 Q) N. Y. bSampling rate                            : 48.0 kHz' K7 p) i1 e0 H: d* J; u" f9 s$ k* S0 ~
Frame rate                               : 1 200.000 FPS (40 SPF)
2 b, Q6 L" w: ]/ bCompression mode                         : Lossless- C% w9 S3 A* n% E  a2 a
Stream size                              : 2.71 GiB (29%)
5 t# f0 g# |' G8 dTitle                                    : The.Fourth.Phase.2016.DOCU.1080p.BluRaycd.x264.TrueHD.7.1.Atmos-FGT: A6 }# n* ~: K3 F2 U7 F! i2 w5 Q
Language                                 : English
! `% X) t, v: |( u9 V" M2 G  J+ uDefault                                  : No
& s9 v* s# P. T" a& \6 e; ^Forced                                   : No9 P: w/ N0 [3 v
Original source medium                   : Blu-ray. m4 _; O% T, L6 ?8 i' K
Number of dynamic objects                : 11
: r3 p% n+ B7 s  U0 W8 lBed channel count                        : 1 channel9 b3 F' h. Q5 o6 D* r, u
Bed channel configuration                : LFE
- Y( L0 L. V9 i- k8 \2 ^
5 \9 j- W# G$ A5 WAudio #22 j" b3 E& Z7 j  _$ d  G2 p  K, ~
ID                                       : 3
% w& r0 ^, ], ^ID in the original source medium         : 4353 (0x1101)
2 O4 w2 G8 H0 ~4 ^% M- J, i+ uFormat                                   : AC-36 j2 R- J+ R. O, ^$ h; O
Format/Info                              : Audio Coding 3$ X" n7 K$ b- ^! j! w9 G
Commercial name                          : Dolby Digital% m) X4 b. u: \- {$ P5 Q0 E, j
Codec ID                                 : A_AC38 w$ d8 s) u# \- J! {" t8 D! A
Duration                                 : 1 h 32 min
+ o9 p% K0 W/ v' o6 Y: ZBit rate mode                            : Constant; t/ W9 L2 |/ D5 g9 M: s1 N" i
Bit rate                                 : 640 kb/s5 ]5 C9 n$ z3 r, i8 w# [
Channel(s)                               : 6 channels
1 d# c6 Q7 [1 S& R2 t% B  AChannel layout                           : L R C LFE Ls Rs
  p  m- |9 d5 sSampling rate                            : 48.0 kHz
  W# J% ?! b7 {- E% I: pFrame rate                               : 31.250 FPS (1536 SPF), e9 |: Q$ H) H6 z
Bit depth                                : 16 bits$ D3 R# w* ^% _7 }
Compression mode                         : Lossy
1 T+ q  M  }' fStream size                              : 422 MiB (4%)
; h8 Q$ `0 l* @6 M- [) {Title                                    : The.Fourth.Phase.2016.DOCU.1080p.BluRaycd.x264.TrueHD.7.1.Atmos-FGT
, T; L' _) b+ F( FLanguage                                 : English
4 y( S% D0 E, u, c. O  x: j6 NService kind                             : Complete Main
0 y" I5 o- X5 @2 NDefault                                  : No1 M! W1 A& p- H
Forced                                   : No4 K" g5 \) ]- I; K+ z4 ?
Original source medium                   : Blu-ray! W8 t" U, F$ a5 t; T6 k1 _6 y& N

2 f1 n- ^; \, Y- u8 \Text #1* K# v" O2 `% i0 e# ^# R
ID                                       : 4
( _0 N. n2 L4 g5 S  HFormat                                   : UTF-8
* t' s& Q2 e; nCodec ID                                 : S_TEXT/UTF8
# Z- n5 U+ S$ r: v0 S5 bCodec ID/Info                            : UTF-8 Plain Text
: G! L+ i( Y1 _% a+ T5 vDuration                                 : 1 h 30 min. k5 o& b1 U) P1 o* I4 ]( _
Bit rate                                 : 38 b/s/ V; M) B  F4 {; `8 K0 {& y9 [
Count of elements                        : 745
' v4 T/ W" ?# ^7 bStream size                              : 25.7 KiB (0%)" i- g4 D2 m* ]3 q/ `1 K" t
Title                                    : English-SRT
- M0 M5 N2 l  w6 B7 W8 t4 LLanguage                                 : English
! u$ ]4 L( J% j. ~8 _Default                                  : Yes
+ k& c& u0 L* H- p4 nForced                                   : No. S% W; I8 k" K# Y
% m! `4 n" m1 h. n" `. R% g" Y
Text #2# o% d( Y3 f' c1 p
ID                                       : 5' D4 A+ L5 P' `: }
ID in the original source medium         : 4609 (0x1201); q( P) y5 ~- ?
Format                                   : PGS* {+ y9 Q' w; x7 j' H. z
Muxing mode                              : zlib7 O; g- A, i0 D
Codec ID                                 : S_HDMV/PGS
6 B7 K' f8 k7 FCodec ID/Info                            : Picture based subtitle format used on BDs/HD-DVDs
7 A/ G) ^& }5 w. IDuration                                 : 1 h 30 min
, a. H1 C6 J- dBit rate                                 : 21.8 kb/s
0 u7 _& Q; J7 b" n5 V+ m3 S- ~) E: v5 OCount of elements                        : 1826
5 h% `. Z3 |6 J5 z, o* F6 A, FStream size                              : 14.0 MiB (0%)* c' R+ R- }8 g
Title                                    : English-PGS
  R4 K3 a6 N7 {% E8 x. J' wLanguage                                 : English
2 I& _5 Z  U9 H0 v, G" G8 iDefault                                  : No  P2 Z/ i! H8 `/ m4 U* ]5 }5 f4 j
Forced                                   : No9 _9 z3 U; Z2 a7 D( U) \
Original source medium                   : Blu-ray8 _4 H- o" x/ G( [/ |

$ j! |( u- D3 v0 S9 \/ QText #3& x4 F& L" p! ~. f6 X- L7 Q( W2 A
ID                                       : 63 F( P: `0 W! f4 c  m; W, u
ID in the original source medium         : 4610 (0x1202)9 ~6 Y% O* e& |. \2 U7 c7 u
Format                                   : PGS
4 `7 P/ o, B# Q% n% vMuxing mode                              : zlib
: }$ Q0 n6 S4 jCodec ID                                 : S_HDMV/PGS
8 \& W( o5 ~$ _* Y5 G* S% ZCodec ID/Info                            : Picture based subtitle format used on BDs/HD-DVDs: l8 b* A! @8 Z& \* b
Duration                                 : 1 h 30 min
8 R$ Z2 H% u/ X" \Bit rate                                 : 18.1 kb/s9 N( J2 {0 j; t. _6 I
Count of elements                        : 1400
+ p. i, o% F' ?) A2 |- PStream size                              : 11.7 MiB (0%); J6 k! z, p- x5 C9 l9 |
Title                                    : French-PGS1 w& E4 k8 l" m3 B
Language                                 : French
' s5 d# S! V# ?Default                                  : No# w$ Q% a* W/ d3 m% Y
Forced                                   : No9 E4 J9 D& Q7 c! b* I: _
Original source medium                   : Blu-ray
4 Z7 R' U, H1 w$ c+ U: S
$ a0 P  z. D# SText #4
' a% I- G1 a' L* R: ZID                                       : 7+ m. M1 L+ J3 ?9 \
ID in the original source medium         : 4611 (0x1203)  K' \: i' |2 q& V
Format                                   : PGS
4 C( u# c1 N* W. G& I% W  gMuxing mode                              : zlib
3 C0 s- L+ |8 DCodec ID                                 : S_HDMV/PGS
, N  n4 u! B. ]) o2 f# w/ I  XCodec ID/Info                            : Picture based subtitle format used on BDs/HD-DVDs5 w7 R, D2 k' x6 B# t% A: M
Duration                                 : 1 h 28 min
" T# V  \/ G% l# U2 tBit rate                                 : 19.5 kb/s0 f& I7 Z+ _7 Q& N, K
Count of elements                        : 1444
) Z5 u- U2 K7 D& j" d' Q: dStream size                              : 12.4 MiB (0%)
/ d' u+ w7 I6 e" f" O6 k/ \/ TTitle                                    : Italian-PGS0 s/ C3 E/ q" f6 N  R' g8 l/ b
Language                                 : Italian; x) }. x! q/ p. ~
Default                                  : No( \( e/ S: f2 V4 c
Forced                                   : No# g9 v' M, b/ m
Original source medium                   : Blu-ray- b2 r: X, [! T0 [
  k1 D  b9 @% _  ?
Menu
+ b4 X9 W4 {2 ~1 j  N00:00:00.000                             : en:Chapter 014 q) z( U8 u! p- b
00:04:17.715                             : en:Chapter 02
* S& s, \  C5 r. T( Q00:10:55.529                             : en:Chapter 03
8 U, L# B4 L' u5 b% @3 W1 P* |00:18:20.057                             : en:Chapter 04
. L) {: Q' Q4 i. q( W% S: R00:21:40.173                             : en:Chapter 051 I1 z7 g0 C  Z- a
00:38:10.288                             : en:Chapter 069 e2 y+ s/ A1 j6 E+ h8 \
00:52:22.180                             : en:Chapter 07
* h* [; e; m+ e) U/ }7 q3 W9 V01:19:14.666                             : en:Chapter 08
Video* M( z9 _  @9 Q! Z& f0 e
ID                                       : 19 c2 y" I. M" S% K/ d
Format                                   : AVC
8 [7 F8 d: }+ qFormat/Info                              : Advanced Video Codec
2 e6 p8 `- J" z- P; G% w+ h8 ~3 lFormat profile                           : High@L4.1/ z) T$ k: y! z& {6 @1 d; G2 r
Format settings, CABAC                   : Yes, ?- J' ?* c3 ]2 b
Format settings, ReFrames                : 4 frames7 v7 a; U& [( {+ G; d4 j( r6 p
Codec ID                                 : V_MPEG4/ISO/AVC$ S" C% x2 M6 N5 t& M0 F2 y
Duration                                 : 1h 32mn: n/ ]+ K  s/ i+ ?/ Y. o* f
Bit rate                                 : 9 536 Kbps
$ K2 ?6 u! K+ @1 f$ O, Y6 xWidth                                    : 1 920 pixels
5 [  }3 I2 i) OHeight                                   : 1 040 pixels
7 I8 u: p& G1 n, J7 l7 ?- uDisplay aspect ratio                     : 1.85:1: i1 t; m( [5 l& t$ W
Frame rate mode                          : Constant. M- W( K1 d$ b5 r; K
Frame rate                               : 23.976 (24000/1001) fps
: T) t3 y8 z$ P4 o- q3 o0 q' lColor space                              : YUV
2 x0 U) V# I7 wChroma subsampling                       : 4:2:0- Q! _/ I$ k- T0 k0 z- y
Bit depth                                : 8 bits
% Z% S% ^/ P5 j# h" H- n& ~, t5 iScan type                                : Progressive
' k# \& L7 [0 f! BBits/(Pixel*Frame)                       : 0.1990 O5 z( g9 G# C- Z, T; [7 S
Stream size                              : 6.14GB (94%)2 X* |0 z5 m8 j( N7 [2 F4 M/ b
Writing library                          : x264 core 148 r2744 b97ae06
) o  h8 U! g4 _$ N5 D) b8 vEncoding settings                        : cabac=1 / ref=4 / deblock=1:0:0 / analyse=0x3:0x113 / me=umh / subme=7 / psy=1 / psy_rd=1.00:0.00 / mixed_ref=1 / me_range=16 / chroma_me=1 / trellis=1 / 8x8dct=1 / cqm=0 / deadzone=21,11 / fast_pskip=0 / chroma_qp_offset=-2 / threads=12 / lookahead_threads=2 / sliced_threads=0 / nr=0 / decimate=1 / interlaced=0 / bluray_compat=0 / constrained_intra=0 / bframes=3 / b_pyramid=2 / b_adapt=1 / b_bias=0 / direct=1 / weightb=1 / open_gop=0 / weightp=2 / keyint=250 / keyint_min=23 / scenecut=40 / intra_refresh=0 / rc_lookahead=40 / rc=2pass / mbtree=1 / bitrate=9536 / ratetol=1.0 / qcomp=0.60 / qpmin=0 / qpmax=69 / qpstep=4 / cplxblur=20.0 / qblur=0.5 / ip_ratio=1.40 / aq=1:1.00% V# |  ?2 l+ h+ Q2 }2 L$ m) |6 S
Default                                  : Yes
" {, z- q- _  \; lForced                                   : No2 p3 G/ _( i1 Q5 y2 l6 v* ?0 Q( `
Audio' y8 _" Q+ I# M- m8 a8 e/ ]; J5 m
ID                                       : 2
6 s1 f8 t) Y) }' M8 \Format                                   : AC-3
3 E5 _, O$ T8 |  ?3 F( s* x4 R: L4 z* M& jFormat/Info                              : Audio Coding 3
1 [+ F" l  B( b; {9 R2 j% h; p' VMode extension                           : CM (complete main)9 ?- y: G) o4 I1 p/ a
Format settings, Endianness              : Big
" M) _3 R( e+ t3 J( MCodec ID                                 : A_AC3
, R" P8 i" C7 |  `Duration                                 : 1h 32mn
7 e, w  b1 v7 b" kBit rate mode                            : Constant
) \( r/ e% |2 d, QBit rate                                 : 640 Kbps
7 L4 c! V. v4 rChannel(s)                               : 6 channels
" t2 i% X7 g# A3 F% gChannel positions                        : Front: L C R, Side: L R, LFE1 _) v7 Q6 ]. @) [
Sampling rate                            : 48.0 KHz0 ]" _6 S4 {7 K% n  a, @
Frame rate                               : 31.250 fps (1536 spf)
/ S) s1 Z* M; X/ w6 hCompression mode                         : Lossy
9 E4 W/ A: ]. D% IStream size                              : 422 MiB (6%)) t# M9 {/ X  T0 s
Language                                 : English
% _) A% M9 R& }9 y. TDefault                                  : Yes
" z+ |  V1 N3 h7 P) i5 A# HForced                                   : No
9 V* J8 o' K/ _
游客,查看本帖隐藏内容请回复 | 加入VIP贵宾组可免积分免回复下载 了解详情 | 还不是会员:点击获取邀请码 Invitation Code

本版积分规则

小黑屋|Archiver|蓝光电影资源网

GMT+8, 2020-10-29 12:09

快速回复 返回顶部 返回列表