BluRayCD Forum

 找回密码
 立即注册【分享大片】

QQ登录

只需一步,快速开始

查看: 93|回复: 5
收起左侧

[蓝光原盘] 第四阶段 [REMUX无损版] The Fourth Phase 2016 DOCU 1080p BluRaycd REMUX AVC DTS-HD MA TrueHD 7.1 Atmos-FGT 19.70GB

[复制链接]

4550

主题

4722

帖子

6万

积分

Post Share

金币
8727 枚
体力
16795 点

卓越贡献勋章

黄金嫖客 发表于 2020-9-18 21:49:25 | 显示全部楼层 |阅读模式
From the innovators of "The Art Of FLIGHT" (2011) comes a documentary about the iconic snowboarder Travis Rice. The production of the movie started in 2013.& `( L$ x4 E* f2 o* }- f
7 u: F( {8 I" F6 J) I, q  M  U
01.jpg ' `- c" U% u. [4 }; W  f5 {

! K9 L" t  j1 K6 k" i◎译  名 第四阶段
+ P/ B6 |) F3 t5 l7 b7 l5 G◎片  名 The Fourth Phase
: m; {  |- l1 K1 j◎年  代 20165 d0 ~& h% @: ?5 m
◎产  地 奥地利/法属波利尼西亚/日本/俄罗斯/美国6 y( `2 a$ ~# [3 s! w4 T; K' V
◎类  别 动作/纪录片/冒险/运动5 J& w) ]6 O' v( U( W0 A3 n  n
◎语  言 英语
% k, \& N3 N" R% I% x◎上映日期 2016-10-02(日本)
7 b. N7 v! [0 O; P+ j% k$ l' J◎IMDb评分  7.1/10 from 1,322 users- l& L8 U' Y2 y+ s8 j, V' W8 {
◎IMDb链接  https://www.imdb.com/title/tt5226436/
* Y2 t$ ~9 \/ B: ~◎豆瓣评分 8.8/10 from 121 users; |% T" z+ ?* Y( w0 F; C8 O  q0 t
◎豆瓣链接 https://movie.douban.com/subject/26868383/" s; V# |+ X+ A0 N
◎文件格式 x264 + DTS + TrueHD% e& [0 ^# w* I2 K, {1 U
◎视频尺寸 1920 x 1080& |7 Y: T. M1 _3 r
◎文件大小 1DVD 19.70 GiB
1 |3 u0 [& ?+ C9 w& n. g' d9 z1 L◎片  长 1 h 32 min) i& ~  ?+ G) Q+ h1 N) ~& D
◎导  演 Jon Klaczkiewicz; O$ a$ K  O- U8 q% j
◎编  剧 Melissa Larsen7 ?/ z' \( S4 U) n
◎主  演 Travis Rice
) s" ^5 z. p8 D8 w) V& O       杰里米·琼斯 Jeremy Jones2 z8 B/ S! {* T
       Mark Landvik
- |2 {4 O0 D# t& ~' a       Ben Ferguson% ]6 S3 [0 L$ `8 Z( v3 P
       Eric Jackson
9 t# C4 X/ f; R; _4 f2 o8 c       Bode Merrill6 f" F, ~3 Q! e
       Victor de Le Rue1 A0 [9 p' B8 H. l
       Bryan Iguchi1 z7 z: j! n# c% t6 W. T
       Shin Biyajima* A' r# h4 e. v2 C6 d9 X
       Pat Moore
! j2 S& w& ~* [  r% w       Mikkel Bang2 H+ B; L' ?" _- [% @0 w9 i
       Cam FitzPatrick" @; W, u' R( v: |

  w8 U4 ?  T4 C, x( [7 F# `◎标  签 纪录片 | 极限运动 | 滑雪 | 单板 | 奥地利 | 2016 | 俄罗斯 | 美国电影
# x- s/ q* ?, u0 F5 h* E1 p7 Q4 @* S" z1 l7 n
◎简  介  
0 N' K, k+ t# D5 U, T! f- w/ B" r- H5 g' y/ Z+ ^' L1 z9 N
  eztv 历时两年拍摄的单板大电影《The Fourth Phase》再次聚焦单板届的标志人物Travis Rice和其它大神级滑手。本片也是继2011年的The Art of Flight和Thats it Thats all之后的又一部单板大作。$ h# S( C( c0 ~8 D2 \4 e2 s3 E
* m2 `6 t# {$ a$ u4 h2 U" @: p# H
  From the creators of The Art of FLIGHT, Red Bull Media House presents THE FOURTH PHASE, a snowboarding epic starring iconic athlete Travis Rice. A gifted innovator, Rice has always held the keys to what’s possible, yet he still seeks more. While exploring the untapped backcountry of his native Wyoming with mentor Bryan Iguchi, Rice plots a 16,000 mile course to follow the hydrological cycle around the northern Pacific, where snow and ice create dreamlike landscapes on the towering mountains above. On his journey, Rice is joined by several of snowboarding’s most innovative riders, including Mark Landvik, Eric Jackson, Bryan Iguchi, Pat Moore, Mikkel Bang, Jeremy Jones, Victor de Le Rue, Ben Ferguson From the Japanese Alps to the volcanoes of Russia and a spectacularly remote area of Alaska, the team is committed to enduring all that comes with immersing themselves in nature’s cycle. But the stakes are high and Rice knows that he’ll be at the mercy of his own decision-making. Scored by Kishi Bashi, shot entirely in 4K ultra HD and optimized for Dolby Atmos and Dolby Vision, THE FOURTH PHASE carves a fresh path, using an artistic blend of action, story and cinematography to bring this stunning feature to life. A film for anyone fascinated by the possibilities of adventure, of the natural world – of life.7 y3 Z, z' S6 s/ ]1 m

6 T. O& }, ?% K4 f
Video
2 [2 N+ I) z9 p/ d) D1 d+ [ID                                       : 1+ G- s* k; H4 t4 G. t8 i
ID in the original source medium         : 4113 (0x1011)
6 b1 V/ R  l# TFormat                                   : AVC
' t- R# L  O2 z+ _Format/Info                              : Advanced Video Codec9 F# ]7 K$ E2 l! V
Format profile                           : High@L4.1; W# |3 x9 }$ l1 H: N7 g: G
Format settings                          : CABAC / 4 Ref Frames
) t  s$ {7 f) [: |! K6 c  Q) tFormat settings, CABAC                   : Yes
/ q) a2 K1 z+ uFormat settings, Reference frames        : 4 frames
, u0 U, K8 o3 Q  A% GCodec ID                                 : V_MPEG4/ISO/AVC0 v" M5 {# Z4 P/ N& X$ M# |3 W
Duration                                 : 1 h 32 min" H# h& Z4 R6 Z& A" _4 I0 g
Bit rate mode                            : Variable2 R( i" [7 k) o7 B! g
Bit rate                                 : 21.9 Mb/s
! g0 d9 f. ?7 r% W# u5 eMaximum bit rate                         : 32.0 Mb/s( _( ]0 G, P+ t* p5 A+ c
Width                                    : 1 920 pixels6 N, a# p4 H" ~
Height                                   : 1 080 pixels
! o  _5 B4 w% W3 }  SDisplay aspect ratio                     : 16:9
4 C9 [6 v4 G' F$ ^5 }1 }, C6 x- O3 yFrame rate mode                          : Constant
) V; m  V- X: i% LFrame rate                               : 23.976 (24000/1001/37687) FPS
4 S2 I5 E/ B6 `* P( d" c3 k) cColor space                              : YUV
/ W5 h4 D1 p( {) T4 Z& jChroma subsampling                       : 4:2:06 y6 _# |- {9 K1 Z" `# f+ W. e& u
Bit depth                                : 8 bits. j: a, t7 Q3 E6 E1 j0 v1 K4 t* V7 t
Scan type                                : Progressive
/ [5 a$ O, u& h3 H% [" h8 ~9 BBits/(Pixel*Frame)                       : 0.440- \5 U( N) b! l0 |- |$ h
Stream size                              : 14.1 GiB (72%)
2 s3 p$ s. g# W) nTitle                                    : The.Fourth.Phase.2016.DOCU.1080p.BluRayCD.REMUX.AVC.DTS-HD.MA.TrueHD.7.1.Atmos-FGT
1 X0 Y& I: E9 B5 sLanguage                                 : English, h1 {( l% k) v& I. E2 K0 O
Default                                  : No
+ u  v1 R. q  Z5 _5 _$ Z$ vForced                                   : No
3 z! O5 i, Q; v: S# @8 P# bOriginal source medium                   : Blu-ray1 \( J/ l$ r9 o
) \, S$ c7 _! V4 o: }
Audio #1' H# s6 q. b. u' C0 J0 V3 x
ID                                       : 2
/ N9 P& v. g" a5 ]* Y7 E1 J$ e, x  cID in the original source medium         : 4353 (0x1101)
; I/ Q5 ^% C0 V1 B% c. b  PFormat                                   : MLP FBA 16-ch
( o1 K( G2 B$ C/ `! ^Format/Info                              : Meridian Lossless Packing FBA with 16-channel presentation  @  a. E# `6 s1 F  B: a
Commercial name                          : Dolby TrueHD with Dolby Atmos
& F, E2 K3 g: h+ C8 cCodec ID                                 : A_TRUEHD! Z1 X: g2 L4 @) x* u
Duration                                 : 1 h 32 min
; r5 n* [" `$ E- N: L7 d1 oBit rate mode                            : Variable  O/ E/ n. I5 F
Bit rate                                 : 4 209 kb/s
2 O" ^$ f; H5 ?$ M. W/ qMaximum bit rate                         : 6 384 kb/s- F( F) _& w1 D
Channel(s)                               : 8 channels# [, T) ]& _1 V$ l
Channel layout                           : L R C LFE Ls Rs Lb Rb
) w7 [. k0 D0 k% ]Sampling rate                            : 48.0 kHz* e$ w0 c9 M; P2 M7 w
Frame rate                               : 1 200.000 FPS (40 SPF)
, c$ I$ u* l7 m4 xCompression mode                         : Lossless
% x- q9 M4 h+ K% n- h/ C* t+ KStream size                              : 2.71 GiB (14%)3 Z% O: [4 X, f0 ^7 S  q- E/ Q* H
Title                                    : The.Fourth.Phase.2016.DOCU.1080p.BluRaycd.REMUX.AVC.DTS-HD.MA.TrueHD.7.1.Atmos-FGT
5 t7 [. v& J/ E3 j% X& U! o4 n8 tLanguage                                 : English
; w: n! J" W; q) G. O8 X- @5 [Default                                  : No
: j' e  i6 e3 PForced                                   : No
. S/ W( F' }' VOriginal source medium                   : Blu-ray
) V% @5 o, O, h2 bNumber of dynamic objects                : 11
( f1 r' y* r) R1 N. tBed channel count                        : 1 channel* P7 a3 P' b4 P: t2 k
Bed channel configuration                : LFE
2 ^$ x( D4 D+ Q' l1 `+ V8 ^: d% Z* [6 w4 b' U6 h
Audio #2/ a0 T" N6 u9 f
ID                                       : 3
6 v! N$ B& Y# K+ V  ]# l5 UFormat                                   : DTS XLL
9 X5 m7 c: ]" C0 A" x! }) |Format/Info                              : Digital Theater Systems* z/ R* j& R9 ?) g% v+ d. X4 j2 W) f
Commercial name                          : DTS-HD Master Audio3 s0 ^$ l3 G" z' }
Codec ID                                 : A_DTS$ R) I; q1 B1 @
Duration                                 : 1 h 32 min3 v+ N/ I5 j* ~. ^4 \' D2 K2 v
Bit rate mode                            : Variable* r% V3 T8 z. @8 f$ Z' n  S
Bit rate                                 : 3 718 kb/s
, O) n0 b2 B6 _0 `" a5 rChannel(s)                               : 8 channels
* z# o4 G9 d+ W. n2 g* S" Q4 lChannel layout                           : C L R LFE Lb Rb Lss Rss
5 ?, s5 Y3 ^: b- MSampling rate                            : 48.0 kHz  C7 g5 ~3 G% q% _# i  z
Frame rate                               : 93.750 FPS (512 SPF); Q" s% h6 w0 f
Bit depth                                : 24 bits
0 K1 q3 [8 w5 I" X6 @% hCompression mode                         : Lossless
) S7 [/ s2 S& R' N+ S8 h& bStream size                              : 2.40 GiB (12%)
7 _' b6 ~2 y6 o& S0 l. _5 u& g5 c8 \Title                                    : The.Fourth.Phase.2016.DOCU.1080p.BluRaycd.REMUX.AVC.DTS-HD.MA.TrueHD.7.1.Atmos-FGT
* h0 ?) Q1 R: p# b# D6 [2 h% GLanguage                                 : English
2 d0 R+ H* r& ~+ J: h+ M, UDefault                                  : Yes
: S$ S6 J# M6 Q, l1 VForced                                   : No
. @1 |. C# R2 s2 Z: L1 b% ]5 F! I% h6 p
2 l* h# l3 [. D1 X7 o5 f  jAudio #3
' f) F1 a* w+ H+ o' S: C3 IID                                       : 4/ K* K. D8 Y. \( d& \
ID in the original source medium         : 4353 (0x1101)
# O+ R: w* @" b/ [Format                                   : AC-3
4 C" t; w" I' A9 F/ jFormat/Info                              : Audio Coding 3# h5 N, {$ Q) ]$ r
Commercial name                          : Dolby Digital
6 _, K3 J! Y6 H2 y, XCodec ID                                 : A_AC3# I' p& g5 R5 y
Duration                                 : 1 h 32 min
1 l! x/ F3 |2 T. o* Q- E$ _% \Bit rate mode                            : Constant. T( ^& o; L  G9 b8 J- Q
Bit rate                                 : 640 kb/s
! B6 ?( h, q" [Channel(s)                               : 6 channels+ [0 s- Q1 R+ j
Channel layout                           : L R C LFE Ls Rs
2 Q/ K$ m& r8 aSampling rate                            : 48.0 kHz& D+ d) W) w( j. i1 n( w% @
Frame rate                               : 31.250 FPS (1536 SPF)! [& `! o) C$ @- y1 b6 C
Bit depth                                : 16 bits$ j6 B2 W% P+ y2 G" F% g& b
Compression mode                         : Lossy2 Z! Q) O# F* T# v7 F% z& ?6 s
Stream size                              : 422 MiB (2%)
& \8 j0 O) o$ B8 U' k' Z4 B! nTitle                                    : The.Fourth.Phase.2016.DOCU.1080p.BluRaycd.REMUX.AVC.DTS-HD.MA.TrueHD.7.1.Atmos-FGT" `7 I7 d$ m' |' B+ w
Language                                 : English$ f- Y3 V- |' x) U9 {" V7 A% S
Service kind                             : Complete Main' e2 |% h, \" J$ g( \3 b. [
Default                                  : No0 H1 V. F8 X) W9 \  |
Forced                                   : No0 z2 }; r4 n/ _' a
Original source medium                   : Blu-ray, w4 ~6 D) k  ?* w4 e% @% W+ d
. f+ o+ W% W1 D7 _. M* g
Text #1& I4 a$ b7 _& c8 k7 j1 b
ID                                       : 5
) W$ o, M+ M) S. E; y5 [Format                                   : UTF-8
/ `8 O" p* O4 K  i8 mCodec ID                                 : S_TEXT/UTF8$ q! I2 J! y1 e  G% D! V/ P
Codec ID/Info                            : UTF-8 Plain Text
% q+ ]) q. C9 p5 j  LDuration                                 : 1 h 30 min' Q! q. q# d  k% K% B) ]+ E
Bit rate                                 : 38 b/s3 C9 A, `( H: F+ ?( ]' B1 u" n% Z
Count of elements                        : 745
) r9 L6 Q# C, e) ]* AStream size                              : 25.7 KiB (0%)- z' `$ E5 L- r/ \% I! {
Title                                    : English-SRT
9 S6 G7 u7 Y. f: a/ s. y" zLanguage                                 : English( D( m+ I8 L1 h+ h) B
Default                                  : Yes/ R. @6 d# s$ ^+ [0 e
Forced                                   : No
+ H) `' E' o0 m, U0 \2 w  b
- n9 V( {9 w+ W8 yText #2
# U9 p* R2 y& ]# N$ {$ u6 yID                                       : 6
+ f2 N$ D: {$ c' GID in the original source medium         : 4609 (0x1201)
* e+ k" g, C6 yFormat                                   : PGS9 U/ T' B* a" K: p! X0 }
Muxing mode                              : zlib
; @$ J$ m0 }( G6 ]( aCodec ID                                 : S_HDMV/PGS$ @( u: r  n; T2 K% C* V5 ]
Codec ID/Info                            : Picture based subtitle format used on BDs/HD-DVDs
+ z4 x6 ]: q; h. ?9 f/ m0 x7 LDuration                                 : 1 h 30 min
; D2 i3 [) k9 D1 q& z, pBit rate                                 : 21.8 kb/s
  X- ?$ g0 w) `4 Z1 Y1 sCount of elements                        : 1826
. K! X4 D' |% r! x0 oStream size                              : 14.0 MiB (0%)
3 L* I% c0 E$ q% Q' q9 b1 UTitle                                    : English-PGS1 X$ w- u; T5 h: F* m8 u, [" f
Language                                 : English  g6 y. d4 E$ P+ Y( s
Default                                  : No/ p: [2 z: q6 s. \
Forced                                   : No6 A6 m! }( P, R0 J2 o( |3 k! O, V& \
Original source medium                   : Blu-ray$ [8 \& }6 [1 \

6 D' H0 p0 Y) aText #3$ E$ O" X5 Y1 M6 R: P. R# Y  w+ U
ID                                       : 7
# g9 D  U' A2 S' C8 rID in the original source medium         : 4610 (0x1202)
/ l* J% J  M0 ]! VFormat                                   : PGS& C: b0 R9 f2 n$ S8 H, q
Muxing mode                              : zlib
2 c5 u3 C# I; `2 @; t4 xCodec ID                                 : S_HDMV/PGS& }  G9 R: i- r# }, s9 _% b- j& A* U# |
Codec ID/Info                            : Picture based subtitle format used on BDs/HD-DVDs" M" r4 V+ l7 E6 ?- k
Duration                                 : 1 h 30 min' y/ F4 |" b/ @" M+ Q; O3 I
Bit rate                                 : 18.1 kb/s! U- X9 M1 h7 q
Count of elements                        : 1400
% M6 u' O, N# N3 O: S2 iStream size                              : 11.7 MiB (0%)
/ T$ ]7 C5 [) r# z" ^. O" _6 N  tTitle                                    : French-PGS
0 \! }3 @6 W8 n- G; v) RLanguage                                 : French3 i. m+ R/ C3 p" A/ }: O- }, k/ k2 R% T/ O
Default                                  : No
9 R7 R0 P  f4 h% R7 O5 ]( |! KForced                                   : No& j- ^) J" {* X+ ~
Original source medium                   : Blu-ray$ r  G2 F: }1 l2 O9 m& A! |# ?* J6 J6 R
) f/ H% ]" {8 d' M4 A" Z$ A
Text #4
6 |  W$ F9 `6 v! J+ n0 g7 @ID                                       : 8
/ K% |; U  A  [; E/ g; W, m# C) |ID in the original source medium         : 4611 (0x1203)7 a% E+ r) ?  j! L$ G- G5 N# {* R
Format                                   : PGS8 R1 K# p- u/ u2 c5 w& o0 ~- l& O. J
Muxing mode                              : zlib
; L6 f# \' F( u0 dCodec ID                                 : S_HDMV/PGS
5 h( C1 v, Z- G2 w# M& X  YCodec ID/Info                            : Picture based subtitle format used on BDs/HD-DVDs8 S" B8 d0 `) r" H) w  t4 @
Duration                                 : 1 h 28 min5 f0 c2 a1 }. _4 H
Bit rate                                 : 19.5 kb/s8 ]5 H  g: ^( c6 O8 r2 s! R
Count of elements                        : 14449 E: f) Z; ]8 ]8 ?
Stream size                              : 12.4 MiB (0%)
1 G/ d+ g8 w- p2 G- S/ ]4 UTitle                                    : Italian-PGS+ }  E6 t; A+ ?, S" }. e, O
Language                                 : Italian
9 q9 x; q* t8 kDefault                                  : No9 f2 D1 \- A/ I2 z
Forced                                   : No
$ j1 d' J: v( w0 ~Original source medium                   : Blu-ray
/ N* u0 H# V# o; A0 Q. b( U# M( }5 M
Menu
3 f$ \0 |5 m. N5 _5 x! m00:00:00.000                             : en:Chapter 01& S$ c2 p$ x/ u8 M/ ~7 I! c
00:04:17.715                             : en:Chapter 02$ L/ n+ ~! ]$ w7 F, h: ]
00:10:55.529                             : en:Chapter 03( w0 i* {; p; _4 b. m: U1 E
00:18:20.057                             : en:Chapter 04% {$ l5 Q; \! |( C
00:21:40.173                             : en:Chapter 05
; ?5 u4 B1 V& J; v" S9 o' l00:38:10.288                             : en:Chapter 06& s5 x, Z  x7 G+ I. V
00:52:22.180                             : en:Chapter 07
# c' n9 k" K  s: v, F01:19:14.666                             : en:Chapter 08

+ K" X1 }* q( F! l3 Q" Z$ r
游客,查看本帖隐藏内容请回复 | 加入VIP贵宾组可免积分免回复下载 了解详情 | 还不是会员:点击获取邀请码 Invitation Code

64

主题

1486

帖子

5413

积分

Sponsor

金币
292 枚
体力
2056 点
lanpanshuma 发表于 2020-9-19 08:55:31 | 显示全部楼层
每天都来蓝光论坛看看,我爱蓝光电影。/ ^! R4 p9 k; a9 r% V
I love your Blu-ray movies Forum!) v* `$ n0 t# j
该会员没有 ...

0

主题

227

帖子

1256

积分

Sponsor

金币
7 枚
体力
678 点
QQ
yinger_0909 发表于 2020-9-19 21:13:07 | 显示全部楼层

& S3 z- G/ q9 \! N5 O每天都来蓝光论坛看看,我爱蓝光电影。( b, G: b2 F' M. _. S0 E
I love your Blu-ray movies Forum!

3

主题

81

帖子

370

积分

Sponsor

金币
36 枚
体力
164 点
2360090999 发表于 2020-9-29 22:42:26 | 显示全部楼层
4K纪录片,谢谢楼主分享
- S$ ~4 i) H% c
又有新片了 ...

0

主题

186

帖子

993

积分

Sponsor

金币
152 枚
体力
482 点
2475017 发表于 2020-10-10 16:44:45 | 显示全部楼层
多謝師兄分享
7 J) o& i3 U: Y$ W8 C
该会员没有 ...

2

主题

479

帖子

2171

积分

Sponsor

金币
1 枚
体力
1089 点
myg0123 发表于 2020-10-13 09:29:19 | 显示全部楼层
感谢楼主无私分享
蓝光论坛里 ...

本版积分规则

小黑屋|Archiver|蓝光电影资源网

GMT+8, 2020-10-23 02:37

快速回复 返回顶部 返回列表