BluRayCD Forum

 找回密码
 立即注册【分享大片】

QQ登录

只需一步,快速开始

查看: 79|回复: 2
收起左侧

[4K极清视频] 第四阶段 [4K REMUX无损版] The Fourth Phase 2016 DOCU 2160p BluRaycd REMUX HEVC SDR DTS-HD MA TrueHD 7.1 Atmos-FGT 44.93GB

[复制链接]

5395

主题

5749

帖子

6万

积分

Forum Moderator

金币
3784 枚
体力
25395 点

卓越贡献勋章VIP蓝光勋章

迅雷电影 发表于 2020-9-21 00:57:47 | 显示全部楼层 |阅读模式
From the innovators of "The Art Of FLIGHT" (2011) comes a documentary about the iconic snowboarder Travis Rice. The production of the movie started in 2013.6 ?7 Z1 C& \9 k0 V: e
/ ~7 U2 d+ N' q% M% O
01.jpg & \* f/ r7 b( ~& R
( p! r" o) O. ~# d& m( ~
◎译  名 第四阶段
& y% d) c1 z, e' G+ ~2 g7 k◎片  名 The Fourth Phase
0 `) }% _! O  y& O◎年  代 2016
9 x: j' |: E5 T, Y5 n2 `◎产  地 奥地利/法属波利尼西亚/日本/俄罗斯/美国
! p0 r) t: Y, [, ?: s6 a9 ^/ G$ c* C! A◎类  别 动作/纪录片/冒险/运动
, M- R4 V. o) q# r* |6 M7 B◎语  言 英语" z; y9 t1 a1 J* d1 I
◎上映日期 2016-10-02(日本)7 k4 `  @* \& \* T4 c# h
◎IMDb评分  7.1/10 from 1,323 users$ @! K, l1 E5 @
◎IMDb链接  https://www.imdb.com/title/tt5226436/
7 S8 m; q$ X# H$ m◎豆瓣评分 8.8/10 from 122 users
2 k& q: T: v; l9 g9 z" r◎豆瓣链接 https://movie.douban.com/subject/26868383/5 j9 U$ u. i' E# H. p3 O
◎文件格式 x265 + DTS + TrueHD . q! i. G' x5 i+ v: G! U( K' X$ P7 W
◎视频尺寸 3840 x 2160
! K/ N* S0 s* c) }3 }, t2 S◎文件大小 1DVD 44.93 GiB
; i0 P9 F2 a( I0 S8 N" l) h◎片  长 1 h 32 min. p' P" w" a% P0 R$ n
◎导  演 Jon Klaczkiewicz
/ E3 I2 M- X. t  }2 N* }◎编  剧 Melissa Larsen
% W7 k$ W. `+ {/ l, P2 _" ~◎主  演 Travis Rice
' O( H" F* q, ?. l: v       杰里米·琼斯 Jeremy Jones
% @* P' e5 ]# `; k. {: e, _/ U, `       Mark Landvik
, {) F0 n! U# Z: Q: n1 f3 d1 w       Ben Ferguson
  L' n" t5 p1 ]) |       Eric Jackson
; _# I4 G& m  b0 I. w  n# v       Bode Merrill
1 F: u; l; J' G* J- B       Victor de Le Rue0 J5 J* S& A7 Y5 N# H" R3 U0 U
       Bryan Iguchi- P  d* L1 y, x
       Shin Biyajima
5 ~6 \! r" a& K4 d       Pat Moore, N/ D( c3 p* ?% ?0 \' T
       Mikkel Bang
$ T2 `4 z7 O. d9 G- G$ G6 ~6 i       Cam FitzPatrick
  R4 o1 ]) Z3 Y; O3 m$ k$ P/ j! [8 q; \$ s2 F
◎标  签 纪录片 | 极限运动 | 滑雪 | 单板 | 奥地利 | 2016 | 俄罗斯 | 美国电影
& w8 W8 ?; |2 f9 S6 x6 U0 t8 f+ o5 v  h3 S' j  [% O' [
◎简  介  
1 r: j" ]2 I3 H' t
, s; i& U5 i3 n- P* c/ W  eztv 历时两年拍摄的单板大电影《The Fourth Phase》再次聚焦单板届的标志人物Travis Rice和其它大神级滑手。本片也是继2011年的The Art of Flight和Thats it Thats all之后的又一部单板大作。0 ]5 f$ h( W2 E
2 |3 Q! E' @" c! O
  From the creators of The Art of FLIGHT, Red Bull Media House presents THE FOURTH PHASE, a snowboarding epic starring iconic athlete Travis Rice. A gifted innovator, Rice has always held the keys to what’s possible, yet he still seeks more. While exploring the untapped backcountry of his native Wyoming with mentor Bryan Iguchi, Rice plots a 16,000 mile course to follow the hydrological cycle around the northern Pacific, where snow and ice create dreamlike landscapes on the towering mountains above. On his journey, Rice is joined by several of snowboarding’s most innovative riders, including Mark Landvik, Eric Jackson, Bryan Iguchi, Pat Moore, Mikkel Bang, Jeremy Jones, Victor de Le Rue, Ben Ferguson From the Japanese Alps to the volcanoes of Russia and a spectacularly remote area of Alaska, the team is committed to enduring all that comes with immersing themselves in nature’s cycle. But the stakes are high and Rice knows that he’ll be at the mercy of his own decision-making. Scored by Kishi Bashi, shot entirely in 4K ultra HD and optimized for Dolby Atmos and Dolby Vision, THE FOURTH PHASE carves a fresh path, using an artistic blend of action, story and cinematography to bring this stunning feature to life. A film for anyone fascinated by the possibilities of adventure, of the natural world – of life.
2 m. J: R1 |$ R# D2 M
5 m9 ~8 q9 [2 O+ v
Video/ ?, f+ U" ]9 K# O0 r2 i3 U+ B
ID                                       : 1+ N, s. P3 F: q: p  L7 r
ID in the original source medium         : 4113 (0x1011)) A; h/ t6 C5 N9 C4 ~- j  x4 _- [4 f
Format                                   : HEVC3 S! c  H% R! A; b% i
Format/Info                              : High Efficiency Video Coding
/ n4 y% E3 }* T, U, ?0 zFormat profile                           : Main 10@L5.1@High0 A, Z8 I5 a. z
Codec ID                                 : V_MPEGH/ISO/HEVC# U& \3 ^! \; p3 |
Duration                                 : 1 h 32 min
7 P* K* |. ^& M& [- ]& S( x+ M$ bBit rate                                 : 55.0 Mb/s
' ]" m# n# r; _/ cWidth                                    : 3 840 pixels' g3 l; B/ J, J: F, [- R$ Q
Height                                   : 2 160 pixels
' Y1 }0 P7 g; y! Q4 U: ~1 `7 cDisplay aspect ratio                     : 16:9/ M/ R4 ?3 ]% h
Frame rate mode                          : Constant
. a( R# K) _$ [  V# S: `Frame rate                               : 23.976 (23976/1000/37687) FPS3 D4 T# U; a9 x! p
Standard                                 : Component
% q: N- v* w5 R1 _% U+ qColor space                              : YUV
8 W9 c$ k; y! i: v& z, mChroma subsampling                       : 4:2:0" A' T9 j6 E5 w' |6 E. |
Bit depth                                : 10 bits
1 j5 A9 d0 m! `5 U9 M3 wBits/(Pixel*Frame)                       : 0.277* D  H5 Y( D$ [& K: L
Stream size                              : 35.4 GiB (79%)4 D& o; ~0 S! K+ A) P
Title                                    : The.Fourth.Phase.2016.2160p.BluRayCD.REMUX.HEVC.SDR.DTS-HD.MA.TrueHD.7.1.Atmos-FGT
2 N8 {4 u! F7 ]0 yLanguage                                 : English+ Q( G, C" f3 }: Z, A
Default                                  : No
$ u8 A* p0 z# rForced                                   : No  n* k, [: U8 y: m9 m) _  O2 _9 Q
Color range                              : Limited' V; @! ]& b; k
Color primaries                          : BT.709! W# P4 v& R$ `0 n
Transfer characteristics                 : BT.709
* W) \4 K$ V5 a2 Q+ r2 N+ hMatrix coefficients                      : BT.709
5 {2 K* w4 N& o/ ^" [. ?8 E3 ?. xOriginal source medium                   : Blu-ray0 F4 d( ]7 l  ?! R) V8 y" m/ F
9 n2 f" D7 r1 z) ~& o$ S( d/ W
Audio #1
$ K. d9 }3 V, u5 V! hID                                       : 2& B( X4 f" B( F. Y' z
ID in the original source medium         : 4353 (0x1101)  f6 N8 p7 B$ t: I9 B2 ]
Format                                   : MLP FBA 16-ch
4 }; p& h$ N" ]7 c4 sFormat/Info                              : Meridian Lossless Packing FBA with 16-channel presentation
- i/ B) s# D# H2 h) k# jCommercial name                          : Dolby TrueHD with Dolby Atmos
& I1 L( ]# b& s8 _" QCodec ID                                 : A_TRUEHD
$ ?- _2 t7 d: _4 t, C. ^Duration                                 : 1 h 32 min) I1 X3 t1 ~+ o& I! h$ R) f# K
Bit rate mode                            : Variable
8 K$ H+ H! a* E6 E: BBit rate                                 : 4 209 kb/s
* m: T& J( N" L* A" G2 bMaximum bit rate                         : 6 384 kb/s+ W+ Z2 e; `9 v+ V: \2 C
Channel(s)                               : 8 channels
1 f7 o! O2 Q% M, a# q0 [Channel layout                           : L R C LFE Ls Rs Lb Rb+ `) _- ]. X6 r" @7 v
Sampling rate                            : 48.0 kHz
6 |" W5 S4 q8 E8 f" f+ O+ OFrame rate                               : 1 200.000 FPS (40 SPF)$ A# h& N' A  ~9 x$ n5 P3 A
Compression mode                         : Lossless" ?; {7 g' i5 D) r
Stream size                              : 2.71 GiB (6%)) H3 f3 r' y0 ]- f) \. ^
Title                                    : The.Fourth.Phase.2016.2160p.BluRaycd.REMUX.HEVC.SDR.DTS-HD.MA.TrueHD.7.1.Atmos-FGT
4 s. {& t- A  k1 K- w! n  vLanguage                                 : English5 j1 ?% D6 k. q% n
Default                                  : Yes
6 P% m: c2 z+ |& F9 {! |% tForced                                   : No
  U* f; Q% a) b$ b4 S8 T4 D$ kOriginal source medium                   : Blu-ray9 V+ x* O0 ^* }9 y5 W. x* q" k& y
Number of dynamic objects                : 11
& c2 V  O$ K3 d: `! q& ZBed channel count                        : 1 channel; L& {3 f6 v6 U( V: m* _
Bed channel configuration                : LFE) p# q) O5 z6 _4 `4 K; Q/ p

  A0 u$ e$ W( q  oAudio #2: i5 ?/ `3 y& k# v9 |. x
ID                                       : 3
$ f3 A- D  h5 _2 r: z/ H) }" ZFormat                                   : DTS XLL
7 m# u$ k& ?! u' ]$ l& q: UFormat/Info                              : Digital Theater Systems
' o& Y4 F/ S6 N: F, vCommercial name                          : DTS-HD Master Audio! ?' H9 |- H" ^
Codec ID                                 : A_DTS
! d5 f5 p3 F+ W4 u1 ^7 P! ~4 ]4 UDuration                                 : 1 h 32 min' J5 ]/ s% e1 {, a8 R4 ~
Bit rate mode                            : Variable
5 q, a- R& H+ _/ h. }. fBit rate                                 : 3 718 kb/s
. p: [" S: {& F4 n$ u  F" mChannel(s)                               : 8 channels
  N$ K" ~: c  i" a7 [' vChannel layout                           : C L R LFE Lb Rb Lss Rss
, i% {5 F; g  F* n: K3 \) n8 QSampling rate                            : 48.0 kHz4 N% R' V2 Z0 j
Frame rate                               : 93.750 FPS (512 SPF)' x! `. |3 H8 n. ^
Bit depth                                : 24 bits
; k2 w( R. O- ?9 i: f/ _0 gCompression mode                         : Lossless/ h3 [7 P% w0 U$ }3 h: p
Stream size                              : 2.40 GiB (5%)
8 w: g: M3 t! s% Z( }  UTitle                                    : The.Fourth.Phase.2016.2160p.BluRaycd.REMUX.HEVC.SDR.DTS-HD.MA.TrueHD.7.1.Atmos-FGT( `% K. r4 R8 \1 ?) ]
Language                                 : English* s$ r' z' u7 l7 [6 f; }+ X7 c) m) _
Default                                  : No
" z, o- _$ _5 \Forced                                   : No) E) o' R4 L  ^% s
' P. ^4 R8 g/ t& S5 c
Audio #3) \, k9 _+ ~2 Y3 Q7 w/ v! A
ID                                       : 4
+ C  Z6 v2 W  n. k8 V$ AID in the original source medium         : 4353 (0x1101)2 f" K) ~) t; h8 M
Format                                   : AC-3
# `" \3 G" z" U& V* D8 q& ?/ F0 UFormat/Info                              : Audio Coding 35 ^( M& p  U. ?  m9 @! N" h3 e
Commercial name                          : Dolby Digital6 P. L" s% ^# r0 d1 [. k4 j
Codec ID                                 : A_AC35 K8 a+ M. S. k) }  X/ j
Duration                                 : 1 h 32 min) Z' h7 N& L3 |. j3 v4 w
Bit rate mode                            : Constant
- m& X1 I2 M* w, {) i) J: P! e+ hBit rate                                 : 640 kb/s
! n/ Z. R4 ?1 M8 Y5 X6 ~Channel(s)                               : 6 channels$ }1 U% H% j4 }6 G' P5 d, B9 W
Channel layout                           : L R C LFE Ls Rs% y9 o; k/ l2 i* |, k8 W2 `$ N/ i
Sampling rate                            : 48.0 kHz3 N9 {2 i0 x& ~% y
Frame rate                               : 31.250 FPS (1536 SPF)/ B4 u; r- l7 F. k1 e3 Q% y) k; U% `5 `
Bit depth                                : 16 bits
1 i5 A% ^  u- z  q! @% WCompression mode                         : Lossy
* c* Q8 K5 j6 R5 a' z, s& UStream size                              : 422 MiB (1%)
; z+ ]- O  `/ s; }Title                                    : The.Fourth.Phase.2016.2160p.BluRaycd.REMUX.HEVC.SDR.DTS-HD.MA.TrueHD.7.1.Atmos-FGT/ {2 e. G) B9 k* i2 h, g" X% B
Language                                 : English5 K6 j" r  r) M' S( C; e
Service kind                             : Complete Main
1 Z; u0 H3 T$ d* [1 tDefault                                  : No
6 Z4 d. i9 C; }) xForced                                   : No  |; `" n% }7 p5 c% z
Original source medium                   : Blu-ray8 a; k, w( F9 z4 Q+ n7 @0 t, I6 U
, G4 Y! U' t1 [
Audio #4
5 a! C+ f+ u3 q% z! ^; ~ID                                       : 5
3 v1 V7 y- E6 d+ ~) qID in the original source medium         : 4352 (0x1100)( @7 o2 g# z1 I( O+ @3 {5 P
Format                                   : MLP FBA 16-ch8 [# z9 ^2 y" B7 J1 F& X' S) s
Format/Info                              : Meridian Lossless Packing FBA with 16-channel presentation
: E5 Q9 U0 w- b- f- ^$ zCommercial name                          : Dolby TrueHD with Dolby Atmos
1 d) F5 ]: U! t4 S) E+ cCodec ID                                 : A_TRUEHD
3 V7 c4 ]* F4 ?% g" x  w# eDuration                                 : 1 h 32 min
/ n# O! c. @8 J% r7 ~1 hBit rate mode                            : Variable
( j* P6 C# z% T1 X7 _: Q# \' M6 ~Bit rate                                 : 5 330 kb/s
5 S0 x, b2 f" Q9 T6 p, r1 n. zMaximum bit rate                         : 7 896 kb/s+ F- U4 m  Q" C7 Z( p( a
Channel(s)                               : 8 channels; I( m0 c- e/ s% C3 f. A: J
Channel layout                           : L R C LFE Ls Rs Lb Rb
  e7 e; N2 G* g3 V4 ]Sampling rate                            : 48.0 kHz
5 z  L  c3 i8 g1 u* BFrame rate                               : 1 200.000 FPS (40 SPF)+ W) ?  K8 `3 }1 ?* ^
Compression mode                         : Lossless1 @$ T) l! |. ~# x9 f
Stream size                              : 3.43 GiB (8%)  }/ C$ E" O; A" J' c3 t
Title                                    : The.Fourth.Phase.2016.2160p.BluRaycd.REMUX.HEVC.SDR.DTS-HD.MA.TrueHD.7.1.Atmos-FGT! M" T8 C/ l# Z
Language                                 : German
' N, q8 |9 T/ I& n* dDefault                                  : No
! f! ^2 ~* r2 h' `/ i" E( cForced                                   : No9 w5 j! p$ F* [" Q1 w$ i; I
Original source medium                   : Blu-ray
& N% _- s7 a5 F" i3 R2 ONumber of dynamic objects                : 11
0 E5 F  @; z+ H2 F8 D- m  GBed channel count                        : 1 channel8 a0 @% t2 t" R' k
Bed channel configuration                : LFE
3 N) E4 P; G; _; W
% D/ T6 C1 K$ PAudio #5( A$ I7 y6 j  G  ]+ B4 Q
ID                                       : 62 i3 h% r% d, |2 x8 u7 ]; D
ID in the original source medium         : 4352 (0x1100)! A; Y9 K' b" M$ \7 \% [
Format                                   : AC-3( j( h9 \! u; l# g6 Z4 g! B0 V
Format/Info                              : Audio Coding 3
, o6 W! `" w/ r# A3 ]Commercial name                          : Dolby Digital0 k, ^: Q6 e$ z" a4 y3 b
Codec ID                                 : A_AC3
  V1 A+ }+ s8 J3 |Duration                                 : 1 h 32 min
) N: @# L1 v; f1 L) v& F! ABit rate mode                            : Constant: _3 X- @6 Z6 ^3 ]* H- X
Bit rate                                 : 640 kb/s6 Z% C# L0 M7 @. r6 U0 q
Channel(s)                               : 6 channels
2 e) i. ]- a  m" A# }+ D$ @& K! _2 }7 tChannel layout                           : L R C LFE Ls Rs
) u6 j  Q. j& _0 a; oSampling rate                            : 48.0 kHz0 q" k/ }- n8 d3 u. C* z* F
Frame rate                               : 31.250 FPS (1536 SPF)
% K; }! n. o# {- H9 N9 L) l: ^Bit depth                                : 16 bits" c8 R* l0 a4 @( J6 n; u
Compression mode                         : Lossy6 Q" W+ e# t+ I. T. H. w
Stream size                              : 422 MiB (1%)/ Z- h1 X' g" ^6 |  K4 m1 P3 C/ l1 H
Title                                    : The.Fourth.Phase.2016.2160p.BluRaycd.REMUX.HEVC.SDR.DTS-HD.MA.TrueHD.7.1.Atmos-FGT
, l) {9 w1 j- V8 j: U5 W9 gLanguage                                 : German
& D9 ~- m- ]( I4 ]9 YService kind                             : Complete Main& u& E# y- W5 j6 B, I
Default                                  : No
+ s0 ~7 }9 }4 E' j3 ~4 U1 w! ]8 AForced                                   : No" s/ O9 T' {& f. u6 W
Original source medium                   : Blu-ray) K2 a% f" x. d! r% H
' ?7 S4 K6 u8 R$ M* J5 C! r2 g
Text #1
( y6 \+ W$ U0 z; M$ U* k- t! vID                                       : 7
6 @2 T% e. s! ?( M# P8 n) qFormat                                   : UTF-8
2 l- X1 u0 D7 D6 iCodec ID                                 : S_TEXT/UTF81 G7 c7 g7 k' j
Codec ID/Info                            : UTF-8 Plain Text  L& H' Z1 d7 W+ x- f
Duration                                 : 1 h 30 min
4 J) P+ h0 J4 aBit rate                                 : 38 b/s8 d* n6 \; ~- d: {
Count of elements                        : 745, J' D1 l& g. N9 m1 Q6 {1 Z% ?( d: G
Stream size                              : 25.7 KiB (0%)6 V( B7 i( p7 `: ]6 \, W
Title                                    : English-SRT6 ^2 z! ?4 Y" S2 s- F* T
Language                                 : English
% _* n/ [9 {+ L7 X& ~Default                                  : Yes9 a/ f1 M4 S* t8 D4 K
Forced                                   : No
0 A* G- ?6 l7 l/ |( Y( D
( W% u# F. s: K$ H0 nText #24 m2 F3 @4 j5 X- H2 I5 R+ b% _
ID                                       : 8
( T  P" \, l6 k5 {ID in the original source medium         : 4609 (0x1201)
; x$ D3 Z6 Q7 G- q( w' \Format                                   : PGS2 c& B$ M0 |8 ?/ k' g  |7 x
Muxing mode                              : zlib7 D. P5 r( y3 N6 n+ F# q
Codec ID                                 : S_HDMV/PGS
" i* N; U0 c* g: K! R! A3 FCodec ID/Info                            : Picture based subtitle format used on BDs/HD-DVDs; b9 \4 d* `. D; Y
Duration                                 : 1 h 30 min: o5 d7 a* y; h. A& ^6 q
Bit rate                                 : 21.8 kb/s. o# r+ }( z; ]: J! c9 h; o2 f) X
Count of elements                        : 1826
9 S5 R7 O; Q( JStream size                              : 14.0 MiB (0%)/ T& i# ^# z2 ~, t
Title                                    : English-PGS
# y6 V; S# j" z9 I5 Y6 mLanguage                                 : English
5 F6 g/ J/ W, UDefault                                  : No
/ |' e( w  ]/ ~2 F. n8 `3 K% DForced                                   : No
% _4 p+ x9 z4 e2 |4 f. sOriginal source medium                   : Blu-ray
) ?$ ]& E2 o! v; x; B; m/ O
9 ?5 A6 z; h4 k% D6 [1 ]- q3 TText #3( e5 m+ J7 r/ f
ID                                       : 96 }- l: b0 e: p$ n9 M" H0 K
ID in the original source medium         : 4608 (0x1200)7 A* g9 r4 `( l6 z% ~
Format                                   : PGS
7 C% \/ X( j# K3 b2 P: FMuxing mode                              : zlib% R/ L; Z1 @+ b2 _
Codec ID                                 : S_HDMV/PGS' w; e. Q/ L. Z! A% m; J
Codec ID/Info                            : Picture based subtitle format used on BDs/HD-DVDs- ^8 p( _8 g2 J2 i& G
Duration                                 : 1 h 28 min
& P9 G% m: q' s) l, T; EBit rate                                 : 20.8 kb/s' g5 W: `6 N2 Y+ u% s. m
Count of elements                        : 1452) v* W1 l  k( e4 e+ @8 z
Stream size                              : 13.1 MiB (0%)
' {( i5 P9 [% [) ^: m7 MTitle                                    : German-PGS, C8 b5 m) ^, M( ~- p
Language                                 : German
$ N! ]- x# i4 Z/ b* hDefault                                  : No
  O7 f, R/ e+ B8 A# mForced                                   : No
- h7 M9 @  J' c' ~Original source medium                   : Blu-ray
" l- m- t) c; w8 E" X# \2 g+ M, Y
4 w( q1 y; j' ?Text #4( B# q0 H$ Z9 q: D- _8 C* s4 L+ _8 \" J
ID                                       : 10
( g6 S9 D' n+ y( p- K2 }# X" t  \+ YID in the original source medium         : 4610 (0x1202)
. C' X+ G0 z6 Z- T( V2 \Format                                   : PGS1 B8 H3 L0 C" }5 w4 [3 w
Muxing mode                              : zlib
6 G: a3 B7 g7 o( kCodec ID                                 : S_HDMV/PGS
6 |4 l$ U% @) d- g' m) }Codec ID/Info                            : Picture based subtitle format used on BDs/HD-DVDs
/ G8 Z. n, E* [' s  P+ F5 _Duration                                 : 1 h 30 min! e. {  d. F3 m( O7 y& J
Bit rate                                 : 18.1 kb/s: l) b) A* o" S: k' t
Count of elements                        : 1400
; v, C+ O5 J+ K( |0 D) TStream size                              : 11.7 MiB (0%)% f) N3 {0 F* _+ S
Title                                    : French-PGS
/ Z  }8 n% Q8 k4 i; J/ OLanguage                                 : French
/ J3 t7 y9 x3 mDefault                                  : No: t7 \: y3 Y6 _; Z  ]+ O, V
Forced                                   : No
6 F; p- t! r' N; lOriginal source medium                   : Blu-ray
% m. r6 I( A& p: H1 @8 f1 P' s$ e6 ?4 C' T; ~  }1 \! J
Text #50 J6 n: }" N3 T  j4 \, T
ID                                       : 11
" G: `" J3 N9 J6 u6 p6 }ID in the original source medium         : 4611 (0x1203)# l# D! ?/ c, X4 q
Format                                   : PGS
9 X$ F3 {; Z$ u6 ?3 m; cMuxing mode                              : zlib
0 Y! F8 ?8 X: u8 y$ G; k4 w' z; A2 |Codec ID                                 : S_HDMV/PGS
0 \9 C& e/ {; ]2 E% q7 A. D1 tCodec ID/Info                            : Picture based subtitle format used on BDs/HD-DVDs
" _+ p8 W; q- R0 R8 D' `% Q# R5 ]Duration                                 : 1 h 28 min
, v1 u  {% u& w3 c- m; VBit rate                                 : 19.5 kb/s
) f& @: l' {" U& Q% Y4 kCount of elements                        : 14447 Z! U- ^8 I) s3 \
Stream size                              : 12.4 MiB (0%)
' G% \9 g3 `- A9 ?# \Title                                    : Italian-PGS
/ e  b7 \  o; ALanguage                                 : Italian4 D+ @' R+ i' m& p
Default                                  : No
4 Z" G4 j. w9 I4 A# j, l: G; gForced                                   : No
+ p0 G3 p+ J3 |  y' z; _Original source medium                   : Blu-ray: z. r" L7 [9 j9 X
9 m) k+ H/ o4 r- Z' h7 ^/ [
Menu
% d/ @2 `. r. F% g00:00:00.000                             : en:Chapter 01
8 A; C. U6 J3 F( J1 |00:04:17.757                             : en:Chapter 02. D& r: M* r( l# P9 `% I/ w5 ]
00:10:55.488                             : en:Chapter 03# o9 n' D( L2 ^8 B. x$ M
00:18:20.141                             : en:Chapter 044 s' @; y8 e: T6 w# x) Y
00:21:39.799                             : en:Chapter 05/ v& f& J! N) i; M) w# ]' \
00:38:10.165                             : en:Chapter 06
* w# |( x5 n1 T; k& x6 D00:52:22.058                             : en:Chapter 07  P9 _; e4 d3 x* b& _3 z7 l
01:19:14.462                             : en:Chapter 08

3 G' d- S4 x5 L2 ]* X8 }
游客,查看本帖隐藏内容请回复 | 加入VIP贵宾组可免积分免回复下载 了解详情 | 还不是会员:点击获取邀请码 Invitation Code

64

主题

1486

帖子

5413

积分

Sponsor

金币
292 枚
体力
2056 点
lanpanshuma 发表于 2020-9-21 11:46:00 | 显示全部楼层
啥也不说了,楼主就是给力!: E) I, u& i/ _3 B/ c6 M
Blu-ray Film Forum is now my home!
( V, V5 e: l5 D! p' T
该会员没有 ...

0

主题

186

帖子

993

积分

Sponsor

金币
152 枚
体力
482 点
2475017 发表于 2020-10-1 18:46:26 | 显示全部楼层
Bluraycd又有新电影发布了,激动中……!
5 _2 q" W4 ^$ I# Y, z, R! V+ a
该会员没有 ...

本版积分规则

小黑屋|Archiver|蓝光电影资源网

GMT+8, 2020-10-23 05:24

快速回复 返回顶部 返回列表