BluRayCD Forum

 找回密码
 立即注册【分享大片】

QQ登录

只需一步,快速开始

查看: 8|回复: 0
收起左侧

[科幻恐怖] 净化 The Cleansing 2019 1080p BluRaycd x264 DTS-FGT 8.37GB & 4.59GB

[复制链接]

3897

主题

4271

帖子

3万

积分

Post Share

金币
7316 枚
体力
6584 点

卓越贡献勋章

mvods 发表于 2020-9-9 22:19:55 | 显示全部楼层 |阅读模式
7 Y' i! a1 }2 E' d5 S& }
* F4 ~6 ^* C3 p* u
◎译  名 净化
" p& l! B5 X6 O+ G  b3 N& j◎片  名 The Cleansing
2 f! c2 H+ |2 s, t! M2 N◎年  代 2019
2 u1 t$ a2 N6 L* w, T% e& |8 W◎产  地 英国
4 l- }; {) c5 L4 G  T- G◎类  别 剧情/惊悚/恐怖
6 W4 G% G9 d% C5 t3 |; {◎语  言 英语
6 _/ v3 @' v. v+ ]◎IMDb评分  4.1/10 from 200 users
  i, M6 U7 N: D◎IMDb链接  https://www.imdb.com/title/tt6956798/5 n; c7 G& g" K5 V9 }
◎豆瓣评分 0/10 from 0 users
/ K9 `4 U/ L0 t$ {, o% }' i◎豆瓣链接 https://movie.douban.com/subject/33409522/0 T( ~  N1 \% }) P+ ~- Z
◎片  长 1 h 37 min9 h# Q9 H# t' h: m' h1 Z- I# R
◎导  演 安东尼·史密斯 Antony Smith
9 ^: j; N8 @1 Q: e4 V0 R◎编  剧 David Shillitoe. O/ B7 J% N' B' R1 ]
◎主  演 Luke Bailey
' D: Z' E+ u# w9 J/ I9 T9 [       西蒙·彭格利 Simon Pengelly1 x# ~# f8 P4 ?" V# E
       瑞斯·梅雷迪思 Rhys Meredith
: ^3 f, ?6 ~3 R  ?8 D$ N/ M2 x       肖恩·卡尔森 Sean Carlsen" r  w) x# {% K& V: |
       克里斯托弗·沃勒斯 Christopher Vowles* k* P! m, R$ |3 c2 T9 x
       理查德·通利 Richard Tunley
/ s) N3 g- r1 q2 q
/ @' a! P6 T/ T4 n1 E0 a◎标  签 惊悚 | 恐怖 | 剧情 | 英国电影 | 烂片 | 奇幻% J$ e# b/ V9 w6 ?* U, I8 g

; v5 g9 @. j" S& {4 o0 [◎简  介  
) x1 L1 ?. G/ Y( U, T) Y9 [' G
! ~+ j3 k$ S9 `' A  故事发生在14世纪威尔士的一个与世隔绝的小村庄,爱丽丝是一个16岁的女孩,她被指控是一个巫婆,并引发了肆虐村庄的瘟疫,夺走了许多人的生命,包括爱丽丝的父亲。当爱丽丝被揭露一直在隐瞒她母亲的感染时,她被迫看着清洁工,一个不祥的蒙面人物,残忍地送走了她的母亲。镇上的传教士和事实上的领袖汤姆看中了爱丽丝,在爱丽丝拒绝了他的追求后,他对她进行了五次痛苦的审判。在她母亲的朋友玛丽的帮助下,她在行刑前一晚逃离,逃进了森林,发现了一位神秘治疗师的隐蔽小屋,他有自己麻烦的过去和要面对的恶魔。他照顾她恢复健康,并教她如何报复那些迫害她的人。
, B8 V5 D$ D) G% I9 t# F: J0 ?: ?4 l. X" K
  Set in a small isolated village in 14th century Wales, Alice is a sixteen year old girl who is accused of being a witch and causing the plague that has ravaged the village, taking the lives of many, including Alice's own father. When it is revealed that Alice has been hiding her mother's infection, she is forced to watch The Cleanser, an ominous masked figure, brutally dispatch her mother. The town preacher and de-facto leader Tom has eyes for Alice, and subjects her to five torturous trials after she spurns his advances. Escaping the night before her execution, with the help of her mother's friend Mary, she flees into the forest and discovers the secluded hut of a mysterious healer, with his own troubled past and demons to face. He nurses her back to health, and teaches her how to exact revenge upon those that persecuted her." q3 k- J2 ~. @2 ?( P
Video
' x) o, G: c( Z3 G; E" [. ^$ pID                                       : 15 [3 H0 j# h) }0 G6 B% P( B
Format                                   : AVC$ Q  D3 A) E& ?0 b
Format/Info                              : Advanced Video Codec3 Q& ?6 Y) m; ?; @
Format profile                           : High@L4.1
3 |. Y* G4 }& L* S" qFormat settings                          : CABAC / 4 Ref Frames* D; r/ j1 X+ [$ L5 k% \( h
Format settings, CABAC                   : Yes
6 ?! a0 i% _3 GFormat settings, Reference frames        : 4 frames- [( Q5 i, w( I+ D8 `
Codec ID                                 : V_MPEG4/ISO/AVC( [$ V9 {9 C% i2 Y
Duration                                 : 1 h 37 min
/ j! k" _  g5 cBit rate                                 : 11.5 Mb/s
  m3 o! _; [+ @! p! ]1 s# KWidth                                    : 1 920 pixels# I' v) @% j- q. P: @
Height                                   : 808 pixels3 U5 U. N* [0 ?
Display aspect ratio                     : 2.40:18 @0 g) W* {6 a' d; @8 S" ?0 N$ B
Frame rate mode                          : Constant
( p, n, Y4 ~* P7 |4 J$ e+ Y6 vFrame rate                               : 23.976 (24000/1001/37687) FPS( a+ ^8 |/ y  Q  [0 N
Color space                              : YUV7 ?, f2 s% k! H5 U& b: A! ^
Chroma subsampling                       : 4:2:0
! V& i5 O2 D8 VBit depth                                : 8 bits! t& [$ F+ M3 _0 y4 M! q# ]
Scan type                                : Progressive4 q2 n7 X- K6 m9 F. }4 t! |
Bits/(Pixel*Frame)                       : 0.309* [1 z* I# H& g* F; n; ]
Stream size                              : 7.84 GiB (94%)! }( m* b& O( l  u2 n" e" h/ W2 ~# ~/ M
Title                                    : The.Cleansing.2019.1080p.BluRayCD.x264.DTS-FGT
4 R8 r* f" \8 ]Writing library                          : x264 core 148 r2795M aaa9aa81 M3 |9 I  A6 |7 y, W$ T5 O1 y
Encoding settings                        : cabac=1 / ref=4 / deblock=1:-2:-2 / analyse=0x3:0x113 / me=umh / subme=9 / psy=1 / psy_rd=1.00:0.15 / mixed_ref=1 / me_range=16 / chroma_me=1 / trellis=2 / 8x8dct=1 / cqm=0 / deadzone=21,11 / fast_pskip=1 / chroma_qp_offset=-3 / threads=24 / lookahead_threads=3 / sliced_threads=0 / nr=0 / decimate=1 / interlaced=0 / bluray_compat=0 / constrained_intra=0 / bframes=3 / b_pyramid=2 / b_adapt=1 / b_bias=0 / direct=3 / weightb=1 / open_gop=0 / weightp=2 / keyint=250 / keyint_min=25 / scenecut=40 / intra_refresh=0 / rc_lookahead=50 / rc=2pass / mbtree=1 / bitrate=11500 / ratetol=1.0 / qcomp=0.60 / qpmin=0 / qpmax=69 / qpstep=4 / cplxblur=20.0 / qblur=0.5 / vbv_maxrate=31250 / vbv_bufsize=31250 / nal_hrd=none / filler=0 / ip_ratio=1.40 / aq=1:1.00& S" _* t. a* R" z, }' ~
Language                                 : English
5 [# {9 i' G- v* [Default                                  : Yes
$ q3 W0 I  A! h. EForced                                   : No
) u0 k. W% G) I: \+ S6 J
0 l2 D' F/ p2 @# Q* U( u: ^; V4 dAudio
1 _" J$ e1 O- N: v. rID                                       : 2& m" o/ @0 M  W7 p4 Y: z: R1 p. X
Format                                   : DTS
' u7 k: S# n+ c) ^Format/Info                              : Digital Theater Systems
7 o4 a6 q1 T0 F% w& r9 o  d0 g7 \Codec ID                                 : A_DTS
, x7 u% V) C( M: k% d3 BDuration                                 : 1 h 37 min0 I/ s3 o8 A8 B4 C* [
Bit rate mode                            : Constant2 Y% C. I3 E" ?7 X4 X. t
Bit rate                                 : 768 kb/s
5 ]1 q/ @  o& t/ z2 P; q2 Y* P' D$ }% KChannel(s)                               : 6 channels
# U3 C. @% t: d  b4 kChannel layout                           : C L R Ls Rs LFE
6 F; t- ^* b* \! BSampling rate                            : 48.0 kHz
8 r% e! `2 C) B# w+ ]; ]) ]$ FFrame rate                               : 93.750 FPS (512 SPF)7 {# x! W" d  B$ `& K  I
Bit depth                                : 16 bits1 a( G8 L6 ?" }
Compression mode                         : Lossy3 r+ ~- L0 ]" t7 o: H# v* Z* T7 V
Stream size                              : 537 MiB (6%)) w. h$ C+ N# [/ \# k; G
Title                                    : The.Cleansing.2019.1080p.BluRaycd.x264.DTS-FGT2 u3 S+ M" W3 P! o; p
Language                                 : English
1 B6 n( f9 W( f! vDefault                                  : Yes
+ y+ H7 @" N: hForced                                   : No
/ ?8 T5 K- ~( ~4 p5 C. C  s
" t  N' R( g6 o: W0 y: [0 I( w0 yText
7 s$ w& c2 Q. u% ]3 W$ q# J9 YID                                       : 3
5 y; G/ Q" p8 [* ^! J7 kFormat                                   : UTF-8
4 S9 q) m  d/ I) \. d. ?9 v' ^/ hCodec ID                                 : S_TEXT/UTF8  b+ p- D; u! N$ B0 v" X$ L0 C( j
Codec ID/Info                            : UTF-8 Plain Text
( U9 I* V4 y3 y% G5 iDuration                                 : 1 h 34 min  H( v2 N0 u6 Z& m* R; a2 u
Bit rate                                 : 32 b/s
* G, c0 D5 @, z+ n3 ^6 m9 W% ^. _Count of elements                        : 806  n) K5 `" o7 S/ F0 Y+ q
Stream size                              : 22.5 KiB (0%)
2 J$ V; l& ]1 w4 d+ i* ?Language                                 : English
& P/ R1 u& v: a" z. o4 pDefault                                  : Yes
+ ]' c: X# E" U* O$ W" eForced                                   : No" K+ F0 p! X; S6 z7 Y9 |5 D+ |

/ t* |/ J# V! ~/ @8 @& H7 ^Menu$ h$ }' O/ n  \# Q; r" }+ R
00:00:00.000                             : en:Chapter 01, U9 h) X6 [4 Z, k: p% f
00:05:42.467                             : en:Chapter 02
# v( m( x9 G+ H1 `00:12:10.896                             : en:Chapter 03; X! y5 i0 }5 x9 D' G% R
00:20:09.333                             : en:Chapter 045 o+ k1 o$ F2 w$ o
00:29:23.178                             : en:Chapter 05
5 `5 V  V, V2 c6 x" d- e& P00:36:18.009                             : en:Chapter 06$ H' m; t2 j! F. v: f
00:49:31.843                             : en:Chapter 07
  f: V5 l0 y3 Y" Y) a$ q1 l% Z01:04:00.211                             : en:Chapter 08
4 ]( m" h4 \* A01:12:49.907                             : en:Chapter 09& d' y/ s7 O0 i$ ]; C
01:23:40.473                             : en:Chapter 10
& w) `4 i0 y- w$ P- n01:32:02.099                             : en:Chapter 11" u- E3 R+ m& E* M0 Q. K
01:35:51.454                             : en:Chapter 12
Video
) O# u( r. e1 G9 vID                                       : 1
0 k* Y% S1 _# m0 XFormat                                   : AVC
  V0 ?  O8 r" X) SFormat/Info                              : Advanced Video Codec2 R% E5 ^3 D0 d( e4 _/ @7 y' i" `
Format profile                           : High@L4.1
1 L2 X" O5 c! GFormat settings                          : CABAC / 5 Ref Frames5 I+ Z- x, {6 p$ ^
Format settings, CABAC                   : Yes
( _  L! G. @4 T. p* K( fFormat settings, Reference frames        : 5 frames; L) P6 [9 ~! f! P: Q# c' m9 K
Codec ID                                 : V_MPEG4/ISO/AVC  q) ~- B$ O; F
Duration                                 : 1 h 37 min% h  v* N" P0 V  d4 l
Bit rate                                 : 5 951 kb/s
( Q+ n4 R7 Y2 _6 _Width                                    : 1 920 pixels
* r. U$ Z7 }9 i+ UHeight                                   : 808 pixels& B2 B; l# Z* q$ V# @
Display aspect ratio                     : 2.40:1
2 D: a+ Y/ t! N" q6 r2 a! ~  t' jFrame rate mode                          : Constant6 i0 L- i2 _1 o/ `9 r
Frame rate                               : 23.976 (24000/1001/37687) FPS
- U" x. [/ s- B; B, L" W9 x6 OColor space                              : YUV' |# P- f9 g+ ?  J6 |, V9 Y
Chroma subsampling                       : 4:2:0
5 q' d! j2 o7 k' h7 u7 }: m; d  M3 zBit depth                                : 8 bits, G+ V/ A# _! N
Scan type                                : Progressive& T  n( E0 c- m- @2 c& s
Bits/(Pixel*Frame)                       : 0.160* \! _0 [  s. t
Stream size                              : 4.06 GiB (88%)
  V" @9 k/ a) R4 r1 tWriting library                          : x264 core 160 r3000 33f9e14
9 F. u9 ?- D: |- j) y+ M; bEncoding settings                        : cabac=1 / ref=5 / deblock=1:-3:-3 / analyse=0x3:0x133 / me=umh / subme=9 / psy=1 / psy_rd=1.00:0.00 / mixed_ref=1 / me_range=16 / chroma_me=1 / trellis=2 / 8x8dct=1 / cqm=0 / deadzone=21,11 / fast_pskip=1 / chroma_qp_offset=-2 / threads=18 / lookahead_threads=1 / sliced_threads=0 / nr=0 / decimate=1 / interlaced=0 / bluray_compat=0 / constrained_intra=0 / bframes=3 / b_pyramid=2 / b_adapt=2 / b_bias=0 / direct=3 / weightb=1 / open_gop=0 / weightp=2 / keyint=250 / keyint_min=23 / scenecut=40 / intra_refresh=0 / rc_lookahead=60 / rc=crf / mbtree=1 / crf=17.0 / qcomp=0.60 / qpmin=0 / qpmax=69 / qpstep=4 / ip_ratio=1.40 / aq=3:0.80
: B5 ^9 h1 x$ m& `2 LLanguage                                 : English
2 U2 l  I( U' Z1 a) q+ Z, o/ A& {9 lDefault                                  : Yes7 O8 Q  N1 E4 [
Forced                                   : No
& [+ q: }  z+ s* F2 LColor range                              : Limited
  \7 V+ Z# K  n: O  \! TMatrix coefficients                      : BT.709' h, \! ^+ ^$ d( v" g. Q  Y
Audio7 ^: l8 \( f3 C- g7 `
ID                                       : 26 ]/ B& W  ~% G9 y) ]% ~
Format                                   : DTS
6 C0 I- p+ [$ k, j/ }! [8 @Format/Info                              : Digital Theater Systems% q) \  }1 K1 i% E
Codec ID                                 : A_DTS
) _1 @6 v  s, u1 o% P. h7 [% gDuration                                 : 1 h 37 min
* n* A. V& O- {Bit rate mode                            : Constant; E3 t2 l0 |, M& R8 I+ W  f
Bit rate                                 : 768 kb/s
, b1 j3 ~4 F) K& LChannel(s)                               : 6 channels
0 V$ x' C5 {4 x( @5 nChannel layout                           : C L R Ls Rs LFE; S' \, Q. B; M8 R* n
Sampling rate                            : 48.0 kHz
- w8 n0 X" k7 k# @0 \Frame rate                               : 93.750 FPS (512 SPF). g& E: B( h* ^: y! J% k7 V5 {& e
Bit depth                                : 24 bits4 V. f+ R* ^4 e! h2 a4 k, N
Compression mode                         : Lossy+ C0 f. x' b: h% n
Stream size                              : 537 MiB (11%)  H6 ?+ E4 D7 v* K6 J) Z
Title                                    : DTS# s0 \/ y! R% f+ |  R
Language                                 : English7 W/ v+ J. L+ c) K' Z% s
Default                                  : Yes. Q+ B5 Y* F* Y8 f7 s
Forced                                   : No
5 \, A* U! ~2 x" n3 ^) i8 QText
. Y2 T: C/ P6 VID                                       : 3, p) n3 Z+ }4 C
Format                                   : PGS; p3 O/ \% H- S7 @
Muxing mode                              : zlib
( S' p" D# `- |( `Codec ID                                 : S_HDMV/PGS2 U9 D+ g3 j9 e9 ]
Codec ID/Info                            : Picture based subtitle format used on BDs/HD-DVDs% V8 t* y7 K. o$ K- n
Duration                                 : 1 h 32 min
; m. m  c1 F5 ^! e$ x6 QBit rate                                 : 5 252 b/s
3 u% C' J( z4 K* t; i" uCount of elements                        : 1122# J% \( i& h1 y, _& R0 \  b4 Z
Stream size                              : 3.46 MiB (0%)/ ]8 P4 f/ [' m4 S/ f9 k# u+ n
Language                                 : German/ O; u6 D/ I. Y
Default                                  : No2 M( [2 z3 @9 p# R3 g
Forced                                   : No
3 D- k- P( E: C( a0 \Menu
8 D6 h+ G) R. Z) F00:00:00.000                             : en:00:00:00.000
; g2 O" y$ j. Z- F$ b5 L9 o00:05:42.676                             : en:00:05:42.6767 u! b4 M! I: C3 }0 {) a* E
00:12:10.772                             : en:00:12:10.772
) \. Y9 ^, b5 x, N/ c8 W5 ?00:20:09.583                             : en:00:20:09.583/ o( F, M* U! L& r
00:29:22.844                             : en:00:29:22.8445 ?- w/ j5 O2 ?* t& U4 Q
00:36:17.675                             : en:00:36:17.675
& B& m  ^5 `7 g# u5 i00:49:32.052                             : en:00:49:32.0527 r2 b2 ?0 {& r- G1 t+ L
01:04:00.378                             : en:01:04:00.378, Y: r1 y) q& M& I" }6 O3 K; n
01:12:49.490                             : en:01:12:49.490
$ Z' t) ?6 |- p& G% e6 Z01:23:40.641                             : en:01:23:40.641! W$ e6 Q0 ~; U% k8 ?
01:32:02.434                             : en:01:32:02.434' a. u, y; ]! t8 h; L3 u+ [
01:35:51.746                             : en:01:35:51.746
4 d; }, m9 _! Y5 G$ `+ f5 \" u' ~+ O5 B& }& B
The.Cleansing.2019.1080p.BluRaycd.x264-GETiT
: i+ q# K7 Y# v4 d3 h( n! g$ F& F
& P  n9 D! C& T! C" d3 NRelease Type .......: x264 CRF17
: ]1 q( z0 h4 t% U! k# mVideo Bitrate ......: 1920 x 808  @ 5951 kbps
( q3 G: z9 @0 l3 \Source Bitrate .....: 20.4 MB/s( p4 K7 b, `, ^' n+ i: R. Q7 O" c
Audio Bitrate ......: English DTS 5.1 @ 768 kbps" S( Z$ w# o- p$ I$ _9 ?
Subtitles .........:  German
& G( ^$ w; ?, ?6 A$ q( m
7 w1 h5 m0 S; i8 _0 _Release Date .......: 07.06.2020' Q: i" B  b* w# l
Size ...............: 4703 MB2 O% d2 \9 ~2 y( d7 E
Notes ..............: Not Yet!
) \+ E) J1 s( K- i! X4 w: F1 o) ?
https://www.imdb.com/title/tt6956798/: K( v3 Y, C  j- S- t& W
9 K% u9 i; F" q
UNiVERSUM (Big Thanks!) - iTWASNTME( W. |' d1 Q5 E. g3 m, c, C

8 O- V9 u- }- P0 K2 d6 W( c/ n... and not to forgot our nice NFO GUY!0 ~3 `, @; a# j

* V% r' M1 A% y3 f# DTHANKS!
9 J# e  s5 }6 y- l! Y1 [
游客,查看本帖隐藏内容请回复 | 加入VIP贵宾组可免积分免回复下载 了解详情 | 还不是会员:点击获取邀请码 Invitation Code

本版积分规则

小黑屋|Archiver|蓝光电影资源网

GMT+8, 2020-10-29 12:43

快速回复 返回顶部 返回列表