BluRayCD Forum

 找回密码
 立即注册【分享大片】

QQ登录

只需一步,快速开始

查看: 58|回复: 2
收起左侧

[蓝光原盘] 净化 [REMUX无损版] The Cleansing 2019 1080p BluRaycd REMUX AVC DTS-HD MA 5.1-FGT 15.28GB

[复制链接]

7777

主题

7971

帖子

6万

积分

Forum Moderator

金币
10555 枚
体力
9607 点

卓越贡献勋章

24小时 发表于 2020-9-30 18:03:16 | 显示全部楼层 |阅读模式
01.jpg . a% [3 b- {* p0 h: M1 y+ f3 O. s- O/ y
  _9 @0 Y; p8 _& l) `5 S
◎译  名 净化
5 S0 @, U+ e) p( Q. u0 m, I◎片  名 The Cleansing+ G# o$ U5 i" [* L9 h& {. r, w; s/ t
◎年  代 2019
+ S3 N+ W7 H3 n3 t+ Y◎产  地 英国2 J& h6 S( Z3 s; O; _
◎类  别 剧情/惊悚/恐怖
# S6 E" L( F8 d; b8 M# `1 p◎语  言 英语
# `0 e3 m6 I8 u4 V( L◎IMDb评分  4.1/10 from 207 users
# A* S5 K3 e3 M3 V◎IMDb链接  https://www.imdb.com/title/tt6956798/
- x9 L# J- T( l4 Q! e8 z◎豆瓣评分 0/10 from 0 users; u  G6 X5 j+ Y# ^! Y5 a
◎豆瓣链接 https://movie.douban.com/subject/33409522/0 H* B" @1 B; j- g$ x& X$ d8 t
◎文件格式 x264 + DTS
  B" `* {9 y2 ~6 T3 J( w6 f◎视频尺寸 1920 x 1080
: i% J- N1 F5 _6 y4 G7 m◎文件大小 1DVD 15.28 GiB
: v/ s+ u/ I- V& w" m◎片  长 1 h 37 min
! O( q9 @% T" P: p◎导  演 安东尼·史密斯 Antony Smith
  P, b7 x# ^& G: `* R◎编  剧 David Shillitoe) e; R+ n( U& q+ H8 _2 Y
◎主  演 Luke Bailey
6 F) {+ W& `3 }6 i* s6 ?9 }$ S       西蒙·彭格利 Simon Pengelly
4 g9 f# r2 @0 Y) @& z9 d1 V( q       瑞斯·梅雷迪思 Rhys Meredith5 g; q8 W( v0 P! n0 I% v/ N( t0 E& h5 l
       肖恩·卡尔森 Sean Carlsen
8 V& V5 c: G  f& w, t: i       克里斯托弗·沃勒斯 Christopher Vowles
' K) ?! I8 o7 A. m7 v       理查德·通利 Richard Tunley0 v) |2 T" d7 D& D
. J( ~( L. a% V1 K% ]9 H( Y) h
◎标  签 惊悚 | 恐怖 | 剧情 | 英国电影 | 烂片 | 奇幻! p+ d2 u9 s& o% e
1 @8 r5 H" H  {, Y% n* N6 h+ d
◎简  介  
- ^5 t) u% [! S" Y  b9 k7 t
$ u" _! N( G9 }/ G/ Q/ P$ q8 x  故事发生在14世纪威尔士的一个与世隔绝的小村庄,爱丽丝是一个16岁的女孩,她被指控是一个巫婆,并引发了肆虐村庄的瘟疫,夺走了许多人的生命,包括爱丽丝的父亲。当爱丽丝被揭露一直在隐瞒她母亲的感染时,她被迫看着清洁工,一个不祥的蒙面人物,残忍地送走了她的母亲。镇上的传教士和事实上的领袖汤姆看中了爱丽丝,在爱丽丝拒绝了他的追求后,他对她进行了五次痛苦的审判。在她母亲的朋友玛丽的帮助下,她在行刑前一晚逃离,逃进了森林,发现了一位神秘治疗师的隐蔽小屋,他有自己麻烦的过去和要面对的恶魔。他照顾她恢复健康,并教她如何报复那些迫害她的人。9 L7 v0 B% A( C8 h

/ R( Q: U2 e8 M0 N6 o  Set in a small isolated village in 14th century Wales, Alice is a sixteen year old girl who is accused of being a witch and causing the plague that has ravaged the village, taking the lives of many, including Alice's own father. When it is revealed that Alice has been hiding her mother's infection, she is forced to watch The Cleanser, an ominous masked figure, brutally dispatch her mother. The town preacher and de-facto leader Tom has eyes for Alice, and subjects her to five torturous trials after she spurns his advances. Escaping the night before her execution, with the help of her mother's friend Mary, she flees into the forest and discovers the secluded hut of a mysterious healer, with his own troubled past and demons to face. He nurses her back to health, and teaches her how to exact revenge upon those that persecuted her.
1 B' G2 l1 [' C- n5 g
Video
0 b3 J: s1 A  I' T4 B- n" ~ID                                       : 1( i1 O8 [- H8 Q' ?. z
ID in the original source medium         : 4113 (0x1011)1 U8 y( G' x. i, F3 R# _8 B
Format                                   : AVC
' x3 G$ }* T) ]" gFormat/Info                              : Advanced Video Codec# C3 a9 R3 }/ W- q) Z- p+ m/ ~3 r
Format profile                           : High@L4.1; @# d; F9 G& l
Format settings                          : CABAC / 2 Ref Frames
3 W: k% N+ U0 F* ^; X" @Format settings, CABAC                   : Yes
9 Y8 ~! ]5 a- F$ ?Format settings, Reference frames        : 2 frames
  w3 S5 }$ f$ nCodec ID                                 : V_MPEG4/ISO/AVC+ L2 p' t; p3 k9 @/ @
Duration                                 : 1 h 37 min
5 ^5 o3 [7 H8 kBit rate mode                            : Variable
, z5 z: `& m, e, NBit rate                                 : 20.8 Mb/s8 ~$ s7 E! J4 N3 B# w
Maximum bit rate                         : 30.2 Mb/s
5 ]& g2 B$ |/ qWidth                                    : 1 920 pixels/ A. f- G- Q3 N, o6 P0 Y, ]
Height                                   : 1 080 pixels7 u3 Q6 i9 n$ B( \6 |
Display aspect ratio                     : 16:9  L: N! w4 x7 s( o. {+ G1 }. r) J% T
Frame rate mode                          : Constant
9 O' x7 K6 t) i( [5 R9 wFrame rate                               : 23.976 (24000/1001/37687) FPS
# c9 J5 \. x5 y5 XColor space                              : YUV
9 m/ T) [' a& a! p3 W! `3 WChroma subsampling                       : 4:2:0) [# Q4 T9 Z5 e. M1 O
Bit depth                                : 8 bits) e: g7 E3 z1 k
Scan type                                : Progressive- \5 V1 A1 D7 B
Bits/(Pixel*Frame)                       : 0.419- U1 @1 E7 ]# {4 b* l0 D+ V
Stream size                              : 14.2 GiB (93%)
3 n" H  f$ _' w. S, E4 H  \3 dTitle                                    : The.Cleansing.2019.1080p.BluRayCD.REMUX.AVC.DTS-HD.MA.5.1-FGT  D+ C+ b4 Y+ G& X5 Z/ n, b
Language                                 : English
+ o  _) U5 `" n! bDefault                                  : No
$ ]0 x( c# y8 J! y8 ^3 TForced                                   : No
% t% K$ f0 ]; tOriginal source medium                   : Blu-ray! o# j' l, @  t! _0 J
6 d  K; A4 O& F6 C' g# Y. I7 U1 Z$ f
Audio
: _6 W! P5 f$ ?& ^% BID                                       : 2/ N, x% Z) [* h
ID in the original source medium         : 4353 (0x1101)9 Z* D* @- [. M0 D" I3 E6 p$ f
Format                                   : DTS XLL8 ?7 }: q; U9 ?" {* R
Format/Info                              : Digital Theater Systems- r8 f9 O* ~& E0 |$ \- x! b" d
Commercial name                          : DTS-HD Master Audio9 w- x4 u0 s6 m6 R9 m
Codec ID                                 : A_DTS
2 |- |" ?; R7 `$ {1 T( `2 ^Duration                                 : 1 h 37 min
6 b6 M0 i. g# p' }Bit rate mode                            : Variable& Q+ X; d7 P0 V3 ^& n
Bit rate                                 : 1 529 kb/s
5 Q3 a( S; D3 F* y; h+ o' GChannel(s)                               : 6 channels( f/ z, p  s' V) M1 M( o2 m! q
Channel layout                           : C L R Ls Rs LFE
' \. U  q+ a# B5 l3 \! G+ G1 |Sampling rate                            : 48.0 kHz
% s" B% D1 C+ ~4 vFrame rate                               : 93.750 FPS (512 SPF); b: M. W5 M: `% x
Bit depth                                : 16 bits
% Y4 l4 L; v/ K5 @+ ^' LCompression mode                         : Lossless& Z0 Q4 @3 O7 d; r& b3 \
Stream size                              : 1.04 GiB (7%): w' X* z8 L- }5 u
Title                                    : The.Cleansing.2019.1080p.BluRaycd.REMUX.AVC.DTS-HD.MA.5.1-FGT
( f5 ]4 V: L" g& Z& A7 Y1 @Language                                 : English
; H+ i, g0 w1 MDefault                                  : Yes/ o9 a( t/ L! y5 D- x, L
Forced                                   : No7 y5 c2 J/ A2 p+ T
Original source medium                   : Blu-ray
' t2 ]% N* q) O% _1 d! Q5 m1 e4 [) @9 V5 _
Text
* J. A' K, A6 W' U, |! w: [: }ID                                       : 3
* w9 _5 \. V) TFormat                                   : UTF-8
& ~/ B8 I$ _( f  rCodec ID                                 : S_TEXT/UTF8/ ~3 \6 F' S6 }
Codec ID/Info                            : UTF-8 Plain Text
" Y* k, ?- {, ?( i. }! gDuration                                 : 1 h 34 min
$ x- r3 l3 x9 d5 w8 c! j+ Z* e( BBit rate                                 : 32 b/s( g, T% o1 q) e
Count of elements                        : 806- E- {; |% I" o- V4 K
Stream size                              : 22.5 KiB (0%)1 G& m2 J- R# a# j3 x9 h
Title                                    : English-SRT
, j( d6 r8 I' w, PLanguage                                 : English
; s- W) w9 f; i& r7 a" g/ {Default                                  : Yes
. N* B! U; ]9 U4 ?Forced                                   : No
8 r- ^) J3 Z' j4 X! ]) T1 P* B; E4 g& K* m2 Z
Menu& U& g$ J* p  @9 S1 b& L" o
00:00:00.000                             : en:Chapter 01! \1 V6 B) q5 w. [# i: u3 b8 |
00:05:42.467                             : en:Chapter 022 I. n' s) h" z+ D  \
00:12:10.896                             : en:Chapter 03
( q  J$ \& {% M, W& L4 |00:20:09.333                             : en:Chapter 04& d2 e% k/ l$ H  }3 l, C) }
00:29:23.178                             : en:Chapter 057 ?& Q3 K0 [& S! f, }# s8 S/ \( |
00:36:18.009                             : en:Chapter 065 m. }. n2 W  h8 D4 I% ^
00:49:31.843                             : en:Chapter 07; N( }- [8 L' Q. r
01:04:00.211                             : en:Chapter 08% A- Q+ A' ^! S' M8 C+ z) \& V* |& J
01:12:49.907                             : en:Chapter 09! g2 x, ^8 I( j1 w
01:23:40.473                             : en:Chapter 102 W+ d  U0 E9 h8 L1 |
01:32:02.099                             : en:Chapter 11  i3 K# ?; I3 v3 W) M% q
01:35:51.454                             : en:Chapter 12

" f* |8 m* n! D
游客,查看本帖隐藏内容请回复 | 加入VIP贵宾组可免积分免回复下载 了解详情 | 还不是会员:点击获取邀请码 Invitation Code

64

主题

1486

帖子

5413

积分

Sponsor

金币
292 枚
体力
2056 点
lanpanshuma 发表于 2020-10-1 12:23:57 | 显示全部楼层
楼主发贴辛苦了,I*老*虎*U!5 v3 T5 r! F' H$ B( l3 j4 M
In fact, I have always felt that the landlord of good taste! Ha ha!5 u0 G) N2 M" L: z/ b* ^
该会员没有 ...

19

主题

1314

帖子

7046

积分

Sponsor

金币
937 枚
体力
3500 点
QQ
shiji1973 发表于 2020-10-1 23:47:09 | 显示全部楼层
感谢分享精彩电影

本版积分规则

小黑屋|Archiver|蓝光电影资源网

GMT+8, 2020-10-23 04:44

快速回复 返回顶部 返回列表