BluRayCD Forum

 找回密码
 立即注册【分享大片】

QQ登录

只需一步,快速开始

查看: 18|回复: 1
收起左侧

[剧情悬疑] 三个基督 Three Christs 2017 1080p Bluraycd DTS-HD MA 5.1 X264-EVO 10.39GB & 17.52GB

[复制链接]

3897

主题

4271

帖子

3万

积分

Post Share

金币
7316 枚
体力
6584 点

卓越贡献勋章

mvods 发表于 2020-9-9 22:35:03 | 显示全部楼层 |阅读模式

1 N0 ~) e* Z. F9 q; J2 x6 {' r$ o
+ r' u6 k0 B4 h3 e* O◎译  名 三个基督
  [& u$ Z6 \% m9 n3 j◎片  名 Three Christs / The Three Christs of Ypsilanti  ~; `# A& J* d2 c# M/ s
◎年  代 2017
; h. W- m& l+ X6 a◎产  地 美国$ p- a7 ^% }- ~/ ~3 _
◎类  别 剧情
* |! q. S# J$ ]7 G" F◎语  言 英语- w# @& Y; J) R
◎上映日期 2017-09-12(多伦多电影节)/2020-01-03(美国)2 k5 X. ~# T5 l6 F, N7 E
◎IMDb评分  5.8/10 from 905 users0 M$ s* ~2 N: K0 S5 H
◎IMDb链接  https://www.imdb.com/title/tt5706370/4 F0 l( A- ?- k5 X' B
◎豆瓣评分 6.7/10 from 205 users
7 {2 H( h2 N: t8 j3 e2 G# @1 m◎豆瓣链接 https://movie.douban.com/subject/26823846/$ T* z5 S3 g3 f! D1 R1 S. k" R) s7 q
◎片  长 1 h 48 min- [5 X9 d; `! @- f0 d  Y8 P
◎导  演 乔恩·阿维奈 Jon Avnet) c* t0 O7 }; o& n. `
◎编  剧 乔恩·阿维奈 Jon Avnet
' \) b! ?; F7 J: F       Milton Rokeach : @5 f% k# ^  S8 h! k; k: m; V6 J
       Eric Nazarian6 U) i0 w* v- y: Y
◎主  演 理查·基尔 Richard Gere
" y* [" V, w' y       彼特·丁拉基 Peter Dinklage
7 }, B+ x# c; l' w# }5 x# Z       沃尔顿·戈金斯 Walton Goggins
: q4 u3 z, D* e( _' a       布莱德利·惠特福德 Bradley Whitford/ H' ?6 J8 k. J7 y- ~3 w
       夏洛特·霍普 Charlotte Hope
# X0 {, j2 r8 e  }( L& T       朱丽安娜· 玛格丽丝 Julianna Margulies
. F9 L0 d5 B7 b% O9 J" m# F       凯文·波拉克 Kevin Pollak
) ^* k! N2 W7 X% r8 v  C/ y       詹姆斯·门罗·伊格尔哈特 James Monroe Iglehart, M) l: B0 m' f& @# `# X$ d
       斯蒂芬·鲁特 Stephen Root
) s, a( c, s& U# e       简·亚历山大 Jane Alexander/ d% R+ `' F7 U) I' h8 Z
       朱丽安·阿科斯塔 Julian Acosta9 Z' w7 w  |# M' b% t
       凯瑟琳·利·斯科特 Kathryn Leigh Scott
7 [: M* v; Z5 ~6 W# K& A, L1 \' Z  {       克里斯蒂娜·谢勒 Christina Scherer
# m0 O7 t7 g  [) H3 ]1 w4 \       利普丽·索博 Ripley Sobo
* u0 U/ K" V1 J2 L' A, G       谢德·鲁佩 Shade Rupe
8 P6 R" R$ l2 F% y  f% y       Danny Deferrari
9 `% M, \  h2 ^: a       Chris Bannow
8 i; h% X8 C6 f; o
8 k8 p5 O# W5 ?◎标  签 美国 | 2017TIFF | 多伦多电影节 | 传记 | 心理 | 2018 | 2017 | 美(加)国电影
) |- o  L  f* s, z3 H6 n7 ~/ E3 r! Z" ?& c& A7 P
◎简  介  , S/ S, s: e4 T% j" }9 `( k& C

* d0 D" x$ Q& G  影片根据1959年发生在密歇根州一家精神病院的真实故事改编:精神科医生米尔顿·罗克奇(理查·基尔饰)在3名认为自己是耶稣·基督的精神分裂症患者身上实施了一项充满争议的实验。朱莉安娜将饰演医生的妻子;而3位精神病患者将分别由“小恶魔”彼得·丁克拉奇、布莱德利·惠特福德和沃尔顿·戈金斯扮演。
9 B1 ]+ ?3 P/ H/ `' @; @7 m( v( v. s* t3 l" n
  Three Christs follows Dr. Alan Stone who is treating three paranoid schizophrenic patients at the Ypsilanti State Hospital in Michigan, each of whom believed they were Jesus Christ. What transpires is both comic and deeply moving.
* f* E; H. ]5 `+ T! g  t
Three.Christs.2020.1080p.BluRayCD.DTS-HD.MA.5.1.X264-EVO3 \8 U7 m$ o5 i5 r

' i7 M% @5 O+ K3 x3 h* T7 yIMDB - https://www.imdb.com/title/tt5706370+ J8 M; R6 M/ w2 b. o+ D: O
-----------------------------------------------------------------------------------
; H  U/ ~% U3 R, \1 Z5 MGENERAL INFO8 J4 H' ?2 ^3 ~" A% d- q. \
Genre: Drama
1 w9 n, [# L5 C& \Director: Jon Avnet
) e# q/ k% V: R# B& oStars: Richard Gere, Peter Dinklage, Walton Goggins, Bradley Whitford, Charlotte Hope3 S7 E5 e9 S6 l' F2 u( l7 X
Plot: Dr. Alan Stone breaks new ground for treatment of the mentally ill through an experiment on three paranoid schizophrenic patients who believe they are Jesus Christ.
! Z1 ~+ l/ @! v8 \-----------------------------------------------------------------------------------/ q; N) O5 k+ [  p) b& G9 g; L  m$ o/ c
COVER
1 l) h2 S  J/ g$ c' U-----------------------------------------------------------------------------------; J! e) G* w! p
SCREENSHOTS  e# [9 J: x+ z$ ]" }) k5 e5 T
(Click to enlarge)
( I0 ~  J+ i: s1 {1 C" j& Q-----------------------------------------------------------------------------------
+ J- L+ p5 E" @MEDIAINFO% |: \3 ~1 m2 V! p5 _) Z' E/ `) g% X
Container = Matroska (mkv)
' Z1 X# ?' V  eDuration = 01:48:52.651
. Q7 Q* m4 s4 {. rFilesize = 10 GiB) }: a1 Z5 H" `/ o+ \5 Y
Overall bitrate = 13.7 Mb/s" Q3 @3 d, r$ J4 v% t
Video8 J6 q% t( W# H0 w
Codec info = AVC High@L4.1 | V_MPEG4/ISO/AVC& ~* M& b7 o, u: d* z
Resolution = 1920x1040
3 |; S4 Q) `3 |- S, O7 A: @6 QDisplay AR = 1.846 | 1.85:14 q6 q7 @$ l% H2 a' n" h
Bitrate =5 {8 J/ z5 }; L0 P- w" Q9 S1 g
Framerate = CFR 23.9767 w  E5 y/ ^/ m1 H4 {- R
Color space = YUV; [5 O2 y& ^" i, k, p; l$ P1 s" y" h
Chroma subsampling = 4:2:0
% m* [# P) \" x7 T, IEncoder = x264 - core 142 r2479 dd79a61# L+ o! u2 H8 M9 D# f
Audio: g9 H! y$ O/ y, E
Codec info = AC-3 | A_AC3$ U) Z7 \  h( M- v
Channels = 6
8 F- b" b3 I8 LBitrate = CBR 640 kb/s) M& @: s: [0 Y2 D8 Z) D% P; b
Samplerate = 48.0 kHz9 n, }' A& _  e; Y: ^& p
Language = English
Video9 ^6 P! p& i& M- o0 e$ B
ID                                       : 1
: m$ }1 I# U. ?Format                                   : AVC/ B' o) E; L3 \% ~6 T( j$ T" Y8 g4 o
Format/Info                              : Advanced Video Codec5 N; Z! q( ]# q+ W% x
Format profile                           : High@L4.1
; x* A- H4 B( {& c* j8 t, I9 AFormat settings                          : CABAC / 4 Ref Frames
5 A. W# P# m3 |7 i. GFormat settings, CABAC                   : Yes
1 \, W+ r! b* J1 I6 O( W8 l+ tFormat settings, Reference frames        : 4 frames
4 V6 c2 W9 J; R+ I- ZCodec ID                                 : V_MPEG4/ISO/AVC
( w9 g' N0 T; s: m! [0 sDuration                                 : 1 h 48 min
" f- l+ I) z# ^% u; H. X. _Bit rate                                 : 19.8 Mb/s
) {" Y  z+ y8 A  }Width                                    : 1 920 pixels" ]( _8 C* J" W' ]
Height                                   : 1 036 pixels
4 g  }6 [1 ~" J4 `& z+ @Display aspect ratio                     : 1.85:1
1 U6 }, ?" K$ u" |& U6 oFrame rate mode                          : Constant5 W0 |  G% J6 Y9 K: @. I
Frame rate                               : 23.976 (24000/1001/37687) FPS0 r( m6 u* D, t+ }
Color space                              : YUV+ X( ?4 o/ l' t- ]2 ]
Chroma subsampling                       : 4:2:0$ @+ I3 ]7 O1 O! Z% m0 r3 |, }2 i
Bit depth                                : 8 bits% C: n) ]  m  ^3 Z
Scan type                                : Progressive
. k; }$ U5 f8 ^/ f: vBits/(Pixel*Frame)                       : 0.415
2 b! |. o8 m% e/ H: g- l2 G, W2 }Stream size                              : 15.0 GiB (86%)
" s9 h/ B, C0 mWriting library                          : x264 core 160 r3000 33f9e140 k: Y; H% D- l: |+ D3 z3 o6 `
Encoding settings                        : cabac=1 / ref=4 / deblock=1:-3:-3 / analyse=0x3:0x133 / me=umh / subme=9 / psy=1 / psy_rd=1.00:0.00 / mixed_ref=1 / me_range=32 / chroma_me=1 / trellis=2 / 8x8dct=1 / cqm=0 / deadzone=21,11 / fast_pskip=0 / chroma_qp_offset=-2 / threads=32 / lookahead_threads=5 / sliced_threads=0 / nr=0 / decimate=0 / interlaced=0 / bluray_compat=0 / constrained_intra=0 / bframes=9 / b_pyramid=2 / b_adapt=2 / b_bias=0 / direct=3 / weightb=1 / open_gop=0 / weightp=2 / keyint=250 / keyint_min=23 / scenecut=40 / intra_refresh=0 / rc=crf / mbtree=0 / crf=17.5 / qcomp=0.60 / qpmin=0 / qpmax=69 / qpstep=4 / ip_ratio=1.40 / pb_ratio=1.30 / aq=3:0.88
7 z' C5 m, |+ [Default                                  : Yes
: P/ H! x, q/ C5 f2 F1 ?& UForced                                   : No( ]! L2 g* Z1 A
Color range                              : Limited
6 ?6 m% ?/ G7 q4 `) l: cMatrix coefficients                      : BT.709
8 a! U0 c& X" j" y7 eAudio
0 m" u% ]" ]  {1 I0 K. b% C& xID                                       : 2/ R$ d' |3 Z0 j$ c! T
Format                                   : DTS XLL
" U7 B* P% ^- t' OFormat/Info                              : Digital Theater Systems
, Z4 i: w$ q2 L" N( u4 BCommercial name                          : DTS-HD Master Audio
3 {) ~& W0 r: \0 }" }Codec ID                                 : A_DTS2 \9 `6 }8 q4 e/ a$ ~$ q4 I
Duration                                 : 1 h 48 min
1 u5 A% |1 T2 \9 T, ABit rate mode                            : Variable2 k7 k( M+ g3 j! Z9 V8 Q
Bit rate                                 : 3 216 kb/s( I4 H1 L$ T3 i* B$ h( s* {( h- K
Channel(s)                               : 6 channels
# S! |# @# d6 S! t" gChannel layout                           : C L R Ls Rs LFE
5 E" ^+ J8 o' mSampling rate                            : 48.0 kHz- B' E8 e) m4 x4 F2 X0 w% ~. X
Frame rate                               : 93.750 FPS (512 SPF)  o. ?* j. n& S8 l9 _! T
Bit depth                                : 24 bits
! i4 v/ V3 L7 s" k* \- E3 o0 ~5 ^3 JCompression mode                         : Lossless+ H, e% a; e, o# \5 v2 M4 r/ z
Stream size                              : 2.45 GiB (14%)' R8 \3 {3 x9 c8 W: N7 ]+ z9 m
Title                                    : English
( I$ Q5 ]% N5 r1 e# \Language                                 : English: R2 L( y- V+ e# K: _
Default                                  : No( ^" ?. G, b# c# Q7 o; |; v8 d
Forced                                   : No
) V* _5 v2 C& h! Q+ U& pText #1( o* C- |1 I( \8 y
ID                                       : 3
* Q8 N/ X. p+ y, J5 E6 A" xFormat                                   : PGS
3 \! O+ J1 Z  k5 R3 }Muxing mode                              : zlib. d6 X2 Z6 M7 G) U: t( n6 \
Codec ID                                 : S_HDMV/PGS; C: J0 H# B, n* w' ^
Codec ID/Info                            : Picture based subtitle format used on BDs/HD-DVDs
3 R2 b# K5 }  \6 U% n# yDuration                                 : 1 h 47 min
4 \& X( D" F7 M- p" ~8 ?4 MBit rate                                 : 39.2 kb/s
$ A* \' c" x& \; d9 UCount of elements                        : 2611
9 d. u7 E" i/ A. G6 Z; iStream size                              : 30.1 MiB (0%)6 [8 F* K1 Z0 y( ~. i! w, X# w
Title                                    : English SDH# n  }1 T" k  @; w) I
Language                                 : English3 E/ P4 [: J# L  m$ W  G, m+ T* G
Default                                  : No
; y: f* E6 |0 t' RForced                                   : No
/ k/ p, q8 ]/ b8 p) b- `; hText #2! ]& S+ x- O4 ~+ Y+ j
ID                                       : 46 J* C% X5 t" \! g- c
Format                                   : PGS/ t9 ?0 `$ a* O5 [0 `
Muxing mode                              : zlib5 h% Y# v: Q( q; Z
Codec ID                                 : S_HDMV/PGS
; h' }  P  c+ L: d4 lCodec ID/Info                            : Picture based subtitle format used on BDs/HD-DVDs
3 ~8 q$ Z; I4 K4 s- v& Y) n  ZDuration                                 : 1 h 43 min0 y7 m* h7 W+ }- U! j& K# `
Bit rate                                 : 39.8 kb/s$ O9 O" P$ h; v0 }2 t9 e
Count of elements                        : 2533
! f0 m) H% C' |# p" G! [Stream size                              : 29.4 MiB (0%)
( j5 G5 l% R0 p6 Z( X$ tTitle                                    : Spanish
0 x" T) i4 D" QLanguage                                 : Spanish
" Z& W: e" g# A1 Q! GDefault                                  : No
- y  |  y0 ?- W0 {1 r4 P: v& J% wForced                                   : No
7 t4 B* ^; D, N5 PMenu8 H' _& y) K6 {, Q) E( K% O5 {
00:00:00.000                             : en:Chapter 01
& i( F4 M+ Z7 r( g) P; `' c00:08:32.303                             : en:Chapter 02* X3 ]8 w' I  j& i9 k
00:17:48.359                             : en:Chapter 03- O) o+ `9 a. i7 F: N
00:26:47.564                             : en:Chapter 04
3 M; f- ]* V4 @+ N* Z, V* ~00:36:35.944                             : en:Chapter 05
% P' x; W+ Z$ t: p1 i00:47:26.427                             : en:Chapter 06
7 ?$ {0 z2 d3 W00:56:49.281                             : en:Chapter 07
' M+ _; a! m4 V( g01:06:00.665                             : en:Chapter 08  V, ?; \# {. Y# a" L
01:17:05.538                             : en:Chapter 095 M) z5 P6 S) e% P; B
01:29:21.523                             : en:Chapter 10
  f& u1 `6 {9 t$ ]! Z01:39:23.666                             : en:Chapter 11
* Q5 n5 m/ k+ x! d& n01:44:18.335                             : en:Chapter 12
& |6 R* u3 ~% R# L: r2 _4 g0 c3 M* _
$ z8 y& u: p& y7 _5 u; j2 A; [' }Three.Christs.2017.1080p.BluRaycd.x264-YOL0W# d# L* ~) F- i: R

1 h+ i. W; R* R/ L  H" T2 nDate........: 2020/06/065 z' m, ~, k( q5 I
Source......: BluRay
4 N: A$ {7 M$ k/ O( sRuntime.....: 01:48:54;05$ A5 t; E7 z- m3 y: q6 O9 s

4 D/ i* d, I+ z* B5 MVideo.......: x264 @ CRF 17.5( Z! O/ t- D( c' U+ z5 F
Resolution..: 1920x1036 [1.85:1]
( W* h  D# n3 v& RBitrate.....: 19776 kb/s
) k6 _1 B. j1 F* ~8 CFPS.........: 23.976
8 k: B* W, j/ J' ^+ V8 y$ X& VSource......: 33693 kb/s5 ^) [2 D" e( z9 I& ~7 h. ?

/ r; r9 U- a" j6 Q# F3 m# _Audio.......: English DTS-HD MA 3216kb/s
% u* u* Y9 {( A) K# k' u: m+ ?( B; N6 V
Subtitles...: English SDH (PGS)  Spanish (PGS)
  r* W; M2 o* kSize........: 17.5GB5 B; h3 h+ {7 Z  E
Link........: https://www.imdb.com/title/tt5706370/
1 M& \! c0 Y  `  ^0 r/ g6 `1 Y0 i# j: Z9 v9 F7 k. D- o9 z
Note........:
) j& F$ J& l. V7 J7 w1 C
游客,查看本帖隐藏内容请回复 | 加入VIP贵宾组可免积分免回复下载 了解详情 | 还不是会员:点击获取邀请码 Invitation Code

64

主题

1506

帖子

5493

积分

Sponsor

金币
308 枚
体力
2082 点
lanpanshuma 发表于 2020-9-10 12:00:21 | 显示全部楼层
楼主发贴辛苦了,I*老*虎*U!: Q* Z7 t# G' f. I: q- c# m- g
bluraycd forum, a lot of Blu-ray movies!/ Q9 z5 W4 x! p
该会员没有 ...

本版积分规则

小黑屋|Archiver|蓝光电影资源网

GMT+8, 2020-10-29 03:18

快速回复 返回顶部 返回列表