BluRayCD Forum

 找回密码
 立即注册【分享大片】

QQ登录

只需一步,快速开始

查看: 19|回复: 2
收起左侧

[蓝光原盘] 三个基督 [REMUX无损版] Three Christs 2017 1080p BluRaycd REMUX AVC DTS-HD MA 5.1-FGT 29.87GB

[复制链接]

4491

主题

4663

帖子

6万

积分

Post Share

金币
8525 枚
体力
16644 点

卓越贡献勋章

黄金嫖客 发表于 2020-9-13 21:20:35 | 显示全部楼层 |阅读模式
Three Christs follows Dr. Alan Stone who is treating three paranoid schizophrenic patients at the Ypsilanti State Hospital in Michigan, each of whom believed they were Jesus Christ. What transpires is both comic and deeply moving.
* B4 ]1 m( o! ~# E1 Z) ^' [, n! X" N& r, ~4 l/ {* n
01.jpg + c) m+ c3 k$ n! p  e" s$ k& |
0 V6 ?0 A  m" A/ D2 m2 X( s
◎译  名 三个基督
3 k" K" B  a& w3 U6 x◎片  名 Three Christs / The Three Christs of Ypsilanti) {  J; w( R' B) T& h4 d; y
◎年  代 2017
: g" T4 n7 E* V) R◎产  地 美国8 T+ b8 E$ h7 [+ Z, u( f7 D; G. V
◎类  别 剧情
  R, l; Z" s  e; J5 L+ A◎语  言 英语  c- w3 p  z/ W' `: x
◎上映日期 2017-09-12(多伦多电影节)/2020-01-03(美国)
( C7 ]  F$ r' B# b' l8 T+ l◎IMDb评分  5.8/10 from 917 users
3 t3 N; w/ Q6 ^; y: }  {8 i◎IMDb链接  https://www.imdb.com/title/tt5706370/% [1 M& e9 E2 E1 {4 y% c
◎豆瓣评分 6.8/10 from 209 users" O4 r, F, B& w4 n6 p0 h! B
◎豆瓣链接 https://movie.douban.com/subject/26823846/
+ H% k  _0 [5 r% u7 n8 A$ V◎文件格式 x264 + DTS
' q) F: O- O1 }" Y◎视频尺寸 1920 x 1080( S, S* F$ _2 S2 B
◎文件大小 1DVD 29.87 GiB
3 p2 s3 k" n  |2 q# W7 P5 J$ f& r◎片  长 1 h 48 min' v) c7 b+ \1 t. [: E& K
◎导  演 乔恩·阿维奈 Jon Avnet
0 R$ N" C9 |6 M3 f) x2 L& w◎编  剧 乔恩·阿维奈 Jon Avnet$ [+ ^$ D& [: ]5 O4 v2 E5 a
       Milton Rokeach' A- D+ l9 t1 A  Y
       Eric Nazarian
8 T) F7 T3 t# `( N/ H/ ~8 w5 f" k◎主  演 理查·基尔 Richard Gere
# u9 \2 l. g: W# e: |       彼特·丁拉基 Peter Dinklage
- |& n, s; E) v3 J) V1 ?       沃尔顿·戈金斯 Walton Goggins: z; ^4 Z# [% h
       布莱德利·惠特福德 Bradley Whitford
) c+ e. A" K, T  f( E       夏洛特·霍普 Charlotte Hope
/ U( U& z8 q2 D( ]       朱丽安娜· 玛格丽丝 Julianna Margulies
: f) U  s7 B, |  q) x6 {; z       凯文·波拉克 Kevin Pollak0 ]6 [' I% |) e7 R: f6 \
       詹姆斯·门罗·伊格尔哈特 James Monroe Iglehart+ N4 g) n: I& I, y: k
       斯蒂芬·鲁特 Stephen Root$ }+ b. ?3 e+ U6 Q. l# g
       简·亚历山大 Jane Alexander9 F  G) Q- b4 \% s( T
       朱丽安·阿科斯塔 Julian Acosta
6 ?# I3 P5 G" A2 J5 I       凯瑟琳·利·斯科特 Kathryn Leigh Scott
: p7 F; V( i  U. I4 f       克里斯蒂娜·谢勒 Christina Scherer1 ^0 r1 `+ p5 {$ u% [2 X# o8 W
       利普丽·索博 Ripley Sobo1 M1 T4 n4 V+ F
       谢德·鲁佩 Shade Rupe; n4 g; e0 U& S7 n6 B
       Danny Deferrari
9 Q- J  P, q$ M# h# c       Chris Bannow, @1 B% S# v/ [" _" D6 ]4 Q

" a) e) `1 _4 J/ U$ S/ |◎标  签 美国 | 2017TIFF | 多伦多电影节 | 传记 | 心理 | 2018 | 2017 | 美(加)国电影, U8 u3 O: K. t) B/ c& j

3 Z" V$ P* m- x# e$ ]' q% h- l9 s# L◎简  介  0 D; N' K$ I/ `; V1 @" r' g

& m3 |. k8 N% z& A6 i1 f4 v# I  影片根据1959年发生在密歇根州一家精神病院的真实故事改编:精神科医生米尔顿·罗克奇(理查·基尔饰)在3名认为自己是耶稣·基督的精神分裂症患者身上实施了一项充满争议的实验。朱莉安娜将饰演医生的妻子;而3位精神病患者将分别由“小恶魔”彼得·丁克拉奇、布莱德利·惠特福德和沃尔顿·戈金斯扮演。5 ?' A- S3 K7 i) y+ Z

6 o% ^* e& |0 o' D  Three Christs follows Dr. Alan Stone who is treating three paranoid schizophrenic patients at the Ypsilanti State Hospital in Michigan, each of whom believed they were Jesus Christ. What transpires is both comic and deeply moving.) A1 B$ m5 X& a! b! |5 r8 d
4 H+ W# l, r4 n' D
Video, ~. t4 {! o- x, ?  |
ID                                       : 1* ^6 L0 `# ~& ^, K' B, h
ID in the original source medium         : 4113 (0x1011)
+ M; B1 o4 e2 _$ h9 h% iFormat                                   : AVC0 f/ c8 E5 u7 u7 b6 _
Format/Info                              : Advanced Video Codec" ]% p0 D8 ^' m
Format profile                           : High@L4.1
- Y6 u+ x& x/ C* ?/ z7 ~, X$ y3 DFormat settings                          : CABAC / 4 Ref Frames7 f6 b, h' L2 F3 t. G/ W: ?
Format settings, CABAC                   : Yes4 Y! l0 d7 D% x; ^
Format settings, Reference frames        : 4 frames/ G$ U+ z# ?7 I/ Z1 o
Codec ID                                 : V_MPEG4/ISO/AVC
8 Q. v) r3 }/ z6 }; c5 Z9 f" MDuration                                 : 1 h 48 min% J2 f8 w; T. I8 [0 w0 F
Bit rate mode                            : Constant
' g5 W5 G9 @& c# G8 [& A. ~Bit rate                                 : 36.0 Mb/s
2 i! S$ N+ ?% r$ eWidth                                    : 1 920 pixels
$ g1 \* Y8 X$ |$ U; J5 l, D" s, C* GHeight                                   : 1 080 pixels
- m- A7 \. C6 ~! nDisplay aspect ratio                     : 16:98 C2 d+ @9 d: V  ~3 q$ a
Frame rate mode                          : Constant
, F' I5 W+ [4 X) hFrame rate                               : 23.976 (24000/1001/37687) FPS
7 I6 V0 z, \6 X$ C* jColor space                              : YUV
/ r' u1 k! L. X$ w3 Z2 b0 ^( a& UChroma subsampling                       : 4:2:02 z' }+ V9 p7 e  V' G" _, Z
Bit depth                                : 8 bits3 a/ ~, S1 g" y: U1 D
Scan type                                : Progressive
  W% t- t' ^* y1 a# [Bits/(Pixel*Frame)                       : 0.724; M+ E/ W6 t4 m* k9 U, S' x
Stream size                              : 26.1 GiB (88%)
6 V) Q% A4 J- y7 {2 ATitle                                    : Three.Christs.2017.1080p.BluRayCD.REMUX.AVC.DTS-HD.MA.5.1-FGT
" U+ B9 B$ M" \% g* i9 ?. oLanguage                                 : English2 y; L8 ^+ A: x. }, l- z. `# f) @
Default                                  : No
9 _- x9 p2 B$ G3 ]% J+ c1 AForced                                   : No6 a' I6 K/ V7 M" T
Original source medium                   : Blu-ray
% a) _( O. B1 N+ _" H- W5 P
* G' ^: e( T: N/ l- K$ D" N2 q! HAudio #1. W/ Z& F3 u! P1 D! j) g# E/ g
ID                                       : 2/ m9 X, R7 J1 K
ID in the original source medium         : 4352 (0x1100)! q) X: Z9 a0 X0 \. n$ _
Format                                   : DTS XLL
" t% q- ?/ G8 V- |; iFormat/Info                              : Digital Theater Systems! s5 N7 F( q4 d3 _* i9 O
Commercial name                          : DTS-HD Master Audio7 u+ @5 d: N+ ~- o  Y  S' s! p
Codec ID                                 : A_DTS
2 b* v- E% J8 b& k8 `Duration                                 : 1 h 48 min2 a/ A2 m' }8 a8 n' I
Bit rate mode                            : Variable" p* p, m9 K# M$ }# q1 ^
Bit rate                                 : 3 216 kb/s+ X, f7 L8 V" i( z% g5 m4 M
Channel(s)                               : 6 channels% T2 c" w" k+ @  L
Channel layout                           : C L R Ls Rs LFE
% }+ \% v: R# a& e7 N+ pSampling rate                            : 48.0 kHz# S5 E# f# C/ u) }, M
Frame rate                               : 93.750 FPS (512 SPF)9 X" S) _' A( g: p# W
Bit depth                                : 24 bits/ s0 ]1 y) M8 l3 _; r
Compression mode                         : Lossless1 Y+ m  U* f9 g5 Q% ?2 i
Stream size                              : 2.45 GiB (8%)
! z5 N$ A( A- p5 m) {5 WTitle                                    : Three.Christs.2017.1080p.BluRaycd.REMUX.AVC.DTS-HD.MA.5.1-FGT
' K; W7 m- h/ @; i' ^( ~" @Language                                 : English* I) ^/ Z( |" d
Default                                  : Yes8 T) b8 q# u6 C( ]* R
Forced                                   : No3 f1 G5 J- ]* C' F, k- n. N1 Q
Original source medium                   : Blu-ray/ T, Q- V! M( d* E/ @& d: A

. M( I  x0 A: fAudio #2
3 i' ^1 k# l3 s, ~9 r7 {ID                                       : 35 T3 v  o! L- P0 b, G8 ^9 w
ID in the original source medium         : 4353 (0x1101)! `8 m% Y& W( b/ ]
Format                                   : DTS XLL
& P, ~' L  H7 OFormat/Info                              : Digital Theater Systems8 ?! Q1 w3 j1 t$ b6 N
Commercial name                          : DTS-HD Master Audio" C$ p6 c; V, e1 y1 u) J
Codec ID                                 : A_DTS6 _- q. M( k+ r% Z, l6 X
Duration                                 : 1 h 48 min
& r( W. D- Y1 m' D7 w, g- y1 @Bit rate mode                            : Variable
* w' E( X2 f2 |9 H" LBit rate                                 : 1 634 kb/s
% x# F% b4 b% a  g; OChannel(s)                               : 2 channels5 q1 S- u! o$ k- R4 o  a& S0 m# [
Channel layout                           : L R
* V" ]  k1 r: ?- o5 Q% U7 I4 _Sampling rate                            : 48.0 kHz/ e7 s$ b  ?& G$ Z
Frame rate                               : 93.750 FPS (512 SPF)1 ^) k# ]$ g2 A* {6 J! e
Bit depth                                : 24 bits
; v; i0 E! q3 dCompression mode                         : Lossless
0 g+ g( ?* V- E- c* hStream size                              : 1.24 GiB (4%)
9 q3 ^/ E  j1 GTitle                                    : Three.Christs.2017.1080p.BluRaycd.REMUX.AVC.DTS-HD.MA.5.1-FGT
  |) x: X6 z1 f% J9 I& wLanguage                                 : English
/ X3 q6 q( `" E% d+ _: ]Default                                  : No
+ w+ u  n/ w# V1 w" IForced                                   : No
8 b5 i! D3 D2 w+ M. d( Q. u+ Z3 b& cOriginal source medium                   : Blu-ray# k( c  V) o6 _. [, N) F! v' m

7 ^! P- L! D6 TText #1
' D2 F! J6 ~- \' _ID                                       : 4
; P! {: B4 j0 r* tFormat                                   : UTF-88 s6 g" p& Q2 E( {
Codec ID                                 : S_TEXT/UTF8
7 \4 o: \+ Q/ y, r/ i$ S. ]9 ]Codec ID/Info                            : UTF-8 Plain Text  m( _2 k6 N6 g1 C
Duration                                 : 1 h 41 min/ j; c8 ~8 l3 \0 o% Y3 o( {; _
Bit rate                                 : 64 b/s, i& t  g$ [+ L- s* f, g2 A4 X
Count of elements                        : 1671
$ w% @7 P; p9 d( d) vStream size                              : 47.8 KiB (0%)
9 C: c6 X) r5 L* R! \, N. BTitle                                    : English-SRT. E4 S1 L+ K' z4 `* Y" |6 i* `2 }
Language                                 : English
1 C# h! N; e- y3 g& f! l5 w9 XDefault                                  : Yes
9 p- E- p# t' e5 DForced                                   : No/ ]  }  j+ E) g' U5 u* J

$ i- C  {: V! s$ C, }3 |6 w, Z/ FText #2
2 c* l1 ~/ v  o9 Y# h! t9 XID                                       : 5
) g( ?" ^6 F% G3 f9 Q% t+ _; L0 A( ^: IID in the original source medium         : 4608 (0x1200)9 h' k, f+ q+ k1 `+ h
Format                                   : PGS" y2 F& Z) a4 S) e& \5 O
Muxing mode                              : zlib
4 b* ~6 N* k/ g/ V8 `Codec ID                                 : S_HDMV/PGS5 p$ u8 L% b1 b  S# t3 y' H
Codec ID/Info                            : Picture based subtitle format used on BDs/HD-DVDs% R, |% W% q( @* n; w
Duration                                 : 1 h 47 min
( \% E* B: @% e! \9 p- vBit rate                                 : 39.2 kb/s1 H- t' L/ Y! j' T% E! \
Count of elements                        : 2611
/ j# k  d/ L1 O2 j! {Stream size                              : 30.1 MiB (0%)+ a8 Q% x" k5 G( q0 W
Title                                    : English-PGS0 W3 ?9 @+ {7 X: h9 n
Language                                 : English# p1 u* d- }; i) N5 i$ }9 [& d
Default                                  : No  M  d# l! F& y
Forced                                   : No
# w) S; F( d8 ]Original source medium                   : Blu-ray4 X8 G% Q# z) H3 j
4 @$ K6 F  J8 q$ S% C
Text #3
4 T! ], B- m. yID                                       : 6; Q  P  m6 E# x; B) s, Q$ e
ID in the original source medium         : 4609 (0x1201)# k2 l3 D& D. l1 Q" y, V7 o
Format                                   : PGS8 y  B9 Y) k4 h) V# j3 _
Muxing mode                              : zlib* Q) f* ]1 g. G" O) l/ A. g% ^
Codec ID                                 : S_HDMV/PGS( L$ S+ z- ?, O/ O7 Y
Codec ID/Info                            : Picture based subtitle format used on BDs/HD-DVDs- O( E* I+ @3 ~7 F5 L1 A
Duration                                 : 1 h 43 min
* C" o; x  v* }& S" f: \. vBit rate                                 : 39.8 kb/s/ ^- [3 G' P+ F+ B! p  Q; r" |6 B
Count of elements                        : 25336 l* x2 t& `: v7 S! R( w) T
Stream size                              : 29.4 MiB (0%)
3 G1 F3 i& r0 d4 wTitle                                    : Spanish-PGS* _7 b+ n+ O# z* y8 ?- h
Language                                 : Spanish0 V# R+ G, M5 n" l" B9 n' u
Default                                  : No
7 X/ i6 o5 o: m' LForced                                   : No
7 |; I6 Z8 }, A/ KOriginal source medium                   : Blu-ray
2 L7 J( e/ a! b, ?* S' H, C- _4 z* o7 |" w$ N
Menu( t* R7 k! S8 G8 E; h. a# f
00:00:00.000                             : en:Chapter 012 y4 S  R1 j3 V3 g
00:08:32.094                             : en:Chapter 02$ o4 C( V" m1 I9 b0 t
00:17:48.192                             : en:Chapter 03
7 p$ Z7 e! B& t3 }, l( G00:26:47.230                             : en:Chapter 048 e- P" {- e0 w
00:36:35.610                             : en:Chapter 056 o; y& I5 `) L  {6 t" j: q
00:47:26.301                             : en:Chapter 06# c7 M: I& S/ X/ L
00:56:49.155                             : en:Chapter 07
1 d& `! Z2 H( `$ B9 c+ o01:06:00.539                             : en:Chapter 08" ?+ G5 E1 h3 b8 S& k$ i: b# `4 m
01:17:05.454                             : en:Chapter 09. i4 u, D/ E: |" I  G- y4 R3 s+ M
01:29:21.314                             : en:Chapter 10+ `4 x: z0 ~- D. r& I
01:39:23.374                             : en:Chapter 11
1 b0 w4 l/ I# {3 D1 K! Z* s( `' H8 a$ j01:44:18.210                             : en:Chapter 12: f& v' C0 K- W
01:48:51.483                             : en:Chapter 13
Three Christs Blu-ray, Video Quality   
- V1 }) @( T8 J) q, \6 m0 @; h: P5 }3 V, R0 m1 U5 s! T
& [, J+ n3 R2 x4 q7 J
The AVC encoded image (1.85:1 aspect ratio) presentation offers a sharp view of period production achievements, offering viewers a look at the sterile environment of the hospital and warmer office and domestic interiors. Facial surfaces are crisp, securing age and deterioration, along with fine hairs. Costuming is fibrous, highlighting heavier woolen suits and dresses. Exteriors are dimensional, surveying hospital grounds and suburban homes. Colors are precise, with rooms decorated with medical greens and yellows during therapy scenes, and furniture offers oaky browns. Skintones are natural. Clothing enjoys more subdued hues. Greenery is lively. Delineation is satisfactory, with some brief solidification. Mild banding is detected as well.
2 w+ L8 q- t% J7 _
- f1 Y. q6 J$ LThree Christs Blu-ray, Audio Quality   
* y) Q/ x6 m/ ^" k) s4 L7 q4 }) J1 L% J# a, Z, s  I
7 U2 X" x9 b) ]. d- R) t
The 5.1 DTS-HD MA sound mix secures the intimacy "Three Christs" is aiming for, delivering a strong sense of performance choices, with dialogue exchanges sharp. Quieter emoting and panicked freak-outs are balanced, with nothing reaching distortive extremes. Scoring is delicate with excellent instrumentation, handling soft strings and piano moods. Low-end isn't challenged, but some buzzing is felt during shock therapy moments. Atmospherics contribute an open sense of room tone for hospital rooms, and a church visit provides real expanse. Occasional panning effects are noted.; Y1 B1 A2 ~8 l8 {9 [. r$ c2 q5 ?
游客,查看本帖隐藏内容请回复 | 加入VIP贵宾组可免积分免回复下载 了解详情 | 还不是会员:点击获取邀请码 Invitation Code

577

主题

1906

帖子

1万

积分

VIP advanced

金币
1631 枚
体力
4351 点

公主勋章卓越贡献勋章

21cn 发表于 2020-9-14 01:08:25 | 显示全部楼层
啥也不说了,楼主就是给力!
9 ^0 `# B7 B( F4 p/ m6 j9 f2 cYour resources, well, I am very satisfied!( p+ F9 A% r9 p3 c% \

56

主题

1370

帖子

4931

积分

Sponsor

金币
224 枚
体力
1882 点
lanpanshuma 发表于 5 天前 | 显示全部楼层
每天都来蓝光论坛看看,我爱蓝光电影。1 h# `$ t. }7 k4 ^% d/ L
Blu-ray movies Community: my favorite!
1 `- W- q" L; ^: Y* h/ e& k4 s
该会员没有 ...

本版积分规则

小黑屋|Archiver|蓝光电影资源网

GMT+8, 2020-9-22 02:14

快速回复 返回顶部 返回列表