BluRayCD Forum

 找回密码
 立即注册【分享大片】

QQ登录

只需一步,快速开始

查看: 14|回复: 0
收起左侧

[动漫动画] 乐高DC沙赞:魔法与怪物 Lego DC Shazam Magic And Monsters 2020 1080p BluRaycd x264 DTS-HD MA 5.1-FGT 7.94GB & 6.53GB

[复制链接]

3897

主题

4271

帖子

3万

积分

Post Share

金币
7316 枚
体力
6584 点

卓越贡献勋章

mvods 发表于 2020-9-10 23:31:18 | 显示全部楼层 |阅读模式

4 }2 a* f5 T1 C: e" P% o% b* d$ a7 j! _7 J* J* o- y
◎译  名 乐高DC沙赞:魔法与怪物
! W  f) ^# g% a, ?; B" o" Q1 j! v◎片  名 LEGO DC Shazam!: Magic and Monsters: E( [7 E: e. Z
◎年  代 2020% i: p: h3 C8 ]' a- C
◎产  地 美国6 B4 b7 b5 k& i* ]* K; R
◎类  别 动画
7 Q6 o4 n2 E- ?) h◎语  言 英语0 |, ?* B# P# s. P  J" H
◎上映日期 2020-04-28(美国)
6 T: e3 W  F. }' h◎IMDb评分  6.2/10 from 517 users1 ~! B  ^4 G3 z6 I; x: k9 o$ b
◎IMDb链接  https://www.imdb.com/title/tt12093878/( R( {$ V5 h  b8 {
◎豆瓣评分 7.3/10 from 1,921 users2 d1 \1 _' l7 i5 Z- _
◎豆瓣链接 https://movie.douban.com/subject/35030774/: J0 [- H: E3 ^, A" c
◎片  长 1 h 21 min
0 Z; M+ {$ }# l* ?3 W◎导  演 马特·皮特斯 Matt Peters
1 R$ _3 a% n% t3 ]3 f◎编  剧 杰瑞米·亚当斯 Jeremy Adams
7 D- [, s/ }. F       C·C·贝克 C.C. Beck8 ~& {' B9 m. H$ ^4 t2 T2 v: @
◎主  演 西恩·奥斯汀 Sean Astin
9 G  j: d- k" I2 x; F       迪·布拉雷·贝克尔 Dee Bradley Baker7 Q/ G) g7 D5 ?+ l# a! d
       特罗伊·贝克 Troy Baker$ t) {" K7 ]. P" O( l* O" f
       扎克·卡利森 Zach Callison
& G! L; n2 a2 K. y# V/ C; y       格雷格·埃利斯 Greg Ellis
, F2 u. M! y: @+ O; O1 p& V       拉尔夫·加曼 Ralph Garman
% Y. |* M, k% p4 ?4 n       格蕾·德丽斯勒 Grey DeLisle
* n4 r7 ~  g; O5 |7 e       詹妮弗·黑尔 Jennifer Hale
) s1 {$ p! K5 t( L! k$ {. @4 y/ i       乔什·基顿 Josh Keaton
% g3 @9 D; z+ O: d: P9 `. K       汤姆·肯尼 Tom Kenny+ q3 {$ E2 H' s6 F+ ~: ?
       Erica Lindbeck  S0 }$ L; Y; f  P8 ]
       克里斯蒂娜·米利齐亚 Cristina Milizia+ ~2 d6 g6 ^8 T9 W/ E
       诺兰·诺斯 Nolan North
9 D; w3 T6 E( ~; u  O       弗雷德·塔特西奥 Fred Tatasciore
  Y: }) l: m$ G  O! V! B       詹姆斯·阿诺德·泰勒 James Arnold Taylor
: d, o8 T% N5 j! @' F$ O1 `+ {+ f- v/ G+ }
◎标  签 DC | 动画 | 乐高 | 超级英雄 | 美国 | 2020 | 漫画改编 | 正义联盟
5 H* T! s, O* G# k% I0 b3 \( g; o5 j  H
◎简  介    G- ~8 |7 e$ `
0 x. O( \" K  I% p, e; H) g
  当男英雄沙赞被邀请加入正义联盟时,他并不情愿,但当他的对手怪物协会将联盟置于危险境地时,他是唯一能拯救他们的人。/ p" y6 [  H, }0 f, ^. B9 ~- T
7 n9 n+ e. N  u# D" \- I1 n& ]
  When the boy hero Shazam is offered to join the Justice League he is reluctant about it, but when his rivals the Monster Society put the League in peril he's the only one who can save them.
" p! _, f! y7 f  O! G
Video
2 C  K: d2 `6 ]5 F& C9 k0 qID                                       : 1  s/ O  H) s/ k
Format                                   : AVC& f3 j2 N" k1 W- |8 A  u* k
Format/Info                              : Advanced Video Codec; `/ b9 X& T, Q$ x4 }
Format profile                           : High@L4.10 H3 Q  s2 m# I9 l! |. ]: A
Format settings                          : CABAC / 4 Ref Frames) n. a0 J3 z6 V( g+ ^
Format settings, CABAC                   : Yes
, j( H5 o3 I0 q6 ZFormat settings, Reference frames        : 4 frames
6 ^$ q8 f6 I1 k7 f2 d0 jCodec ID                                 : V_MPEG4/ISO/AVC
4 s6 B: h/ B9 qDuration                                 : 1 h 21 min
9 m( d3 G, O" d+ {1 W$ hBit rate                                 : 11.5 Mb/s
, ?$ m& G$ c1 E+ ~4 HWidth                                    : 1 920 pixels/ S+ n4 q* b" Z# J/ e
Height                                   : 1 080 pixels
9 f  Z( i# f/ A! l0 a) WDisplay aspect ratio                     : 16:9
& B; U6 B5 x5 B" v" q" _! t" N7 DFrame rate mode                          : Constant
; k: y& _& i3 J% hFrame rate                               : 23.976 (24000/1001/37687) FPS
! s7 q% e* k, t- FColor space                              : YUV
2 x  Q! x0 n. NChroma subsampling                       : 4:2:0, |& S0 \2 ?( d9 Y) j
Bit depth                                : 8 bits% a  f+ v  z" F+ f
Scan type                                : Progressive3 n& o+ Z) D8 t, K" u
Bits/(Pixel*Frame)                       : 0.231/ ?% w$ P) s" T- d# u  `! A" G& K
Stream size                              : 6.52 GiB (82%). P1 P5 D' O( C6 b% O' v
Title                                    : Lego.DC.Shazam.Magic.And.Monsters.2020.1080p.BluRayCD.x264.DTS-HD.MA.5.1-FGT
  g) P5 u7 W  v: h; wWriting library                          : x264 core 148 r2795M aaa9aa82 B% n$ y8 l% ~  i) p0 {
Encoding settings                        : cabac=1 / ref=4 / deblock=1:1:1 / analyse=0x3:0x113 / me=umh / subme=8 / psy=1 / psy_rd=0.50:0.00 / mixed_ref=1 / me_range=32 / chroma_me=1 / trellis=2 / 8x8dct=1 / cqm=0 / deadzone=21,11 / fast_pskip=1 / chroma_qp_offset=-2 / threads=72 / lookahead_threads=3 / sliced_threads=0 / nr=0 / decimate=1 / interlaced=0 / bluray_compat=0 / constrained_intra=0 / bframes=3 / b_pyramid=2 / b_adapt=1 / b_bias=0 / direct=3 / weightb=1 / open_gop=0 / weightp=2 / keyint=240 / keyint_min=24 / scenecut=40 / intra_refresh=0 / rc_lookahead=50 / rc=2pass / mbtree=1 / bitrate=11500 / ratetol=1.0 / qcomp=0.60 / qpmin=0 / qpmax=69 / qpstep=4 / cplxblur=20.0 / qblur=0.5 / vbv_maxrate=31250 / vbv_bufsize=31250 / nal_hrd=none / filler=0 / ip_ratio=1.40 / aq=3:0.60
, R- M2 m" X. D5 tDefault                                  : Yes
" v( y1 n9 t; N9 b0 X8 M) ]' kForced                                   : No- y7 b; K" p7 x0 C

: I5 u* }$ h* Z8 W6 KAudio% t. [" A. ^1 \  M
ID                                       : 2
5 d4 k! f4 d, `' IFormat                                   : DTS XLL( m3 ]! [  Q/ p+ V9 @% `/ u2 Z
Format/Info                              : Digital Theater Systems7 w2 c  D" U, O$ G0 D! q9 i
Commercial name                          : DTS-HD Master Audio* }% k8 L  `% w3 N$ r
Codec ID                                 : A_DTS7 {9 Z- O1 b9 f1 Z3 Q& u2 I/ F
Duration                                 : 1 h 21 min1 V5 g3 n4 I# N- v" V  Q
Bit rate mode                            : Variable3 [+ R8 j( i' D, `5 |4 L
Bit rate                                 : 2 393 kb/s
' Y; T- b2 Z7 ~" A  mChannel(s)                               : 6 channels5 t# h2 t2 ?: H1 q4 }1 Q
Channel layout                           : C L R Ls Rs LFE
# Y% N) e! \3 t7 h# E' d  H1 ?Sampling rate                            : 48.0 kHz/ i! X" c; l0 F/ Z$ O
Frame rate                               : 93.750 FPS (512 SPF)4 t  \/ N0 [. o; c
Bit depth                                : 16 bits
' R! W: g1 x9 u! n2 K8 d4 GCompression mode                         : Lossless, x% M1 V; A5 E6 V' E5 s
Stream size                              : 1.36 GiB (17%)
! y, k) X2 o& \* uTitle                                    : Lego.DC.Shazam.Magic.And.Monsters.2020.1080p.BluRaycd.x264.DTS-HD.MA.5.1-FGT$ L/ @) o' V7 b# B4 G
Language                                 : English$ w9 ?; c6 E! j% D+ {- r% ~
Default                                  : Yes
$ X, ~; F. a: @3 Y( a' YForced                                   : No: \0 v8 K; Z+ ^) m; q- s
1 Z$ E1 v& k: U  J9 G+ {  m
Text #1! n, {- p$ l: a- D" K
ID                                       : 35 t3 K% m3 h3 Y# A* o) x
Format                                   : UTF-8$ l6 x' j/ N2 e2 w
Codec ID                                 : S_TEXT/UTF88 J6 {. Q# P/ v2 U  e  G) q
Codec ID/Info                            : UTF-8 Plain Text
3 X+ h2 W4 a3 f) f- j1 g- xDuration                                 : 1 h 18 min1 }3 x  m! @. r# V3 m7 b5 @% i& M
Bit rate                                 : 64 b/s7 e" c- b8 F1 K2 G5 {
Count of elements                        : 1281( ~: b% ~$ Q6 t/ @0 P5 x( j
Stream size                              : 37.2 KiB (0%)
! I% e; G1 W; I1 HTitle                                    : English-SRT$ y2 a0 l2 j9 {" Z$ ^7 m: {6 ]
Language                                 : English& A, R0 `& f! l0 p0 b/ y* x
Default                                  : Yes
2 ^" a2 l4 E- rForced                                   : No* t; }8 `  U7 l

6 j) m+ C# f7 w6 I, N) C) zText #2
$ Q* }* j% b% g3 d2 f; CID                                       : 4
' S/ m' z+ o! N# ~; LFormat                                   : PGS
% J9 ~+ K, ]  @# A  NMuxing mode                              : zlib3 q! A6 v  C) D; {& a
Codec ID                                 : S_HDMV/PGS0 a! D* I/ f3 B3 `' D; B1 p  O
Codec ID/Info                            : Picture based subtitle format used on BDs/HD-DVDs
3 z3 w9 \% M; \/ c; M+ uDuration                                 : 1 h 18 min9 @4 A4 Y6 A$ }6 k. M, u, w
Bit rate                                 : 43.6 kb/s
, A6 u& x  O$ h2 ^  \2 ECount of elements                        : 2856( W; x9 X. z/ }) P/ [1 T' L9 X
Stream size                              : 24.4 MiB (0%)* s  _6 _! z' R% r8 S9 r3 p+ F
Title                                    : English-PGS( T0 k! c# |# v& X& K( X# S$ M' L
Language                                 : English
  s: ?1 S. C$ h) n7 _. e3 y9 UDefault                                  : No
. t( e/ s" |: Z, gForced                                   : No, x; M& U  W! x* I: v& K: i
7 }" A5 g/ X& A4 ^
Text #31 F, W  w0 [4 ~/ o
ID                                       : 5" i- Z8 ]4 |$ c8 e$ z
Format                                   : PGS
+ e8 T6 i2 D& {$ @( ~Muxing mode                              : zlib
* r/ C! x. R  T& |8 E. z" yCodec ID                                 : S_HDMV/PGS9 a  E5 O8 K) h& X
Codec ID/Info                            : Picture based subtitle format used on BDs/HD-DVDs- Z' A( B+ j7 P2 N5 r* \5 j% {
Duration                                 : 1 h 20 min
5 s5 W5 D' T3 w# r7 V* UBit rate                                 : 35.3 kb/s* a; M0 F' R, O3 _. O5 {
Count of elements                        : 2564
! z, }- _; _! A1 eStream size                              : 20.3 MiB (0%)
$ L1 H. e3 p2 Y, ~" t# u4 X1 f" CTitle                                    : French-PGS) b' L+ n2 h/ _* l
Language                                 : French
2 l% @$ l6 _- a2 `Default                                  : No
& @. S, F2 t4 q9 S7 QForced                                   : No
$ e5 M: ^7 D& [1 Y! h
8 ~  f& V9 }: O3 bText #4
. `9 V8 p9 p1 R8 {- E* CID                                       : 6
4 p& a4 k9 f' N, i8 tFormat                                   : PGS
2 ?7 W9 I, v3 \: y2 @/ d4 }Muxing mode                              : zlib
/ ?9 M$ Y% h& F+ @Codec ID                                 : S_HDMV/PGS
  E% g% v- e" [; p+ o! wCodec ID/Info                            : Picture based subtitle format used on BDs/HD-DVDs% b% B+ v; E+ @' w# W
Duration                                 : 1 h 20 min
+ h, k; a' e! B, gBit rate                                 : 36.9 kb/s' a6 c2 A0 s" b  w" E) ^! B) b) @
Count of elements                        : 25124 k- f- \6 _# F% N) H2 [
Stream size                              : 21.3 MiB (0%)7 p* @6 ~: M" O8 I6 X
Title                                    : Danish-PGS3 n9 s7 w" o5 h* \7 [1 Q
Language                                 : Danish. T" ~( K8 u/ [4 r8 k6 b
Default                                  : No
% u+ B, Z& Y$ @  KForced                                   : No7 t% X4 u8 v; X7 O+ I% U. [
$ w9 S! P  |+ }; Y" E$ z
Text #5) \9 w3 c" B) v: j/ M3 l
ID                                       : 73 T) S% P  m8 C; B0 |5 S5 W
Format                                   : PGS: k( v; W( }" u, V  f
Muxing mode                              : zlib; b) v$ G6 Z: V( {
Codec ID                                 : S_HDMV/PGS& P. F3 Z# v" |7 s2 {
Codec ID/Info                            : Picture based subtitle format used on BDs/HD-DVDs0 S% Y: {3 \* T% L
Duration                                 : 84 ms
. s; s6 ?! A- _8 X9 A' XBit rate                                 : 6 666 b/s
/ W& o  D; Z. k+ pCount of elements                        : 2  D; d2 Y  C* e1 \; w) ^. n
Stream size                              : 70.0 Bytes (0%)
' C: g' u/ Q$ T" X$ r5 a$ HTitle                                    : Spanish-PGS. ?2 \+ {0 v5 z# A1 w
Language                                 : Spanish
$ Z6 T7 Y. L4 [6 g" f# TDefault                                  : No  r$ r$ L1 ?7 @6 l' W
Forced                                   : No
5 O) P5 E% l' |" K( P- k8 T7 p% Q$ @7 s: M- W! @: s: o
Text #6
+ [; T8 U3 m9 f. K4 dID                                       : 8# c) C3 S5 B& s4 \$ [. I
Format                                   : PGS
* X* U+ m# R0 _: X& N1 aMuxing mode                              : zlib
6 D1 |/ \- T$ h6 j* P! ^9 hCodec ID                                 : S_HDMV/PGS3 F( _1 z. N$ F0 ?0 _9 s9 _
Codec ID/Info                            : Picture based subtitle format used on BDs/HD-DVDs+ t' d3 Y9 x+ m; h+ }3 q/ @" s
Duration                                 : 1 h 20 min7 O7 G7 M+ N/ t% ^% ~2 p  Y& D
Bit rate                                 : 35.8 kb/s
- G+ I; l, x) \Count of elements                        : 2276& y; v0 Y, b$ ^+ C0 f8 V
Stream size                              : 20.7 MiB (0%)$ _+ r* E# w; l7 l- p( B
Title                                    : Finnish-PGS
# ?7 T9 Q: i, g; K  WLanguage                                 : Finnish% D5 I1 d5 ~' @5 ]
Default                                  : No. E; O& \, P& U# v( a' }% n
Forced                                   : No
8 W7 ]  e7 k: B- w& T) x3 y
: z+ I/ `* L; w+ g) ]% A2 }+ VText #7
, _5 }- b0 D. F" t' U8 xID                                       : 9
- S/ _; D/ }! @; E  G8 @- N; ~Format                                   : PGS
+ R/ Y- ?* |, V) ^" ?Muxing mode                              : zlib
4 k' q% e" n- h- e7 KCodec ID                                 : S_HDMV/PGS1 n% d# F4 J. k5 V' o$ K
Codec ID/Info                            : Picture based subtitle format used on BDs/HD-DVDs
$ e- v% j: O$ ?& h# T! C( r( P% YDuration                                 : 1 h 20 min' V. m* j, {/ A8 o9 |5 ?7 R
Bit rate                                 : 37.7 kb/s
+ }  u% O  N! M7 [Count of elements                        : 2314
4 V) E; C0 Q* {: v8 C8 ]2 ^Stream size                              : 21.8 MiB (0%)2 I: j% J# p8 d- W7 W3 n$ s& M4 K9 s
Title                                    : Norwegian-PGS* c% C) q0 T" t+ V# ~2 Z
Language                                 : Norwegian; \# K/ M5 k1 G7 T( _; D) a5 P
Default                                  : No8 x0 L% ?( \1 b% S
Forced                                   : No
' [6 n3 u, b' n7 \% B
; ]9 X4 O: C( O) e! ]6 E4 [Text #8- |( }* v7 {* H- I
ID                                       : 10& f( `- v- F9 k. q  p: k
Format                                   : PGS, N" h+ ]5 K) d6 b
Muxing mode                              : zlib
. v* N! W. @- m/ C3 M; pCodec ID                                 : S_HDMV/PGS0 E! A1 c) n7 d
Codec ID/Info                            : Picture based subtitle format used on BDs/HD-DVDs
# o* P( ^4 T7 K. @Duration                                 : 1 h 20 min* y& ?* A' a: {1 k
Bit rate                                 : 36.4 kb/s! j! j( X; u4 k% A$ m+ X
Count of elements                        : 25283 E6 `5 r9 k/ U
Stream size                              : 21.0 MiB (0%). O# {$ i# K! w; }; `+ s4 t* [% R
Title                                    : Swedish-PGS
6 _5 R. W$ M5 K* V3 a" aLanguage                                 : Swedish5 p% Z5 V; K8 A" o
Default                                  : No
# k' |6 Z0 \5 ]2 B! OForced                                   : No
: `$ P3 z7 b0 h0 ?6 K. {" k  C1 x) i) Z* H+ C
Menu  k  P7 {( C- x1 z# U+ k  U, V: D
00:00:00.000                             : en:Chapter 01! X) f5 x3 h) o9 l. ]  N
00:08:35.890                             : en:Chapter 02: H& t& ]* ?9 C# [/ r" c
00:17:30.383                             : en:Chapter 03/ o) i, v% q& q% o
00:27:37.823                             : en:Chapter 04
2 X7 s0 s$ z# y. r" L! P) {' n00:36:30.688                             : en:Chapter 05
. `' y* |, m# N$ b% L& H3 H* i2 ]00:44:25.204                             : en:Chapter 06
6 N6 _  ^; T; z8 O8 q00:51:21.453                             : en:Chapter 075 `6 ]0 ?4 L6 f- k( b0 T) b5 }
00:57:24.232                             : en:Chapter 08) I* B5 E, B$ K7 {+ \# ~* v9 I5 W3 ^
01:04:08.720                             : en:Chapter 09) P2 B0 c$ J/ P" U$ T, u0 u
01:13:58.017                             : en:Chapter 10
+ x# a; J4 g  [  w! X% ]$ p7 l01:18:54.188                             : en:Chapter 11
Video
+ p- r! _  L) u9 S( G, ]ID                                       : 1
0 q8 N6 R7 T2 s! `$ o' C5 tFormat                                   : AVC: y1 W6 ?+ }8 H; O
Format/Info                              : Advanced Video Codec
& T7 K+ h. W/ F  f) e3 _Format profile                           : High@L4.1$ A; q1 [$ C$ c
Format settings                          : CABAC / 4 Ref Frames4 b, Z4 d( R. w& v2 v) s. l  e
Format settings, CABAC                   : Yes
! z8 s2 t5 m3 e5 kFormat settings, Reference frames        : 4 frames: o; P0 O2 t! c4 A6 [- W' n
Codec ID                                 : V_MPEG4/ISO/AVC
4 G  _7 @# O4 ?Duration                                 : 1 h 21 min
; b/ L) e7 V3 ^0 QBit rate                                 : 8 992 kb/s- x9 f+ X" s* J# L
Width                                    : 1 920 pixels
8 Z2 {& u' }# b. V+ y0 JHeight                                   : 1 080 pixels
' @/ |3 [1 ?- L" R5 D, oDisplay aspect ratio                     : 16:9: a* J; `6 e2 I4 d: f5 W
Frame rate mode                          : Constant/ |: r. b/ s' v  Y$ o5 h9 [
Frame rate                               : 23.976 (24000/1001/37687) FPS
0 H: X3 S( o% S0 Q& sColor space                              : YUV
* X6 ]% s0 n, i" G+ ]6 BChroma subsampling                       : 4:2:0" m2 q7 U5 X# c$ V5 X; C6 b& _
Bit depth                                : 8 bits
6 N& E1 J5 z* H( D4 b+ UScan type                                : Progressive
) _3 z5 e9 ~5 B3 aBits/(Pixel*Frame)                       : 0.181' f% X" r% b  t7 @2 N& ^2 n
Stream size                              : 5.11 GiB (78%)
; k* R: h7 @0 X( W5 E  mWriting library                          : x264 core 160 r3000 33f9e14
- z' M6 ^: f3 o0 }; K% _9 M) [Encoding settings                        : cabac=1 / ref=4 / deblock=1:1:1 / analyse=0x3:0x133 / me=umh / subme=10 / psy=1 / psy_rd=0.50:0.00 / mixed_ref=1 / me_range=32 / chroma_me=1 / trellis=2 / 8x8dct=1 / cqm=0 / deadzone=21,11 / fast_pskip=0 / chroma_qp_offset=-2 / threads=24 / lookahead_threads=6 / sliced_threads=0 / nr=0 / decimate=1 / interlaced=0 / bluray_compat=0 / constrained_intra=0 / bframes=10 / b_pyramid=2 / b_adapt=2 / b_bias=0 / direct=3 / weightb=1 / open_gop=0 / weightp=2 / keyint=250 / keyint_min=23 / scenecut=40 / intra_refresh=0 / rc=crf / mbtree=0 / crf=17.2 / qcomp=0.60 / qpmin=0 / qpmax=69 / qpstep=4 / ip_ratio=1.40 / pb_ratio=1.30 / aq=3:0.90
) U6 g# }2 t. Q( z) EDefault                                  : Yes' f6 @- g. F, Y# Y6 S8 p. D
Forced                                   : No
0 u1 a; q; R! b7 D7 w1 g$ T7 XColor range                              : Limited
$ h' X. F! N! Q" N. N7 f; FMatrix coefficients                      : BT.709
0 D0 y" ]4 o# A" ]Audio
2 }, j( D% f" o0 [( }5 s- VID                                       : 27 p& H5 G  _! z+ F  ^; m
Format                                   : DTS XLL) q1 J9 f" }8 L/ S+ {# x
Format/Info                              : Digital Theater Systems
/ L% J% h) \  `3 ?; u0 X  O1 ICommercial name                          : DTS-HD Master Audio7 |7 v5 @( f" n: f% A0 ?
Codec ID                                 : A_DTS
; D# ~( `) [" s5 B7 s) EDuration                                 : 1 h 21 min2 z1 H8 T4 ]2 e' {' H
Bit rate mode                            : Variable
# a$ Q8 F# {1 _" S0 IBit rate                                 : 2 393 kb/s
% d' N$ e4 o: v/ y# @. B4 iChannel(s)                               : 6 channels
* e1 Q6 }3 X2 {0 `7 r2 ]Channel layout                           : C L R Ls Rs LFE9 P9 p6 \9 g- r* Y3 u. a, V* v) T
Sampling rate                            : 48.0 kHz- c; c% L1 |9 R1 J
Frame rate                               : 93.750 FPS (512 SPF)
5 y1 E3 G- h1 g# QBit depth                                : 16 bits* @! z( Z3 a# w  C# E/ n6 g9 l) ^
Compression mode                         : Lossless
8 s) d" D  c8 M7 fStream size                              : 1.36 GiB (21%)
. _! g4 J' b/ DTitle                                    : English
: |, W* G* B% Z8 ^/ wLanguage                                 : English
% q5 F* o; |0 r6 D3 F0 xDefault                                  : Yes( c/ D2 p9 f! W* A$ Z" D: K1 G
Forced                                   : No  [! M& \4 J9 L+ Z
Text #19 X' B+ |% d2 @+ B+ l7 K  T
ID                                       : 34 }, Q$ P  q% C; m& F/ {
Format                                   : PGS
8 P  Z8 f* _5 }$ g6 j  dMuxing mode                              : zlib4 T, N9 K, v( w$ J3 ]4 W/ g
Codec ID                                 : S_HDMV/PGS
$ j& G2 a3 W3 l0 r2 T4 I5 qCodec ID/Info                            : Picture based subtitle format used on BDs/HD-DVDs
) m1 N" j! M$ s3 A- uDuration                                 : 1 h 18 min
3 I9 q# S. G5 G! f. eBit rate                                 : 43.6 kb/s7 q( Z! I& j1 O$ j- k4 _- F
Count of elements                        : 2856# H0 V1 G5 y: A2 g4 D
Stream size                              : 24.4 MiB (0%)
6 a$ W8 W* Q" K: N7 i. }. ILanguage                                 : English
1 u/ M/ K2 y2 v# [- m8 J$ lDefault                                  : No
7 d6 ^: w$ `( {* I5 |1 l) D. sForced                                   : No
" I6 Z8 s1 ~- I3 BText #2" m3 _7 ~1 ~+ t- F) }3 b
ID                                       : 4
! H& O1 Q1 U3 |0 W/ U+ X& SFormat                                   : PGS* ?/ Q* ?9 y+ y. V0 O% [
Muxing mode                              : zlib
  y) V! J2 |8 l/ P1 k: bCodec ID                                 : S_HDMV/PGS' R* r9 o/ P, ]
Codec ID/Info                            : Picture based subtitle format used on BDs/HD-DVDs, _% Q( }. V0 J
Duration                                 : 1 h 20 min
3 Z  U. Y, |  T2 x4 GBit rate                                 : 35.3 kb/s
# b7 z# w/ Y; FCount of elements                        : 2564' a/ F# N* e1 T5 {& W- A5 [
Stream size                              : 20.3 MiB (0%)0 O# v2 n! i/ V- M7 s  n, D7 U, u$ m
Language                                 : French
' k+ [8 l4 ?) K2 \6 W  PDefault                                  : No
+ ?7 F( L6 `4 x/ r+ j, CForced                                   : No8 k0 k. B' C- F" \# q7 \. Y
Text #3
+ t. M5 C9 {9 R+ IID                                       : 5
6 h9 q$ C9 ]* ?, O1 D+ I! cFormat                                   : PGS
! _  i! N0 X- Y! W: T7 IMuxing mode                              : zlib
$ }# T) e; z+ L: h8 J: g5 cCodec ID                                 : S_HDMV/PGS
1 p, G0 h' V0 }0 y: \- O* aCodec ID/Info                            : Picture based subtitle format used on BDs/HD-DVDs
0 N3 D' g0 Y* m" ]; E$ ^Duration                                 : 1 h 20 min9 o* O; k* y' ^. H3 H) n" |5 |
Bit rate                                 : 36.9 kb/s1 s- F3 n) A0 i3 b! [
Count of elements                        : 2512! ?6 S# b& d6 {
Stream size                              : 21.3 MiB (0%)$ I! A+ U: p( L# Q8 x5 C( ~/ p
Language                                 : Danish8 L1 ]& z, G( g5 d
Default                                  : No
( b' C& k" t$ ^. ]- V# @+ r' j  XForced                                   : No6 H, N" D% P1 K! ]
Text #4
* I& V1 }. @# Z+ o. d  b3 gID                                       : 69 f2 {0 M$ i) H( k2 G$ A) I1 M5 C
Format                                   : PGS: y# i6 l1 [1 }8 U  e4 m
Muxing mode                              : zlib
8 s' f# A8 ~2 a2 F( }. q% xCodec ID                                 : S_HDMV/PGS
, y6 c( e7 w$ {# H9 s7 P7 g3 zCodec ID/Info                            : Picture based subtitle format used on BDs/HD-DVDs
+ q0 A% n2 V0 sDuration                                 : 83 ms) U' ^) @( A# e0 b  l
Bit rate                                 : 6 746 b/s' D$ c- X+ ]9 L* u  W+ A
Count of elements                        : 2% @. e5 g% c$ h: {3 R7 x
Stream size                              : 70.0 Bytes (0%)# m- x8 C# G7 m7 ~7 f. n
Language                                 : Spanish
% J# [3 U) y" u" D% `8 {Default                                  : No& ~8 {# \& U: ^6 N, u* K
Forced                                   : No
" \- X/ K3 ~2 `! _Text #5
$ ~6 O  n. G, \5 ~; a3 B  [8 w/ o1 ~' D1 v# IID                                       : 7
. U* x2 U6 U1 oFormat                                   : PGS
' ]8 t7 s' x* @& T( ?Muxing mode                              : zlib+ ]+ O0 l9 D: {; `) O# N# L
Codec ID                                 : S_HDMV/PGS( v% t# H) ]. q
Codec ID/Info                            : Picture based subtitle format used on BDs/HD-DVDs$ c+ l9 n! i4 x7 B( w( ?7 t
Duration                                 : 1 h 20 min# g& i) y! G# N% e
Bit rate                                 : 35.8 kb/s9 [0 u% w* c8 b9 K9 \
Count of elements                        : 22764 S" P; d  H( W: R% X+ p, W
Stream size                              : 20.7 MiB (0%)
" U( _/ m$ I8 Z0 }9 t; Z6 |( Q* O+ aLanguage                                 : Finnish
' K  g" u. o* M6 C8 S% k4 MDefault                                  : No
/ a* a! E" h8 OForced                                   : No
! f0 N4 A" G& V5 S5 h2 b  r8 ^+ BText #6/ R6 d1 a# M% v2 S: I5 o
ID                                       : 8/ X5 u% a6 S6 F  Y
Format                                   : PGS
! s: @7 {2 z. \, D/ dMuxing mode                              : zlib5 D  @6 O2 A9 N2 O$ V$ Q
Codec ID                                 : S_HDMV/PGS1 A* V* j5 \- ^2 f
Codec ID/Info                            : Picture based subtitle format used on BDs/HD-DVDs
* u1 m4 N- g4 |3 s7 \" p) }7 bDuration                                 : 1 h 20 min+ E& I$ ]' b, E0 O7 \4 K2 [5 ^
Bit rate                                 : 37.7 kb/s& Q3 |0 R. K8 D7 I. n
Count of elements                        : 2314, o& i( e. E; q7 e: \
Stream size                              : 21.8 MiB (0%)$ p6 W" K' a1 c, F. K
Language                                 : Norwegian
4 h. |0 M9 b  l% zDefault                                  : No' D2 O4 t- F: u8 [5 i0 ~1 x
Forced                                   : No
7 |  \8 s( V- k1 S7 sText #7
* y6 {' I8 S2 K3 I7 tID                                       : 9
) ^- ~, u4 n7 ]5 _1 s! F8 }Format                                   : PGS
5 \5 i4 m; Q- K7 h/ V0 n4 Y' B2 ~Muxing mode                              : zlib
( R1 C$ I( D0 k0 a( H6 x" zCodec ID                                 : S_HDMV/PGS8 ]8 H+ g# |' d4 S& J2 @1 c5 n% ^
Codec ID/Info                            : Picture based subtitle format used on BDs/HD-DVDs0 a# S+ O0 `# ]. r* \8 u# ]1 b" B
Duration                                 : 1 h 20 min# n) r) _+ D: |5 F$ s, u; D3 ^
Bit rate                                 : 36.4 kb/s& c  \" m: k/ }# |2 {2 F" ]) R8 q
Count of elements                        : 2528
+ T' p" N; r% y* zStream size                              : 21.0 MiB (0%)
# C" ?3 W7 @1 S9 d3 Z4 f2 lLanguage                                 : Swedish
7 L3 C8 W5 g! _Default                                  : No+ v: S. ^4 v  M- I- S
Forced                                   : No3 C7 J) D+ x; O1 x, [
Text #8
. z/ Q5 N' I7 JID                                       : 108 ~. F: M% ^4 W# b! F! H# D
Format                                   : PGS
/ j2 E2 K0 k% V2 r7 s- rMuxing mode                              : zlib. m/ c. `3 M$ c6 q+ L; g
Codec ID                                 : S_HDMV/PGS
0 a" T6 \8 Q2 @5 l% m! H( }Codec ID/Info                            : Picture based subtitle format used on BDs/HD-DVDs
: A5 L4 ~* f' h7 G6 o+ e) E9 n. T- jDuration                                 : 2 min 25 s3 u( {9 M. |+ a5 Q& c; ^$ z4 S
Bit rate                                 : 2 362 b/s
+ k' A' m- U5 ~* M, {' ?4 lCount of elements                        : 4
' w: s# F5 s! M  [4 h  WStream size                              : 41.8 KiB (0%)
5 a% O4 y7 |; n: ILanguage                                 : French! b7 S3 A- b6 `6 O9 e# s' q
Default                                  : No
9 L' U# k$ A, L3 mForced                                   : No( s9 i& T" i9 V3 z) \
Menu7 q: `# v- h0 z( X7 I+ O, M
00:00:00.000                             : en:Chapter 01# u* @9 w0 J& \
00:08:35.890                             : en:Chapter 02
3 ?  v0 e9 q. e/ `4 @9 a8 c9 ^00:17:30.383                             : en:Chapter 031 N5 X% y& J+ C: q
00:27:37.823                             : en:Chapter 04! B  u5 }* P/ B  e- b" X
00:36:30.688                             : en:Chapter 05  e0 G$ x6 H  y% ?8 J
00:44:25.204                             : en:Chapter 067 y4 G- q3 C5 [
00:51:21.453                             : en:Chapter 070 r- ^% l0 E: R
00:57:24.232                             : en:Chapter 08
! y) ^4 }4 O/ B2 p01:04:08.720                             : en:Chapter 09/ X3 Z( v1 b+ m" M( u/ f& C8 j
01:13:58.017                             : en:Chapter 10( j2 p  ~( l( a* p% ]5 c! I
01:18:54.188                             : en:Chapter 11
3 [/ l! [0 k" g- q* e0 V" R9 d$ }5 p* z% o1 U3 p4 ?1 _% @
Lego.DC.Shazam.Magic.and.Monsters.2020.1080p.BluRaycd.x264-WUTANG+ j; d$ Y4 Z, Y4 N9 h& Z, |0 S

2 [6 k1 S$ \4 C6 b9 \Date_______: 2020/06/07; O7 U7 U  j6 d& S9 L& e
Source_____: BluRay
, t% w  v7 {+ [1 q0 m" s- S* }2 @5 M7 f2 W- @Ripper_____: Danjah da hood1 t/ X+ Y1 [3 U' I. c& X: G
iMDB_______: https://www.imdb.com/title/tt12093878/; d; U0 _8 U- q3 [& q$ h

# T: z3 o' U, \  ?/ d, n8 iVideo______: x264 8991 Kb/s @ CRF 17.2 - 1920x1080 - 23.976 FPS: N' Z& x$ d- |9 @1 p4 }
Source_____: 15528 Kb/s
. ~) i/ i7 [+ u+ s% rAudio______: English DTS-HD MA  5.1
7 N. v$ w( t" s, H
. x+ i$ M8 e4 XSubtitles__: English French Danish Finnish Norwegian Swedish
! X" e3 @: \; D, R- c/ @8 W. x' ~9 O9 b- t* g& x
Duration___: 01:21:21.419
: u) {* G& S5 w" |3 f2 a$ X% lSize_______: 6683 MB8 j0 i- V7 }0 K9 t- a" ?1 }, h
+ ?3 z" J' U: a0 w/ z
Note_______: Spanish subtitles track is empty

4 }+ c- k4 ?3 a
游客,查看本帖隐藏内容请回复 | 加入VIP贵宾组可免积分免回复下载 了解详情 | 还不是会员:点击获取邀请码 Invitation Code

本版积分规则

小黑屋|Archiver|蓝光电影资源网

GMT+8, 2020-10-29 12:34

快速回复 返回顶部 返回列表