BluRayCD Forum

 找回密码
 立即注册【分享大片】

QQ登录

只需一步,快速开始

查看: 82|回复: 4
收起左侧

[蓝光原盘] 乐高DC沙赞:魔法与怪物 [REMUX无损版] Lego DC Shazam Magic And Monsters 2020 1080p BluRaycd REMUX AVC DTS-HD MA 5.1-FGT 10.85GB

[复制链接]

5395

主题

5749

帖子

6万

积分

Forum Moderator

金币
3790 枚
体力
25395 点

卓越贡献勋章VIP蓝光勋章

迅雷电影 发表于 2020-9-21 01:26:43 | 显示全部楼层 |阅读模式
When the boy hero Shazam is offered to join the Justice League he is reluctant about it, but when his rivals the Monster Society put the League in peril he's the only one who can save them., }# G4 [+ R/ K, K& X2 A

6 R% B. s' G: i 01.jpg
. a3 P3 N2 w* t& ?7 M( k* Q7 i
◎译  名 乐高DC沙赞:魔法与怪物
2 M8 d, ]/ ?0 V& R◎片  名 LEGO DC Shazam!: Magic and Monsters
9 m) K5 J# Q1 I( _◎年  代 2020
4 g  b7 M4 b( [6 I( Y◎产  地 美国) J+ l( F* }3 e$ Z' O+ z$ v  `
◎类  别 动画
; Y! z# F4 ~4 H/ F; M◎语  言 英语
, q9 ^0 o  h4 x  x) D◎上映日期 2020-04-28(美国)
2 C- t- J6 m+ @◎IMDb评分  6.2/10 from 531 users- ^$ x8 a2 V  W5 d2 {
◎IMDb链接  https://www.imdb.com/title/tt12093878/
# C: [2 W3 c4 q& O! \' A◎豆瓣评分 7.3/10 from 1,943 users2 k1 T6 F* ]9 i0 v$ i
◎豆瓣链接 https://movie.douban.com/subject/35030774/
! W. Q; {2 Z5 |. x- H4 v/ d  {◎文件格式 x264 + DTS
' \8 b/ |2 ?% P! r, P* E3 o4 J◎视频尺寸 1920 x 1080
' H- ]5 Y4 `/ C+ I/ t◎文件大小 1DVD 10.85 GiB
+ g2 u. W2 p$ S) c( k  E# y/ a! v◎片  长 1 h 21 min
: v7 w1 w8 Z6 o) j/ b" |◎导  演 马特·皮特斯 Matt Peters
3 F* `" B& Q: l' ~6 d+ [; Y◎编  剧 杰瑞米·亚当斯 Jeremy Adams+ o% \1 A9 x) V3 t4 r& c& E
       C·C·贝克 C.C. Beck2 r/ e) u" ~6 h) N0 Y: s
◎主  演 西恩·奥斯汀 Sean Astin
% H0 }5 ?# }$ ?3 E( a       迪·布拉雷·贝克尔 Dee Bradley Baker
9 Q2 [! O  q) v, l. k: N       特罗伊·贝克 Troy Baker
- J: w! o/ U! `' U       扎克·卡利森 Zach Callison, i( L! o, {% x, z8 E2 M
       格雷格·埃利斯 Greg Ellis8 c+ V, {8 e, q4 A3 @
       拉尔夫·加曼 Ralph Garman
4 ]# e) P! f2 W' U       格蕾·德丽斯勒 Grey DeLisle
4 q: d8 a. y$ {& d  S3 T& E' b       詹妮弗·黑尔 Jennifer Hale
- z) k1 d- c) L. @1 s       乔什·基顿 Josh Keaton- l: a8 y& m4 M% d' p4 a5 r& a
       汤姆·肯尼 Tom Kenny
4 M0 z+ |' R- \" ?2 Z7 o1 o- u# V       Erica Lindbeck+ O2 ?# n) L, |. l! \
       克里斯蒂娜·米利齐亚 Cristina Milizia
. G6 W6 @! m; H8 b$ n1 n       诺兰·诺斯 Nolan North
$ A* K! i/ C3 T5 M3 t       弗雷德·塔特西奥 Fred Tatasciore
6 p! D* m0 B, Q- n       詹姆斯·阿诺德·泰勒 James Arnold Taylor- [- _) r9 n/ X) q# G: s
- P. J3 T' f1 N7 s
◎标  签 DC | 动画 | 乐高 | 超级英雄 | 美国 | 2020 | 漫画改编 | 正义联盟
( \* M, I# ]" o5 l7 b% v* C4 v' o1 Z* r6 e: l3 r
◎简  介  
6 F6 i0 g- v+ ~; b7 N, W7 r& f. g( X2 _" y( Z
  当男英雄沙赞被邀请加入正义联盟时,他并不情愿,但当他的对手怪物协会将联盟置于危险境地时,他是唯一能拯救他们的人。
  m8 J$ k/ U) \: f0 C8 p% E$ i2 P% M1 ]& K  z9 s! `, l6 w
  10-year-old Billy Batson shouts a single word and, with lightning bolts flashing, he transforms into Shazam!, a full-fledged adult Super Hero. It doesn't take long for Superman, Wonder Woman, Batman and the rest of the Justice League to take notice and invite the earnest do-gooder to join the team. But to become a member, Billy must reveal his true identity. While fighting off the evil Mr. Mind and Black Adam, Billy learns that he must trust others – and that nothing creates trust like helping those in need. Join the good fight with this giant-sized LEGO DC adventure!
9 u+ o- t7 o( H- Q; u
Video$ H3 z, b* d: T/ ~3 y+ u
ID                                       : 1
5 e- j/ @% C2 H. k, xID in the original source medium         : 4113 (0x1011)5 S/ S8 t- k' r* h' x& z
Format                                   : AVC8 [6 t2 U6 D$ v+ A
Format/Info                              : Advanced Video Codec8 R& M. z! y1 l# N$ O
Format profile                           : High@L4.1
( T' }1 K8 A/ }+ A7 W" \" RFormat settings                          : CABAC / 4 Ref Frames$ n1 H( G4 R; |6 n6 c' L
Format settings, CABAC                   : Yes6 R% S4 c2 \' Y0 ^0 o4 T  ~
Format settings, Reference frames        : 4 frames; J# k1 W; Y2 q
Codec ID                                 : V_MPEG4/ISO/AVC
. J( B' M4 L  \* {4 ]. z3 |: jDuration                                 : 1 h 21 min
" I4 {& C  l7 J9 RBit rate mode                            : Variable
0 ]/ U! R0 R9 g) PBit rate                                 : 15.2 Mb/s
- q* X; N/ \* R7 P) \5 u. Z6 oMaximum bit rate                         : 38.0 Mb/s7 T8 W. U8 J/ o) I9 x; T% U( K& m
Width                                    : 1 920 pixels
9 {  }( b! N2 e  b* r7 G' JHeight                                   : 1 080 pixels
/ _  c- z5 r- t' T" C( ?' o" GDisplay aspect ratio                     : 16:9
! O1 H! A5 E6 N. }Frame rate mode                          : Constant
: `! {0 d$ ?$ K. z: i# o: GFrame rate                               : 23.976 (24000/1001/37687) FPS
, i% C7 A0 B' H: NColor space                              : YUV
5 }1 O% f. N) v+ @Chroma subsampling                       : 4:2:0" O" ^9 d* n. q2 z) X; p
Bit depth                                : 8 bits
6 P# t9 i- a( n) ?& BScan type                                : Progressive
2 _3 }  d; w1 E, X3 J) o# A$ CBits/(Pixel*Frame)                       : 0.305
; U% p( [) n) x* VStream size                              : 8.63 GiB (80%)
$ H1 z, h: v3 [+ E% Z2 fTitle                                    : Lego.DC.Shazam.Magic.And.Monsters.2020.1080p.BluRayCD.REMUX.AVC.DTS-HD.MA.5.1-FGT
4 E/ ~6 b, z7 }- P7 Y) o. E& fLanguage                                 : English: W, z, z  q3 {' h5 g
Default                                  : No
+ ~& j* ?6 b& J' r2 Z: r% Z$ oForced                                   : No) r, I  C$ j0 P+ N0 H5 {& g$ C0 T
Original source medium                   : Blu-ray% }" ?  t- N: f8 c* z0 N
- e. u4 [, c5 }  p
Audio #1
/ K1 R. E! o' u: J& E: N- fID                                       : 2
: I+ }6 S" }8 K3 c1 MID in the original source medium         : 4352 (0x1100)
* x$ F2 {7 O9 _7 w" FFormat                                   : DTS XLL! s0 A' u) ]' l& J/ }' P
Format/Info                              : Digital Theater Systems
- T2 U7 J0 u/ DCommercial name                          : DTS-HD Master Audio  N% P. h0 q' A" a' b/ S; |$ ]
Codec ID                                 : A_DTS
7 x; K  W( L2 ^6 M0 T2 YDuration                                 : 1 h 21 min$ j. z* h$ c3 Y- m7 b7 K) n0 s" Z
Bit rate mode                            : Variable
6 P( n; f- S# R6 C2 V- Z' mBit rate                                 : 2 393 kb/s
1 T  j1 E& a) `5 B* U; X! zChannel(s)                               : 6 channels; Y* _& T: c2 D" l  L4 P
Channel layout                           : C L R Ls Rs LFE1 d. Q% L2 e6 S/ W) y( a- w* A
Sampling rate                            : 48.0 kHz* a' S- D! n" F- H) b- L# ]* x
Frame rate                               : 93.750 FPS (512 SPF)1 N: ]7 J" E6 y' S7 H' Y- t
Bit depth                                : 16 bits
/ }0 p; L  X6 K% l& eCompression mode                         : Lossless( S: t- j; r6 v# m3 _
Stream size                              : 1.36 GiB (13%)) O! L& V( {$ D( S. C0 G
Title                                    : Lego.DC.Shazam.Magic.And.Monsters.2020.1080p.BluRaycd.REMUX.AVC.DTS-HD.MA.5.1-FGT- C' f; g4 i2 e  P
Language                                 : English
5 k- k4 o$ E6 k- c; {8 S1 oDefault                                  : Yes
- n9 W" G3 y5 @' Z: x1 R) z* L4 kForced                                   : No* E! r  R0 @4 e" ?
Original source medium                   : Blu-ray
- z3 J8 F- l! p" ?0 M1 m6 t' C  F% T$ P- T( p4 E) j0 M* S1 F- Z
Audio #2& C1 O" ]+ A5 u3 a
ID                                       : 3
5 @- s% j: N. ^2 R) a* }ID in the original source medium         : 4353 (0x1101)
) n( _0 i- n8 h$ y' D8 m# H  cFormat                                   : AC-3
3 g! Y; y% Z$ a3 P2 OFormat/Info                              : Audio Coding 35 P" e9 N, X) E2 z3 n( R# e& }
Commercial name                          : Dolby Digital
; S5 x* m+ W$ T5 vCodec ID                                 : A_AC3
4 X2 `" f% U0 h( I5 K3 o$ RDuration                                 : 1 h 21 min
8 P9 J2 ?& I1 m0 @7 n9 _2 QBit rate mode                            : Constant3 j  j, |4 L$ I0 G( x! H% r" @
Bit rate                                 : 448 kb/s
$ `/ ]+ U/ s4 [9 l# g* e2 n  LChannel(s)                               : 6 channels
4 A2 w- U3 L% c( k6 B0 F: dChannel layout                           : L R C LFE Ls Rs) E' p8 T( [! \7 @
Sampling rate                            : 48.0 kHz' `6 a% s$ Q% M8 C# ]
Frame rate                               : 31.250 FPS (1536 SPF)
" {/ M+ n5 |% R9 F  {( UBit depth                                : 16 bits% W- P" e$ J" z  y
Compression mode                         : Lossy
, y+ V- g) K4 D% TStream size                              : 261 MiB (2%)' e- }7 f8 v/ _2 ~! j0 F4 T
Title                                    : Lego.DC.Shazam.Magic.And.Monsters.2020.1080p.BluRaycd.REMUX.AVC.DTS-HD.MA.5.1-FGT* ^& S7 Q: N2 y$ q: p1 h- Y' {
Language                                 : French; Q- I. q" e7 M+ Y; j' @
Service kind                             : Complete Main
' b, s9 Y3 V( j6 t! w( f  x& tDefault                                  : No9 H: t* z& m  b, u* g
Forced                                   : No* h* m, J" }% _6 h2 {# c
Original source medium                   : Blu-ray3 i- X# s# P, r# g
# f. s% q- E3 T+ Q0 `
Audio #3! Q9 Y( \6 }# L
ID                                       : 4
' u7 Y3 l  n" Q8 _% H% j- a+ `( KID in the original source medium         : 4354 (0x1102)# S( f1 k7 B- `3 ^+ O
Format                                   : AC-3! j4 t8 B5 K8 m8 d7 d
Format/Info                              : Audio Coding 3
# C* j+ k0 t' P8 k& iCommercial name                          : Dolby Digital/ k3 T. k( \( ]( j
Codec ID                                 : A_AC3& w/ p$ V( g* ]/ \
Duration                                 : 1 h 21 min) j4 n" i! Z  C8 B9 y! E* P8 _
Bit rate mode                            : Constant
! x5 }( X) W- W1 _Bit rate                                 : 192 kb/s
. _: d0 ?/ F: {3 H: [% n) V5 cChannel(s)                               : 2 channels4 C  m( a* j! D# D/ E% O7 b$ n; m* s* I$ \
Channel layout                           : L R. i3 E( z+ E: ?' p( ~' y
Sampling rate                            : 48.0 kHz8 w) @: @5 t# z8 _
Frame rate                               : 31.250 FPS (1536 SPF)
; r1 u" V$ j, P  FBit depth                                : 16 bits; M' z2 Z( T2 \8 a; ?
Compression mode                         : Lossy3 y4 q1 F  [/ T: u: u
Stream size                              : 112 MiB (1%)7 o* @5 Q1 ]! t) g8 l! ~
Title                                    : Lego.DC.Shazam.Magic.And.Monsters.2020.1080p.BluRaycd.REMUX.AVC.DTS-HD.MA.5.1-FGT
$ K$ {0 L1 B& M0 g- n6 OLanguage                                 : Spanish5 [: [: e) u! ?( s3 V
Service kind                             : Complete Main
5 }* V9 `: m( l! w: P7 eDefault                                  : No
  t) f6 i6 i; f7 B. J- L: SForced                                   : No
: ?" A3 e- u0 B& {  UOriginal source medium                   : Blu-ray1 d1 P; X! A! z8 Z6 c8 p; i& a

; F  g) s( S9 ]Audio #4
' E0 O- T# m. e6 E4 b9 AID                                       : 5
. @9 I4 E  c$ Y' O3 ^ID in the original source medium         : 4355 (0x1103)
  X( E+ k8 j. T2 n6 x/ o+ ^Format                                   : AC-3- A2 G7 B, o: R' v" Z3 y" R
Format/Info                              : Audio Coding 3
9 S' S4 {/ A: z0 R& _# U  h% fCommercial name                          : Dolby Digital+ {: l! o# k& _" ]% W( J; W
Codec ID                                 : A_AC31 u# {, r8 d) H7 d0 y. i
Duration                                 : 1 h 21 min8 P7 L( o3 O' L) L) s
Bit rate mode                            : Constant, a$ n  ~+ v9 ]2 a  c
Bit rate                                 : 192 kb/s
: B, }7 V8 G( cChannel(s)                               : 2 channels2 x# e% T+ E' I$ z
Channel layout                           : L R
) m8 B8 R( O" G9 ]' @Sampling rate                            : 48.0 kHz1 r; J9 p/ [3 T" D& Y7 m: `
Frame rate                               : 31.250 FPS (1536 SPF)
/ x6 D7 n: }0 ~& MBit depth                                : 16 bits
) Z# H2 T; O/ r- Z* ]" S1 `1 W# sCompression mode                         : Lossy
+ e1 t1 R/ v5 [& i9 v: M: k1 vStream size                              : 112 MiB (1%)
( F) l4 V' J' v; K+ K+ T. hTitle                                    : Lego.DC.Shazam.Magic.And.Monsters.2020.1080p.BluRaycd.REMUX.AVC.DTS-HD.MA.5.1-FGT
2 m" b0 b7 _$ K6 c/ w" uLanguage                                 : Danish
8 V  c2 X) r8 f+ v/ z; s6 zService kind                             : Complete Main& r  {8 _/ ?. @8 L: S
Default                                  : No
! S$ }  A$ `" ~( y* Q" SForced                                   : No
; ^! ]+ z) I2 p6 n+ zOriginal source medium                   : Blu-ray
- M! s* R8 x  q& b! z- R# c7 G* D( k* E; f  Q- z
Audio #5& K7 W& j: {" G' A
ID                                       : 64 g* A% l( t5 r& d; C: q8 F
ID in the original source medium         : 4356 (0x1104)5 U+ i0 }) y! L* J  G% A
Format                                   : AC-3
! P3 f% A6 R: ~" q" m# J0 N& m6 R' sFormat/Info                              : Audio Coding 3$ }! t7 ]& g3 U: J" V7 ^
Commercial name                          : Dolby Digital  Q0 a2 n3 J/ i1 d
Codec ID                                 : A_AC3
* |& C2 u: V+ z1 ~9 `4 x  P1 k& `Duration                                 : 1 h 21 min
) a* g! T/ G' a8 G0 tBit rate mode                            : Constant
9 O9 o8 I+ D- [4 {; _4 A. Q6 rBit rate                                 : 192 kb/s
/ b5 [$ W0 b7 M9 \) OChannel(s)                               : 2 channels
) ^% ^0 y7 `; YChannel layout                           : L R
  F" b- I3 c$ `( FSampling rate                            : 48.0 kHz1 c$ V1 T+ m. B2 E! e
Frame rate                               : 31.250 FPS (1536 SPF)8 E  E) J) Y# T# K" `7 q
Bit depth                                : 16 bits
7 {. R! G! a2 p" l; F6 KCompression mode                         : Lossy
, U' Q! n3 {/ C! C$ DStream size                              : 112 MiB (1%)
- ]  ~, D1 m7 q# H3 BTitle                                    : Lego.DC.Shazam.Magic.And.Monsters.2020.1080p.BluRaycd.REMUX.AVC.DTS-HD.MA.5.1-FGT+ M% T! d+ Q. U
Language                                 : Finnish
2 l( w5 ^' m" K# u! o+ X+ {Service kind                             : Complete Main% U6 ~8 a# ?& @6 S* N
Default                                  : No
! v. l. {4 v7 b; S* iForced                                   : No0 I2 r* X$ c3 W: c# D) D8 Y1 m
Original source medium                   : Blu-ray
; B  L- @  ~; d/ p  T5 V$ B" g! F* M3 u8 Q% k4 s$ K
Audio #6" }! t7 u4 U8 V2 x% C% }
ID                                       : 77 F3 L5 c& s% H  M$ \
ID in the original source medium         : 4357 (0x1105)
" w0 o" {3 c7 z6 v* k; n9 |9 W! l- I& RFormat                                   : AC-38 v. p% y7 G: {
Format/Info                              : Audio Coding 3
: S) y$ V$ L1 i" P- a, W/ B6 OCommercial name                          : Dolby Digital
3 G. z% }5 ?$ b7 Y/ n  h. E% ^Codec ID                                 : A_AC3' @# S2 W" {4 L, ~8 ]8 c
Duration                                 : 1 h 21 min3 Z/ S5 Y3 d' k0 B4 ~7 l' x7 n
Bit rate mode                            : Constant
4 |2 f3 {: k( n3 X7 R) WBit rate                                 : 192 kb/s
% q, D& {0 J" ^4 |4 S7 Q2 j. oChannel(s)                               : 2 channels3 u  J. e( k8 ]' q, V
Channel layout                           : L R" \5 l& k; P; {9 D( x: w
Sampling rate                            : 48.0 kHz. R, ?) r) R& X9 H! \# l$ b) k8 p
Frame rate                               : 31.250 FPS (1536 SPF)/ g$ v% B" T( U9 s+ p7 c. O2 e( J4 r
Bit depth                                : 16 bits
) d+ u& \4 P; a1 X3 O7 p8 PCompression mode                         : Lossy
( W3 Y6 K$ L- d; M3 [9 n, CStream size                              : 112 MiB (1%)
2 V" E* Q% d. F0 qTitle                                    : Lego.DC.Shazam.Magic.And.Monsters.2020.1080p.BluRaycd.REMUX.AVC.DTS-HD.MA.5.1-FGT
2 d8 N  Z4 f9 ~$ BLanguage                                 : Norwegian
$ b7 N+ q& p9 g, n# b( _Service kind                             : Complete Main
! Z% D/ R8 C6 r: O" A. D- KDefault                                  : No' K& C# `- z0 I& \" y* g
Forced                                   : No  `" H1 I, @) M4 S, A! s
Original source medium                   : Blu-ray
; L; o; g. ?, M8 ~8 r- j8 ]8 h9 [! W7 M. V! b
Audio #7+ ]; a' L" Y2 F  ^
ID                                       : 8. B5 G8 B# Z$ w
ID in the original source medium         : 4358 (0x1106)9 p' H; X  C& w7 Q9 z/ m
Format                                   : AC-3  ~* @5 b0 g+ C$ _
Format/Info                              : Audio Coding 3
$ |1 k/ z$ h1 s  aCommercial name                          : Dolby Digital
/ H' ~2 Y" N8 x1 MCodec ID                                 : A_AC3
. o5 B8 U  F4 V  j3 e# z# E2 `3 ^Duration                                 : 1 h 21 min
$ q$ E7 c9 B' j2 U1 y+ a0 zBit rate mode                            : Constant) S4 p/ U7 F$ v  F6 x
Bit rate                                 : 192 kb/s3 w6 p# L% @0 y& b7 Q
Channel(s)                               : 2 channels; r; _3 `2 B( H, i
Channel layout                           : L R- J% B! G$ F2 m' k* n
Sampling rate                            : 48.0 kHz! L* z5 P1 T. Q6 c' ~0 k7 H; o
Frame rate                               : 31.250 FPS (1536 SPF)
$ D( G5 u' A! F/ b4 }4 K: DBit depth                                : 16 bits
- q' y- P8 v0 Y0 T/ hCompression mode                         : Lossy; y6 N7 n3 c$ \0 e( I5 c
Stream size                              : 112 MiB (1%)
4 ^7 [+ H# d/ J$ i1 ?. L( aTitle                                    : Lego.DC.Shazam.Magic.And.Monsters.2020.1080p.BluRaycd.REMUX.AVC.DTS-HD.MA.5.1-FGT. K5 C( ^6 ]4 C* m' R" l  T+ [  v
Language                                 : Swedish: e$ x8 v/ {6 H5 f3 O$ Q4 ?( c
Service kind                             : Complete Main9 N5 U& S" s( V4 F
Default                                  : No
8 F; i7 q) p9 B$ p* b6 aForced                                   : No
8 M0 ~5 T- G6 e" V  \: Q8 A+ hOriginal source medium                   : Blu-ray
# Y0 ~+ }  r# j; u% C5 h2 I3 a) b$ A  Q/ F' U
Text #1
7 q% h  i. T, R% a3 z4 yID                                       : 9
0 }" b" b+ f3 h5 ]% DFormat                                   : UTF-8. r( D. [3 H3 ]/ I8 r+ v( b) F7 j% f
Codec ID                                 : S_TEXT/UTF83 o3 A4 g: p5 I8 ]: B8 `
Codec ID/Info                            : UTF-8 Plain Text/ |* f. E2 J% R- C
Duration                                 : 1 h 18 min
6 L2 p" q! H$ z% `Bit rate                                 : 64 b/s5 _3 U' t0 g) |+ G8 k1 p" k" T  E
Count of elements                        : 1281* f+ t4 `; h5 ]+ f$ v9 ]
Stream size                              : 37.2 KiB (0%)- l' w( R. w0 n" ^! ^
Title                                    : English-SRT
7 K: B' S" k- d8 z8 o! G. gLanguage                                 : English9 O+ u' h2 x/ _0 f) X; x2 _: C
Default                                  : Yes; J- S- w: L1 ]8 X4 j/ J. ?
Forced                                   : No
; ^. x; Z' h! i6 {: {- X& L/ Z4 R$ \) `
Text #2
! X4 h* ^, s! o; ~/ D9 eID                                       : 10
  b/ _/ J$ S1 H: w+ hID in the original source medium         : 4608 (0x1200)
6 c8 g% i$ ~! Y( [6 h( \3 q+ ?Format                                   : PGS
# |# [0 q! E9 S3 S! e/ aMuxing mode                              : zlib
# Q1 B- ?. I( F. m. F6 sCodec ID                                 : S_HDMV/PGS: h/ F2 E2 H# X. a4 p0 H% Y
Codec ID/Info                            : Picture based subtitle format used on BDs/HD-DVDs
) c8 {+ j" I4 x- a  l) R7 ~Duration                                 : 1 h 18 min
* n. P* d9 v: `  a0 bBit rate                                 : 43.6 kb/s
6 g/ C- f- l$ H' f' ACount of elements                        : 28563 w2 f) g9 O  f5 V/ z' J5 B7 M
Stream size                              : 24.4 MiB (0%)
' ]/ W* X1 [2 E7 j% |Title                                    : English-PGS4 e3 u/ r! S  [
Language                                 : English
* |0 R" Q$ U" C- T; z4 |Default                                  : No
; m) S7 H% m0 _) vForced                                   : No
' I% f( i* n" I! @8 N( gOriginal source medium                   : Blu-ray
2 \  B* n  O; s- }
1 u7 P5 i/ P, o# p' rText #3
  W2 r* L+ y! v+ p  SID                                       : 11
7 r; ]' q8 i) G/ |ID in the original source medium         : 4609 (0x1201)
, a! ?, v! ~( p- f1 ^! S4 Y' S. @Format                                   : PGS5 R3 y5 O" g1 m5 y; n0 I3 ?0 L
Muxing mode                              : zlib
) x: O- W5 x0 w- T- m# f. iCodec ID                                 : S_HDMV/PGS
5 a; p; J/ g3 O6 }+ A2 [) eCodec ID/Info                            : Picture based subtitle format used on BDs/HD-DVDs
, B. P6 T, B3 i: k" cDuration                                 : 1 h 20 min
9 g9 u8 ?- c* jBit rate                                 : 35.3 kb/s
; H4 Q- H, l9 b4 G1 F: VCount of elements                        : 2564
8 ~5 ?3 e0 u- j6 y$ m& UStream size                              : 20.3 MiB (0%)
& Z# s. `# X  a/ m! g" P9 |Title                                    : French-PGS6 k3 ?  z8 }4 z4 @& x7 `+ [7 W# y
Language                                 : French
3 e: J0 k: U! f- r  l! N' \! pDefault                                  : No2 M# ]7 S8 ^) S% x6 ~
Forced                                   : No& _& K6 }; s6 n1 V! {
Original source medium                   : Blu-ray
, F% B6 S1 O. x" W/ S/ u
8 @/ ~  X5 k( G0 jText #4( r- L2 n2 g% A. S+ r
ID                                       : 12: q5 Y% K$ F$ i, W, X
ID in the original source medium         : 4610 (0x1202)
+ d$ H. i6 F( q/ C) R! mFormat                                   : PGS- t$ h; F* ]8 f! d) X
Muxing mode                              : zlib
8 x% G- H7 y5 L! z8 ~5 ]Codec ID                                 : S_HDMV/PGS
& d. ]7 i; @/ Y' cCodec ID/Info                            : Picture based subtitle format used on BDs/HD-DVDs
, L9 ]' N9 C: T$ D6 b8 B9 BDuration                                 : 1 h 20 min
/ X: }. |8 N6 Y; Y: C1 ?, IBit rate                                 : 36.9 kb/s
! c! i4 L/ i3 y! n" [& P, H! @; c8 WCount of elements                        : 2512
% W4 u+ H4 D* W7 |/ S) z3 WStream size                              : 21.3 MiB (0%)
# X$ X# ]  A6 LTitle                                    : Danish-PGS- n* g3 u# B, z# Q8 {" S9 ]
Language                                 : Danish
, z8 A* `: F& h! D  o9 u  }* gDefault                                  : No, w' z$ t8 v; S3 @! n2 Y9 `
Forced                                   : No
( n) q1 d- q$ ^  X+ w, J: b: j5 c. DOriginal source medium                   : Blu-ray! n, s4 M2 k  S' b6 x! q
; [4 t; ^9 T! ?1 t# M& {; q
Text #56 E5 X- z/ O: w0 @
ID                                       : 13" i3 G% d/ N$ |
ID in the original source medium         : 4611 (0x1203)  @: E& c" J6 ~  k- C, V; ^0 C
Format                                   : PGS
8 z# W  S1 p) S3 @! p3 U( ^Muxing mode                              : zlib  ?9 Q5 l/ |" i2 E# f9 T0 H' f8 v
Codec ID                                 : S_HDMV/PGS) N6 c+ l) A4 F! u* k- j- N
Codec ID/Info                            : Picture based subtitle format used on BDs/HD-DVDs# z9 o. |2 \$ G
Duration                                 : 104 ms
& O* _6 y/ @* \5 Z& vBit rate                                 : 5 384 b/s
6 h7 R) a: z! NCount of elements                        : 2
% ?1 U4 L( r7 Y9 M, A; tStream size                              : 70.0 Bytes (0%)0 x7 O- X( q  h/ y  D- K
Title                                    : Spanish-PGS% D9 L  f4 {2 A; V4 T6 j
Language                                 : Spanish
* p! O( I' a( E/ [) A/ i% ?4 `Default                                  : No# P2 f& B- W/ Q' N& L7 t; O/ ~
Forced                                   : No+ Y8 Y  c1 _6 E
Original source medium                   : Blu-ray
# B3 S: [" i" a( q, Q+ ^$ g: ^5 U& T0 h/ F8 c0 M$ t
Text #61 Q3 @. R5 v3 f' v+ o5 r1 |4 L3 J
ID                                       : 14( N+ v2 z7 x9 r7 r# f
ID in the original source medium         : 4612 (0x1204)
9 d$ S3 X0 p4 A; `5 DFormat                                   : PGS# h+ ^1 h* }4 g0 Y- T" ?0 \! _
Muxing mode                              : zlib
0 Z) q6 N7 I7 ?4 q$ S1 x& cCodec ID                                 : S_HDMV/PGS! C7 t0 X$ G. e2 F' G
Codec ID/Info                            : Picture based subtitle format used on BDs/HD-DVDs8 N7 \, y0 Q: H# Q( l+ q
Duration                                 : 1 h 20 min. b- [1 D/ ~1 W( g( ~$ c: g
Bit rate                                 : 35.8 kb/s- b2 K: W* x% V; M; a9 I
Count of elements                        : 22764 e. c6 ]4 w' P# H! j
Stream size                              : 20.7 MiB (0%)
% d! Z7 R& I& l- \7 d4 O- a9 lTitle                                    : Finnish-PGS7 F6 O5 j* a) G  D. C! H
Language                                 : Finnish
' u$ ^1 _! B3 t4 f& z+ w6 P' s' KDefault                                  : No4 I4 V  P; ^) R" a9 T$ X
Forced                                   : No
4 k$ l9 n- G' ]Original source medium                   : Blu-ray$ ~8 n1 I$ q, E5 ]

/ P% Z2 X7 u3 ^Text #7
( w9 \1 H1 N7 aID                                       : 15& L$ z: \" X7 p0 M4 Y; w
ID in the original source medium         : 4613 (0x1205). P+ u0 i3 {6 d" I9 B1 y
Format                                   : PGS
6 F6 p7 z* [: W0 Q( ~* D  \: JMuxing mode                              : zlib. Y! t3 D9 q! m5 g
Codec ID                                 : S_HDMV/PGS
' J* |( b! ^' ^" ~& k+ \6 |Codec ID/Info                            : Picture based subtitle format used on BDs/HD-DVDs9 p8 B- q' }5 y( \: K) \
Duration                                 : 1 h 20 min' F% u( w3 S& ~8 I5 d" }
Bit rate                                 : 37.7 kb/s& R1 k& `2 M  D7 _) {% Y
Count of elements                        : 2314
8 K" m- J: }# V1 O* I8 {Stream size                              : 21.8 MiB (0%)
( c! |/ [  a9 E6 G0 r" TTitle                                    : Norwegian-PGS1 E6 Q3 H; D; ~5 d
Language                                 : Norwegian
" \4 J# l6 }+ }Default                                  : No
2 H! ]: |$ x. ~, s6 K* ?Forced                                   : No
( [; Q4 W, s9 p7 b6 M0 COriginal source medium                   : Blu-ray* l2 [% L' g+ [! w" |7 y

, R+ M" ~- O, q0 [1 `& Y, ^Text #8; l3 ~, I, }$ Y& A+ X9 w
ID                                       : 16
! K% _" V& d7 l6 b  YID in the original source medium         : 4614 (0x1206)* |! {/ I1 Z3 v+ A5 e* Y: V& t) @
Format                                   : PGS
& S+ n/ o' x1 O' Y$ A6 s! i  i) VMuxing mode                              : zlib- l5 W2 |( K8 c# U) }( p# p& x  j
Codec ID                                 : S_HDMV/PGS
! X' z+ Z: M2 N! TCodec ID/Info                            : Picture based subtitle format used on BDs/HD-DVDs
3 A0 S% g- N' \& J! B; ]* hDuration                                 : 1 h 20 min& M1 {8 O* t; q; C/ J) _( s
Bit rate                                 : 36.4 kb/s
2 _8 E% N% d! ?+ Z' }: g" }$ m" {Count of elements                        : 2528
5 P$ p) T. ^1 t9 w; kStream size                              : 21.0 MiB (0%)& {5 u, o0 E1 }4 i0 y8 ^7 u
Title                                    : Swedish-PGS
" s- L4 F+ t; z  J7 sLanguage                                 : Swedish0 h% D1 A2 i& E1 V0 G5 Z" }
Default                                  : No* [$ ^. i# K$ K% @
Forced                                   : No1 {1 \% ?% o& x) {
Original source medium                   : Blu-ray
& g" L' d6 p. C6 A7 c3 d6 T/ c
) E% f3 F* G+ v  f" F1 w! EText #9& \1 R. x5 K. \9 x
ID                                       : 17) h6 h2 K7 @) U. Q% Y; k
ID in the original source medium         : 4615 (0x1207)
8 l' d/ Q" l: P# l+ ?6 o6 k5 e# vFormat                                   : PGS! D, j3 C# A$ n- g
Muxing mode                              : zlib# [9 w4 ^! n% M% s) x5 p) B
Codec ID                                 : S_HDMV/PGS- A. u/ J; A! D
Codec ID/Info                            : Picture based subtitle format used on BDs/HD-DVDs
9 v1 c# n( x" a, N+ }: DDuration                                 : 2 min 25 s. y5 s( D6 {5 i4 c3 w0 Q
Bit rate                                 : 2 362 b/s8 P* u) Q/ K* f, T. d7 z9 V7 w) @
Count of elements                        : 4( S0 X5 j! m# E
Stream size                              : 41.8 KiB (0%)  x1 @' G. J* u8 A
Title                                    : French-FORCED-PGS
9 x& G8 {7 B+ Z( m. ZLanguage                                 : French5 O( u5 v5 b$ d3 ]% S- _: E5 d8 ?: N
Default                                  : No
  c9 F3 ^3 t$ A0 |: Q$ ^Forced                                   : No
* i" D0 [0 [! v& pOriginal source medium                   : Blu-ray
9 v% G/ ]6 E* J" ?) @, z4 C" h# {2 k
Menu% I  i2 G" X: P; P9 I4 z' B
00:00:00.000                             : en:Chapter 01: n  f/ U; F, N) Q) Y8 o* H1 T
00:08:35.890                             : en:Chapter 022 I/ e) Z0 n/ p6 t+ J# Y
00:17:30.382                             : en:Chapter 03& }$ U5 E  U5 w$ P  I7 h
00:27:37.822                             : en:Chapter 04
) v* e( a" I* M00:36:30.688                             : en:Chapter 05
+ j% J# Z3 X* B8 }00:44:25.204                             : en:Chapter 066 J: S8 W8 z4 p
00:51:21.453                             : en:Chapter 07  R. u9 E! ~( s
00:57:24.232                             : en:Chapter 08
2 g/ Z" m* d+ u. Z4 o% h8 b01:04:08.719                             : en:Chapter 09+ M& t6 F9 N* Q: [$ B/ S+ i; P4 x
01:13:58.016                             : en:Chapter 10
1 P9 Y7 P& D4 j- w  F01:18:54.187                             : en:Chapter 11

! ~/ N% L  A4 j7 z1 P% f. _
游客,查看本帖隐藏内容请回复 | 加入VIP贵宾组可免积分免回复下载 了解详情 | 还不是会员:点击获取邀请码 Invitation Code

64

主题

1499

帖子

5461

积分

Sponsor

金币
300 枚
体力
2071 点
lanpanshuma 发表于 2020-9-21 11:40:53 | 显示全部楼层
啥也不说了,楼主就是给力!
7 i4 h) U1 m8 \& P祝愿蓝光社区越办越好!I wish Blu-ray communities better and better!
/ J5 T0 M) ]( O( n: m" |
该会员没有 ...

0

主题

58

帖子

399

积分

Sponsor

金币
76 枚
体力
192 点
ricky_sh 发表于 2020-9-30 13:36:19 | 显示全部楼层
非常好非常好非常好非常好

0

主题

100

帖子

498

积分

Sponsor

金币
0 枚
体力
267 点
tsming 发表于 2020-10-4 10:31:08 | 显示全部楼层
谢谢楼主分享,收下啦,第一时间观看

19

主题

1317

帖子

7065

积分

Sponsor

金币
940 枚
体力
3509 点
QQ
shiji1973 发表于 2020-10-7 21:26:37 | 显示全部楼层
感谢分享精彩电影

本版积分规则

小黑屋|Archiver|蓝光电影资源网

GMT+8, 2020-10-25 18:48

快速回复 返回顶部 返回列表