BluRayCD Forum

 找回密码
 立即注册【分享大片】

QQ登录

只需一步,快速开始

查看: 14|回复: 0
收起左侧

[动漫动画] 乐高DC沙赞:魔法与怪物 Lego DC Shazam Magic and Monsters 2020 720p BluRaycd x264-WUTANG 2.54GB

[复制链接]

3885

主题

4259

帖子

3万

积分

Post Share

金币
7277 枚
体力
6557 点

卓越贡献勋章

mvods 发表于 2020-9-10 23:44:03 | 显示全部楼层 |阅读模式
01.jpg
* F8 \8 S& D  M4 U! c0 R" O2 B4 W6 H4 ]/ B- M& T
◎译  名 乐高DC沙赞:魔法与怪物) Q0 E- o! n6 K$ d; n
◎片  名 LEGO DC Shazam!: Magic and Monsters+ _, d- s# v$ J2 t/ Y& o
◎年  代 2020
7 q, \0 H5 N/ @- E! T% W◎产  地 美国5 P2 m  V" O8 F
◎类  别 动画, z/ t2 f" t7 g9 n
◎语  言 英语
8 C! k# `# {; H& h' F- w7 A- v* a  A# F◎上映日期 2020-04-28(美国). v. t2 t& J1 @
◎IMDb评分  6.2/10 from 517 users2 F3 ?  e! P. P/ _8 d
◎IMDb链接  https://www.imdb.com/title/tt12093878/
* z- a! w& U; ^5 l# f7 R/ C: A◎豆瓣评分 7.3/10 from 1,921 users" u- _* u  y- t8 I0 m& T$ i) r9 R
◎豆瓣链接 https://movie.douban.com/subject/35030774/; s5 y$ G! X' k" L8 a
◎片  长 1 h 21 min
! N& {: |. @8 I, c◎导  演 马特·皮特斯 Matt Peters& O: o. U: [$ n  P) N( c
◎编  剧 杰瑞米·亚当斯 Jeremy Adams4 j% ]' b: H: T2 s1 Z; E
       C·C·贝克 C.C. Beck
( n; K8 _% u+ H  k6 j5 J: y◎主  演 西恩·奥斯汀 Sean Astin8 l3 S+ p/ D: O  z
       迪·布拉雷·贝克尔 Dee Bradley Baker5 }+ E9 ]$ O. T2 O/ h8 d
       特罗伊·贝克 Troy Baker
# T, d. u2 n+ _# ~0 {+ J       扎克·卡利森 Zach Callison* C) D) Z; ~) K4 g+ E% h
       格雷格·埃利斯 Greg Ellis
+ d: H8 V' ]+ x0 L6 {+ A       拉尔夫·加曼 Ralph Garman, C0 F! t# u6 r+ {( }3 c
       格蕾·德丽斯勒 Grey DeLisle
, R3 r- S: U1 H+ X4 |* Z       詹妮弗·黑尔 Jennifer Hale; E- q$ w& w! U4 t; {- z( y
       乔什·基顿 Josh Keaton6 y) J( ]/ ]9 O8 o
       汤姆·肯尼 Tom Kenny" }5 X+ y  k2 U( b/ d  N  G0 I  E
       Erica Lindbeck
% w( S3 o9 v9 B4 X2 ^  j& h& K       克里斯蒂娜·米利齐亚 Cristina Milizia2 s* J5 S' l5 l4 C% `; r
       诺兰·诺斯 Nolan North$ [. e0 K$ n3 t$ {7 N" G$ u+ A
       弗雷德·塔特西奥 Fred Tatasciore
) N! J+ a9 B* n2 e1 |       詹姆斯·阿诺德·泰勒 James Arnold Taylor
8 X- {$ k1 N: E
& A0 s6 p; ]; V% u# x% H◎标  签 DC | 动画 | 乐高 | 超级英雄 | 美国 | 2020 | 漫画改编 | 正义联盟) t% _2 Y: {6 [9 [" F: T
- f; P( K6 v( Y: Z% [
◎简  介  $ M1 L3 m1 ~7 H. p

, O' x6 v6 C1 X- ?/ R  q  当男英雄沙赞被邀请加入正义联盟时,他并不情愿,但当他的对手怪物协会将联盟置于危险境地时,他是唯一能拯救他们的人。
8 w% e$ Z8 }" e. T' }3 }2 M# g
Video
( l! T% u3 [$ O" s+ Y$ DID                                       : 1
# }- X/ C" a% {5 D; h: tFormat                                   : AVC9 R6 Y5 q) m; t: e0 m
Format/Info                              : Advanced Video Codec
5 P0 I% S0 @5 E8 g6 h+ zFormat profile                           : High@L4.15 o$ x% U9 f8 |' X* s0 \% f8 B& M
Format settings                          : CABAC / 9 Ref Frames
0 P" ~5 z, {% z# F- G7 zFormat settings, CABAC                   : Yes
1 U2 w* o3 E0 ]( X2 I1 z, G4 [- AFormat settings, Reference frames        : 9 frames& c4 Z0 O# _9 i' Y$ _. `
Codec ID                                 : V_MPEG4/ISO/AVC" g4 D  J6 m: D8 b
Duration                                 : 1 h 21 min
( w6 }% T" e4 {, f! R$ yBit rate                                 : 3 729 kb/s# n/ [5 S2 R/ i3 o2 E$ L
Width                                    : 1 280 pixels
- ~2 b- {9 a- K5 i! s5 c+ m, sHeight                                   : 720 pixels
  i- f/ h( V9 [Display aspect ratio                     : 16:92 O# D6 f5 U$ g: ?* @) L7 L
Frame rate mode                          : Constant
3 Y1 n7 A+ w/ w( SFrame rate                               : 23.976 (24000/1001/37687) FPS
# d/ l/ M' h- ^+ ^# R; R, NColor space                              : YUV
- d( y3 t0 n; u/ i8 YChroma subsampling                       : 4:2:0
6 a9 L$ c3 t1 vBit depth                                : 8 bits
8 s# O% l$ ~+ \1 \Scan type                                : Progressive
6 t. t( L$ j3 A( Y) F2 t- ABits/(Pixel*Frame)                       : 0.169
4 G% |1 d( F: xStream size                              : 2.12 GiB (83%)
. ?  q$ g) l* j0 E7 J: SWriting library                          : x264 core 160 r3000 33f9e147 t2 a! s% ~/ f- }, d
Encoding settings                        : cabac=1 / ref=9 / deblock=1:1:1 / analyse=0x3:0x133 / me=umh / subme=10 / psy=1 / psy_rd=1.00:0.00 / mixed_ref=1 / me_range=32 / chroma_me=1 / trellis=2 / 8x8dct=1 / cqm=0 / deadzone=21,11 / fast_pskip=0 / chroma_qp_offset=-2 / threads=12 / lookahead_threads=2 / sliced_threads=0 / nr=0 / decimate=0 / interlaced=0 / bluray_compat=0 / constrained_intra=0 / bframes=8 / b_pyramid=2 / b_adapt=2 / b_bias=0 / direct=3 / weightb=1 / open_gop=0 / weightp=2 / keyint=250 / keyint_min=23 / scenecut=40 / intra_refresh=0 / rc=crf / mbtree=0 / crf=17.0 / qcomp=0.60 / qpmin=0 / qpmax=69 / qpstep=4 / ip_ratio=1.35 / pb_ratio=1.25 / aq=3:0.90
* X- h" s+ \8 _! Y9 o. ^* f6 ?7 A0 H: vDefault                                  : Yes
) w# |, |6 o, e3 ?$ V4 ?Forced                                   : No# W* x# b( q' A& e1 w
Audio7 S& t6 y- O9 m0 N* m
ID                                       : 2
8 S: ?: J: D) C1 j0 F/ n# h# y5 kFormat                                   : AC-3( v  L- h# t; n& f# n
Format/Info                              : Audio Coding 3% Q1 K4 m2 N* l2 f% F; T" w9 D
Commercial name                          : Dolby Digital
' ?) ^3 @& F  U% V4 RCodec ID                                 : A_AC32 s) D- q$ C' h7 ]7 {2 o3 b
Duration                                 : 1 h 21 min& g4 u: x4 K4 e5 T
Bit rate mode                            : Constant# O5 J, W9 W" Z6 I9 w/ ~2 n
Bit rate                                 : 640 kb/s* Z$ O0 H8 M5 D* [" Q
Channel(s)                               : 6 channels7 Y% V, X! y4 |
Channel layout                           : L R C LFE Ls Rs+ L# W3 @* Z3 V. U* ?3 p2 O
Sampling rate                            : 48.0 kHz
7 X6 I% q6 ^4 U9 |, a( N8 C2 M4 LFrame rate                               : 31.250 FPS (1536 SPF): q7 a  w' I1 o# ~
Bit depth                                : 16 bits3 {4 B  e0 H( R4 o- b6 e
Compression mode                         : Lossy% _$ s, e8 Q  `: w$ v' i- r: t, D, A
Stream size                              : 372 MiB (14%)
$ \9 [: m# y/ k/ T- X1 uTitle                                    : English3 O. u1 m9 u7 C5 _
Language                                 : English
- D! P9 S/ }! a; QService kind                             : Complete Main
! L; u. O' v/ h( }0 V5 Q) cDefault                                  : Yes
: @$ u5 P: I+ F- \Forced                                   : No- x7 b+ C$ z8 M- w
Text #1" z0 M: X7 e: ]5 q9 U
ID                                       : 32 Z. ^4 j& R3 o; e
Format                                   : PGS
  g) |( J/ j& U: J% v* O0 MMuxing mode                              : zlib2 x* b' v  u+ z$ V" D
Codec ID                                 : S_HDMV/PGS# I, p+ W; l# k
Codec ID/Info                            : Picture based subtitle format used on BDs/HD-DVDs# y) O& r' T% A: D' T
Duration                                 : 1 h 18 min
* A5 x$ G6 m6 C5 mBit rate                                 : 43.6 kb/s
& P7 }7 i; N, t  b+ T2 ACount of elements                        : 28566 {% R! G( z, G  u' n+ q$ j* D
Stream size                              : 24.4 MiB (1%)' ?: l6 M: H8 y7 z! I% R) I- ^" w
Language                                 : English" ^8 h1 z) e( Z" M3 L
Default                                  : No5 d5 ]9 {1 w# l$ v6 i! {" E
Forced                                   : No
* G- v6 _6 m6 k; I4 N4 [Text #2
8 c" _* e, H& H: HID                                       : 4
! _* C" ?- d  V; G7 UFormat                                   : PGS
% s3 g  e, n+ V7 ~, d) Z, ?Muxing mode                              : zlib
* n6 {9 {# f2 i5 d' ACodec ID                                 : S_HDMV/PGS
5 Z5 g9 z6 K( j3 t1 _% E4 pCodec ID/Info                            : Picture based subtitle format used on BDs/HD-DVDs, _2 g7 `" f& C+ D( L
Duration                                 : 1 h 20 min
% S5 @( w9 d& ?1 eBit rate                                 : 35.3 kb/s' d! I4 S# g3 a1 {( @$ q! m, ~6 g
Count of elements                        : 2564( i. p0 ^/ @4 y( g, P# h1 ^
Stream size                              : 20.3 MiB (1%)
# |* S, ]6 _# J; PLanguage                                 : French
- S  b9 H3 ]7 G& w2 ?7 c& X/ PDefault                                  : No2 A" k9 a: [9 q2 N! K
Forced                                   : No! k4 p1 l- }$ ]! l; N! \7 f
Text #3
8 k$ m* u) Y1 ZID                                       : 5
, k3 t+ E' o1 r" @: }Format                                   : PGS
% k2 |$ N& {/ z$ x$ }& A4 EMuxing mode                              : zlib: Q1 R6 S, S- A. }
Codec ID                                 : S_HDMV/PGS
( \: i" q3 F, }0 u: m# mCodec ID/Info                            : Picture based subtitle format used on BDs/HD-DVDs
6 n' o2 j% p; Q$ C$ O* nDuration                                 : 1 h 20 min
; b) H) ^. \6 QBit rate                                 : 36.9 kb/s
. {. ^4 X7 n; b, |0 wCount of elements                        : 25125 R# L5 Y* s- x  `. _
Stream size                              : 21.3 MiB (1%)9 r# m5 w, S( F. R' T, ]% c! P
Language                                 : Danish
) U* O9 [5 W/ n% W, m' u9 v. F$ iDefault                                  : No
  C! d& l0 Z' j+ g5 o5 Z* xForced                                   : No
' V/ m! z' ?7 {' hText #4
0 F  V2 Z8 S) R8 ZID                                       : 6
( Y" v% U1 V) G) I$ YFormat                                   : PGS& V+ x1 L, x0 R
Muxing mode                              : zlib
: R& c+ w: e7 y2 D8 _1 OCodec ID                                 : S_HDMV/PGS6 f& K  I1 p; y6 w6 g0 _
Codec ID/Info                            : Picture based subtitle format used on BDs/HD-DVDs  N1 t& i, u$ S; y* Y) L
Duration                                 : 83 ms) [7 c" s. `5 M$ Y
Bit rate                                 : 6 746 b/s
, n! v+ O" M  G# R4 V+ a. ACount of elements                        : 29 X0 [6 x7 Z; o2 |
Stream size                              : 70.0 Bytes (0%)
2 Y7 u- F7 M* i6 K! I. T. N( ]Language                                 : Spanish
1 d( V9 j3 b: lDefault                                  : No
5 m, _7 _" {. f. wForced                                   : No
' d. a2 A$ K5 Y; E: dText #5
) }2 J: X2 r) A" [; y0 A! kID                                       : 7* L5 C6 P! k$ O' O0 H! h
Format                                   : PGS; ^7 ~* P. r( K$ v! x/ h
Muxing mode                              : zlib7 A0 Q- J: Y: H6 q6 R2 {
Codec ID                                 : S_HDMV/PGS: G# U+ ~$ E( A: A% e, @+ W
Codec ID/Info                            : Picture based subtitle format used on BDs/HD-DVDs3 O; T, v3 u, g8 a. Y8 l
Duration                                 : 1 h 20 min
: ^  {3 _! l7 O& x) KBit rate                                 : 35.8 kb/s
. X" x8 t& ~& p$ I1 J, SCount of elements                        : 2276, b+ P$ E3 \1 U+ N8 V
Stream size                              : 20.7 MiB (1%)& }7 `" [3 I/ ?* T+ r0 G
Language                                 : Finnish
* Q8 \( c# L! R* h( v5 a" IDefault                                  : No
6 r$ g& d' A! R+ _. U- \Forced                                   : No. N9 M: o( Y; C8 F+ @5 v0 m
Text #6; t: `' t- r% g: d# ^
ID                                       : 82 R. E7 W/ c7 @: s
Format                                   : PGS3 H, F, C! x3 d6 b8 z6 a# D: K: }
Muxing mode                              : zlib4 p6 h0 l9 Q6 o5 s5 F
Codec ID                                 : S_HDMV/PGS( m' z# h3 z7 A$ S) D  {) |1 q
Codec ID/Info                            : Picture based subtitle format used on BDs/HD-DVDs
3 I5 e# v2 z! j9 F1 kDuration                                 : 1 h 20 min
! B, C( K7 O! r  f5 |  iBit rate                                 : 37.7 kb/s) C4 E1 r" z9 Y
Count of elements                        : 2314
$ a4 ]+ Q$ h+ F: n$ R* fStream size                              : 21.8 MiB (1%)
4 U+ j* w2 M8 N5 t0 nLanguage                                 : Norwegian; B1 [' a! R5 O! p' |8 [1 i+ R9 u
Default                                  : No( T. B. N1 ]! X' m; y
Forced                                   : No+ c5 a) w& R% X+ V2 r8 h8 d. D
Text #7
' r7 E4 Q: ^4 m% k7 Z0 J) ?ID                                       : 9. a( p7 P8 Z, T% x5 l
Format                                   : PGS8 @5 [0 i7 F. L/ ^
Muxing mode                              : zlib+ h9 Z' a/ r! _
Codec ID                                 : S_HDMV/PGS% t& Y  o: O, y2 S6 B) m9 [& \
Codec ID/Info                            : Picture based subtitle format used on BDs/HD-DVDs$ Q3 z# J6 }/ H' x8 p: `7 X6 @
Duration                                 : 1 h 20 min% C; _7 v7 g* G8 a( H  W! u
Bit rate                                 : 36.4 kb/s) u# E5 U# Y7 ~. [9 g# Q
Count of elements                        : 2528) \5 c4 i) t6 F1 A/ i
Stream size                              : 21.0 MiB (1%)% S0 ^7 ]. Q$ t, g
Language                                 : Swedish/ l/ I: T  k) D" r
Default                                  : No
& {+ w" t2 n6 j3 y" c9 m$ @! QForced                                   : No) F7 A8 E8 C* |  c% \" A2 G' |5 x
Text #8: H6 M+ R0 u4 L; `& i
ID                                       : 102 l. w* O9 C0 m2 c7 U3 C
Format                                   : PGS
( h8 D. X0 {/ R% cMuxing mode                              : zlib
4 d( {2 V: }0 C0 J+ P7 ICodec ID                                 : S_HDMV/PGS
- k/ P' ]6 r+ i# o2 e2 Z2 HCodec ID/Info                            : Picture based subtitle format used on BDs/HD-DVDs
  G- j) I7 @6 e- I9 g& FDuration                                 : 2 min 25 s
* h* O4 c3 W* C5 dBit rate                                 : 2 362 b/s' ^* m9 I, N! m+ s
Count of elements                        : 4
9 x5 t% R$ T0 ]9 U8 I2 F! C: wStream size                              : 41.8 KiB (0%)
9 u! s! Q; w7 GLanguage                                 : French( h* Z5 l5 u5 R5 @% L" I
Default                                  : No0 Q# n% T& h7 D7 Q  R
Forced                                   : No
* e, |2 \# s4 }+ x) {3 hMenu: B0 _5 A6 r- G8 _4 c
00:00:00.000                             : en:Chapter 015 _6 h# N) n9 e
00:08:35.890                             : en:Chapter 02
- P; \. [# b' o1 t/ q00:17:30.383                             : en:Chapter 03. c  q$ b. u' z& @. k! C
00:27:37.823                             : en:Chapter 04, N5 K4 v! D. }( R# y8 d  }3 Q4 v
00:36:30.688                             : en:Chapter 05" W' c/ R1 n+ c' b8 C1 _; K
00:44:25.204                             : en:Chapter 06
. ]+ K* k/ I! a. w4 q* Q1 ^0 v4 j00:51:21.453                             : en:Chapter 07
( O) o, C% B1 _/ n4 W2 ]00:57:24.232                             : en:Chapter 08. D* X: P, A9 T9 U* r1 Q2 C
01:04:08.720                             : en:Chapter 091 j" Z0 K5 r7 N/ c  ?' Q6 u
01:13:58.017                             : en:Chapter 10) Y2 r" P/ i$ h6 @3 n& M5 \
01:18:54.188                             : en:Chapter 11' F: l2 v2 ~7 d
- k% ]2 C, n: d
Lego.DC.Shazam.Magic.and.Monsters.2020.720p.BluRayCD.x264-WUTANG
4 _! I- ?+ E- b% z; Z8 }# N  Q' E1 D( ~, m; m) x# o+ A+ ]
Date_______: 2020/06/077 ?- Y. Y; [9 }4 ~, j
Source_____: BluRay
% N) f$ h0 D' JRipper_____: Danjah da hood
. Q( Q; u7 V6 j' O+ BiMDB_______: https://www.imdb.com/title/tt12093878/
- b* A0 Y' a, j3 s8 d) N; H. t; R2 b7 _) j
Video______: x264 3728 Kb/s @ CRF 17 - 1280x720 - 23.976 FPS
+ Z7 z1 e3 Q9 fSource_____: 15528 Kb/s3 U+ e9 B3 z' y! R
Audio______: English AC3 640 kb/s 5.1
$ P4 N; G, {& Q1 f' _! @
' _: q' a7 J0 N8 W( @, Z/ VSubtitles__: English French Danish Finnish Norwegian Swedish2 ?) R# L' b8 b: K
$ W( A  N% U* ?2 d# E
Duration___: 01:21:21.4407 H* K6 G: w+ F0 t. e, T' ?. V* F
Size_______: 2599 MB* Z% |  H# T! g

; p9 F8 J/ F4 a4 }) j  {7 o2 j5 I8 lNote_______: Spanish subtitles track is empty
1 D- S$ g9 \# i7 T  H0 g1 [
游客,查看本帖隐藏内容请回复 | 加入VIP贵宾组可免积分免回复下载 了解详情 | 还不是会员:点击获取邀请码 Invitation Code

本版积分规则

小黑屋|Archiver|蓝光电影资源网

GMT+8, 2020-10-23 01:13

快速回复 返回顶部 返回列表