BluRayCD Forum

 找回密码
 立即注册【分享大片】

QQ登录

只需一步,快速开始

查看: 16|回复: 0
收起左侧

[科幻恐怖] 血干倘卖无 Dry Blood 2017 1080p BluRaycd x264-GETiT 4.38GB

[复制链接]

3897

主题

4271

帖子

3万

积分

Post Share

金币
7316 枚
体力
6584 点

卓越贡献勋章

mvods 发表于 2020-9-10 23:58:12 | 显示全部楼层 |阅读模式
2 p, g# p2 ]% k$ j$ i
# z9 h0 a8 j# |" a& G0 g
◎译  名 血干倘卖无* x% F  C% Q% G, T% u4 w9 e
◎片  名 Dry Blood- t* P3 }6 Q* |' d- {
◎年  代 2017; V6 l& u' [# h. y8 c3 H
◎产  地 美国
- t' H5 e' X" o4 X' u: C8 U8 f  t◎类  别 恐怖2 O5 a5 ^9 C# q( _5 \
◎语  言 英语
$ H( c, h; \$ f) W◎上映日期 2017-04-23(Dead by Dawn Horror Film Festival)/2019-01-11(美国)4 E  z! l: i$ |) M* z- x- Q0 P
◎IMDb评分  4.5/10 from 409 users9 Y. M; X/ G6 B, f0 e: o! \# A! O
◎IMDb链接  https://www.imdb.com/title/tt5195828/
4 c* K4 `( Q% [9 i◎豆瓣评分 0/10 from 0 users
1 x5 K: [" z# Y( Y◎豆瓣链接 https://movie.douban.com/subject/26899286/
+ h% u8 Y5 {; x: ?& A◎片  长 1 h 24 min
0 j- H( l7 a6 v4 }- Y2 _' u* C8 ~. s1 _◎导  演 Kelton Jones) w  m9 E: ]9 K) B/ w
◎编  剧 Clint Carney) z/ _/ g. h, K) C1 X
◎主  演 Clint Carney
* @9 s6 F" R7 w, ^. K& K       Jaymie Valentine& f: @7 K$ b+ `* A6 J- j4 q. ]8 O
       Kelton Jones
0 Z. \2 {, J* `* \3 n) m
4 V: H& g4 W4 U  M! h' o$ d1 z, A◎标  签 美国 | 惊悚 | 恐怖 | 2017 | 美国电影 | 恐怖电影 | 亲情4 l6 m2 Y- {1 M: B

" Y% a2 G  @( f8 b( w" U◎简  介  % Q( C* i* `8 I- C/ m
1 _# V7 h6 ?: y/ l: G7 W
  在一个乡村山区小镇,一个不稳定的吸毒者必须揭开一个超现实的谋杀谜团,因为他被恶毒的幽灵、精神错乱的治安官和他戒毒后产生的可怕幻觉吓坏了。) V$ Q' K. V9 k2 V) Z+ l
3 d3 e3 L9 S" y( J5 c5 @, t
  In a rural mountain town, an unstable drug addict must unravel a surreal murder mystery as he's terrorized by malevolent ghosts, a deranged sheriff, and the frightening hallucinations from his withdrawal.
  p* Z  M: s4 Z; k6 l( @6 c6 ~
Video' w. V/ X0 m3 l% _- F( C" ^; s1 s! j
ID                                       : 1
$ `; Y3 \- {& J. [Format                                   : AVC
! u6 G+ q' S. {. eFormat/Info                              : Advanced Video Codec& v6 s9 m+ S& U7 x; _* ~
Format profile                           : High@L4.1: ~- g- n. e1 `$ E
Format settings                          : CABAC / 4 Ref Frames( F3 v- @: W4 z! }6 c& H- A
Format settings, CABAC                   : Yes% ?2 P. w) R' v. `  L
Format settings, Reference frames        : 4 frames2 Y; f5 S/ p% Y3 S% ~
Codec ID                                 : V_MPEG4/ISO/AVC3 q( @2 j% X) |
Duration                                 : 1 h 24 min3 {) s5 k; f8 q/ b1 z$ k! t
Bit rate                                 : 6 006 kb/s
4 N) F! U, a# l9 R- O# Y( CWidth                                    : 1 920 pixels! p0 x0 _& u1 ?7 [5 ?4 U  K
Height                                   : 1 012 pixels
/ n" [+ X. Z: @) ~, T) v  a- s) Z1 D+ K5 FDisplay aspect ratio                     : 1.8979 m. A' |6 m2 \) a- Z, r
Frame rate mode                          : Constant* F7 q1 E8 ?( I" E% t1 l9 v1 @
Frame rate                               : 23.976 (24000/1001/37687) FPS/ Q8 e/ Y0 ], ]6 ^: S& O5 n
Color space                              : YUV, A) k' U1 |3 }& k  ^8 e6 e! n9 \
Chroma subsampling                       : 4:2:0
* B+ k/ A4 \( @/ M4 x  jBit depth                                : 8 bits2 j& y1 _& |8 D; q, j  O
Scan type                                : Progressive
$ x/ U/ N6 d! wBits/(Pixel*Frame)                       : 0.129% I5 C$ O# s, Z: K2 r  P( H' `; |
Stream size                              : 3.53 GiB (81%)
9 ]* j' r( T; k: ?3 b9 p. q0 bWriting library                          : x264 core 160 r3000 33f9e14
- j0 k. U) V+ z% kEncoding settings                        : cabac=1 / ref=4 / deblock=1:-3:-3 / analyse=0x3:0x133 / me=umh / subme=9 / psy=1 / psy_rd=1.00:0.00 / mixed_ref=1 / me_range=16 / chroma_me=1 / trellis=2 / 8x8dct=1 / cqm=0 / deadzone=21,11 / fast_pskip=1 / chroma_qp_offset=-2 / threads=24 / lookahead_threads=2 / sliced_threads=0 / nr=0 / decimate=1 / interlaced=0 / bluray_compat=0 / constrained_intra=0 / bframes=3 / b_pyramid=2 / b_adapt=2 / b_bias=0 / direct=3 / weightb=1 / open_gop=0 / weightp=2 / keyint=250 / keyint_min=23 / scenecut=40 / intra_refresh=0 / rc_lookahead=60 / rc=crf / mbtree=1 / crf=17.0 / qcomp=0.60 / qpmin=0 / qpmax=69 / qpstep=4 / ip_ratio=1.40 / aq=3:0.807 |6 i& [* K3 x* \
Language                                 : English, x/ j: j. q1 t( i2 s: ~* J; U
Default                                  : Yes
! B+ d' R# L7 n3 k" }Forced                                   : No  k7 H2 ~) C1 e
Color range                              : Limited
) o8 K+ m) x" N2 {. F' l) O, EMatrix coefficients                      : BT.7091 A: T; [# o' }. o& H
Audio8 s% N6 V7 D9 u# o/ ~9 m
ID                                       : 2
: V* f* k( d4 vFormat                                   : DTS XLL) G; Z' `/ S% L( f9 S
Format/Info                              : Digital Theater Systems4 O: s9 r# R/ B( z+ Q
Commercial name                          : DTS-HD Master Audio
  I+ Z. U4 y  B) JCodec ID                                 : A_DTS
" f8 ~& S4 t' O  m( k% dDuration                                 : 1 h 24 min
! \+ X9 `, S& Z) g; ]5 i; c  OBit rate mode                            : Variable
* ^  }7 l# M- k$ t: OBit rate                                 : 1 432 kb/s
1 k' }* S9 S) p' {4 v. eChannel(s)                               : 6 channels
$ J8 u( X( Z% CChannel layout                           : C L R Ls Rs LFE' O2 {, K& c' O, H+ r0 j( v
Sampling rate                            : 48.0 kHz# }) \; V5 O, r  d1 l" H
Frame rate                               : 93.750 FPS (512 SPF)% u4 C) ^. v3 e" {: e' U4 ^
Bit depth                                : 16 bits
+ U; o% A1 J) P# QCompression mode                         : Lossless" A- F" h9 S6 S
Stream size                              : 862 MiB (19%)  s6 m3 r3 I" x0 z
Title                                    : dtsxxl
  j" ^& k5 `0 w  E- ?# |$ YLanguage                                 : English9 G& X) r* b2 _6 K1 l1 d* v& J2 I
Default                                  : Yes
: R; v* q4 G; k$ e$ c8 Y5 }Forced                                   : No2 a9 [; s2 b3 _- \7 t
Text #18 j4 U  {6 q+ ^0 n' ?
ID                                       : 3
$ l. ^2 H  W3 L7 O* \9 wFormat                                   : PGS! P' F" R; A( s' o! r6 K, E
Muxing mode                              : zlib) C0 ]* R8 A% ?3 w4 m
Codec ID                                 : S_HDMV/PGS8 f( |$ ~% E3 H1 Q$ A, L; i
Codec ID/Info                            : Picture based subtitle format used on BDs/HD-DVDs3 t+ O/ k$ t* p+ q. O
Duration                                 : 1 h 19 min' O* _) T1 e- O/ |( a
Bit rate                                 : 6 950 b/s
5 t' L1 `) W2 y; z, e% X5 uCount of elements                        : 1061* {8 l5 ^! l9 a; r! S
Stream size                              : 3.94 MiB (0%), f( E4 p- D7 r' e; E( c
Title                                    : sub. X) b% o% {6 |5 \! I! D' y
Language                                 : German
. ^0 _) r6 X1 T* r# {$ |Default                                  : No0 H6 N# I5 t7 k2 s; I+ o
Forced                                   : No
. ?- m3 g0 k! g8 m1 ^3 U) \% rText #2+ T1 ]/ T, K& ?8 Q
ID                                       : 4
& A; J# h; B+ n# X/ jFormat                                   : PGS0 u; r% v% D. f) E. e0 f
Muxing mode                              : zlib
, o6 ]9 z' F* l* m9 x& t' \3 Q( f0 ?Codec ID                                 : S_HDMV/PGS$ Y/ _$ o& @$ W. G' X
Codec ID/Info                            : Picture based subtitle format used on BDs/HD-DVDs
, L$ l+ r, j/ f3 I& yDuration                                 : 18 min 55 s
8 m5 ?7 f" p. DBit rate                                 : 184 b/s
& `. \1 G" Y! ]8 D6 xCount of elements                        : 8# y: H$ u# G2 x) P' H6 a. F
Stream size                              : 25.6 KiB (0%)
8 x3 |7 E9 ~5 d/ ]* W" rTitle                                    : forced sub3 T3 Z. i6 m& ?; t6 I! ]! [) v
Language                                 : German
9 R; G' Q  d% e# T: f# uDefault                                  : No
( z; k' K1 a+ U" S' D- gForced                                   : No
6 @4 P9 t3 L% I% t9 V5 B% @Menu
8 @5 e( J& B5 k: Q00:00:00.000                             : en:00:00:00.000
6 i5 |( P$ `0 a/ b) m4 w% A00:02:32.861                             : en:00:02:32.861% @# H% A6 ]( B9 @4 G  \" M
00:10:12.028                             : en:00:10:12.028
5 ~3 U  H' i5 U00:22:16.085                             : en:00:22:16.085
2 I* e. ^- B" ~' c' b0 ^& J00:33:44.981                             : en:00:33:44.981$ M. R/ _( r8 H& _
00:41:44.252                             : en:00:41:44.252$ c" P: B7 K$ g6 O
00:53:15.442                             : en:00:53:15.442
6 g( O2 A- u* R4 `8 B$ W01:02:50.892                             : en:01:02:50.892
( ^  t* i- B, b/ o: R* E7 y01:08:58.384                             : en:01:08:58.384
& o$ R# t4 I' Q01:13:27.862                             : en:01:13:27.8627 B) i2 i6 x* {% ~5 |
01:19:19.672                             : en:01:19:19.672
( h; ?) k; Q" m& ]- M+ P: R" j01:22:22.146                             : en:01:22:22.146  Q5 F, X' Q6 t& w/ R* m# v

# C! l' R9 B6 M5 m+ _Dry.Blood.2017.1080p.BluRayCD.x264-GETiT
7 \  \7 V& o( v7 ?! T
4 [# I& }2 q/ N0 N5 ^% nRelease Type .......: x264 CRF17
8 \) W6 [# V8 l0 D0 z0 {) O! d" VVideo Bitrate ......: 1920 x 1012  @ 6.006 kbps
: m, i. g, r: h; |Source Bitrate .....: 21,3 MB/s
, C8 l$ q! K$ O0 r2 [! W* q( xAudio Bitrate ......: English DTS XLL  5.1 @ 1432 kbps (DTS-HD)
; _0 X6 O! x- _+ `( d2 v! N; G9 pSubtitles .........:  German - German forced- p3 L2 g  L& _, J; s
1 {+ q% B* B" K7 x! }) l9 Y
Release Date .......: 02.06.2020
) g$ @3 R0 Q% J0 ]% K% e' t3 B* q: fSize ...............: 4485 MB
9 k- V3 M& }; q- m) J, UNotes ..............: Not Yet!6 I1 {) [2 ~* J/ K& L
. j3 U0 D6 x% A6 E1 U3 U* e8 m
https://www.imdb.com/title/tt5195828/, }9 s+ S2 k3 c- q2 Y* d8 ]
0 _3 f1 R& M# H2 ]
UNiVERSUM (Big Thanks!) - iTWASNTME

8 \% {1 v0 X  O' N- c" z& r' x5 }2 F
游客,查看本帖隐藏内容请回复 | 加入VIP贵宾组可免积分免回复下载 了解详情 | 还不是会员:点击获取邀请码 Invitation Code

本版积分规则

小黑屋|Archiver|蓝光电影资源网

GMT+8, 2020-10-29 13:38

快速回复 返回顶部 返回列表