BluRayCD Forum

 找回密码
 立即注册【分享大片】

QQ登录

只需一步,快速开始

查看: 30|回复: 1
收起左侧

[蓝光原盘] 血干倘卖无 [REMUX无损版] Dry Blood 2017 1080p BluRaycd REMUX AVC DTS-HD MA 5.1-FGT 13.61GB

[复制链接]

4552

主题

4725

帖子

6万

积分

Post Share

金币
8721 枚
体力
16802 点

卓越贡献勋章

黄金嫖客 发表于 2020-9-18 22:14:28 | 显示全部楼层 |阅读模式
01.jpg " i+ W% ~. w9 n' J
5 P, ?" x6 v  w, C  J2 g" S
◎译  名 血干倘卖无  c) _- D4 K% H2 N8 J
◎片  名 Dry Blood
# _) B9 ^6 x1 s◎年  代 2017' Q) C1 a- i. ~* L0 m
◎产  地 美国2 C8 b8 O" K9 Y# p4 P3 ?5 g
◎类  别 恐怖
2 F5 u- }& W$ e◎语  言 英语
" s: w2 e' |* u! V, e2 c◎上映日期 2017-04-23(Dead by Dawn Horror Film Festival)/2019-01-11(美国)
- z5 ?9 M$ Y$ F# I' v9 H◎IMDb评分  4.5/10 from 410 users( @2 x6 g( d4 N6 m8 h
◎IMDb链接  https://www.imdb.com/title/tt5195828/
  F# c0 d5 W4 a& z$ u# a; R0 |◎豆瓣评分 0/10 from 0 users: }( l/ I( J: o3 O8 ?6 E1 P
◎豆瓣链接 https://movie.douban.com/subject/26899286/# I# u1 _4 I* l0 V
◎文件格式 x264 + DTS * A  L" |8 d/ \. {
◎视频尺寸 1920 x 1080, r/ v& n6 ?6 b5 E8 U
◎文件大小 1DVD 13.61 GiB! U: w, v2 l6 P2 e+ D- k, R
◎片  长 1 h 24 min) }1 ]1 g" i$ ~- B, }+ b
◎导  演 Kelton Jones
' o4 c; |* K$ p) X" N' s◎编  剧 Clint Carney
2 V% L7 p, c6 E: z◎主  演 Clint Carney
6 p, w3 }7 N* ]- h+ d# D       Jaymie Valentine
) S! ~- K+ L2 i) N; t! l3 @       Kelton Jones1 Y0 J: p4 T- A" ]" E

, C* U7 }# V0 G- h◎标  签 美国 | 惊悚 | 恐怖 | 2017 | 美国电影 | 恐怖电影 | 亲情
) v, Q: g+ H+ w: G7 K1 T9 B+ q$ R0 q1 V3 u
◎简  介  
) ~7 F: ^) w" ]1 q5 t8 V6 X. e
" _9 x: ?$ ]: N4 n  在一个乡村山区小镇,一个不稳定的吸毒者必须揭开一个超现实的谋杀谜团,因为他被恶毒的幽灵、精神错乱的治安官和他戒毒后产生的可怕幻觉吓坏了。* M) ?6 ~6 b* o* E% U1 f! [! c

+ e$ q) m' N5 W3 |" r  In a rural mountain town, an unstable drug addict must unravel a surreal murder mystery as he's terrorized by malevolent ghosts, a deranged sheriff, and the frightening hallucinations from his withdrawal.5 A+ z* Y; Z6 ]) z" m7 A" {/ c* Z
1 s2 j4 A1 _# l" w+ L5 Q
Video+ x+ Z$ c% U3 h
ID                                       : 1
. A8 P% Z3 M3 g% t5 u# C$ f) _ID in the original source medium         : 4113 (0x1011)
4 X8 r+ G! s" l/ Q% m9 v5 v; NFormat                                   : AVC
' I( U9 @# l7 q; e5 K4 b9 JFormat/Info                              : Advanced Video Codec
6 a6 l; o/ e+ G1 n+ |5 z1 RFormat profile                           : High@L4.1
( Y' j8 m2 W3 S- }* i: R- u9 xFormat settings                          : CABAC / 2 Ref Frames" J$ J) M$ X( t5 |4 d
Format settings, CABAC                   : Yes4 t" n  C2 M/ z$ P& K* V- v) Y
Format settings, Reference frames        : 2 frames. d. j% l2 @! |. F
Codec ID                                 : V_MPEG4/ISO/AVC. o  S# `- k2 P+ f+ p' n
Duration                                 : 1 h 24 min- u" e- x3 T& u0 V' Y8 k
Bit rate mode                            : Variable8 X2 n( N' i# c2 `: x  U
Bit rate                                 : 21.7 Mb/s
$ @3 y0 a2 ~' SMaximum bit rate                         : 30.2 Mb/s5 k  O% n2 G- [
Width                                    : 1 920 pixels: j' n% V9 X; ?
Height                                   : 1 080 pixels
) t- }$ F5 ~; i: J, _Display aspect ratio                     : 16:9
) P- S' }( L" \Frame rate mode                          : Constant
3 w1 W( }& X; G; [$ iFrame rate                               : 23.976 (24000/1001/37687) FPS# O4 |5 q4 ]3 V! W; ?6 F. `9 s
Color space                              : YUV( ?! c: S4 h0 M' v" D7 h! L
Chroma subsampling                       : 4:2:0
- b- b$ z% K0 x4 g2 `  X1 bBit depth                                : 8 bits
$ W( h8 @- n& `* d' i( k4 HScan type                                : Progressive
6 {, j, z5 P3 E" T$ Q3 V1 LBits/(Pixel*Frame)                       : 0.437
; @/ _1 m5 ]( u* CStream size                              : 12.8 GiB (94%)  [4 X& {# ]% g- L' M  i
Title                                    : Dry.Blood.2017.1080p.BluRayCD.REMUX.AVC.DTS-HD.MA.5.1-FGT' v8 f3 [* ?3 I4 k
Language                                 : English) [4 N" x- W" e% F
Default                                  : No
, v) S& |& @' v1 q4 ]Forced                                   : No
5 Q, b* ]+ w$ KOriginal source medium                   : Blu-ray  f9 o4 X& \) k! L# G7 c. W( c+ H
% d6 L$ n, U; y; N# f$ r7 d
Audio
" n' M5 f* [) w+ t4 uID                                       : 2
' s0 w. A" I* H$ L( T; EID in the original source medium         : 4353 (0x1101)
% c/ X7 n1 s# B8 t* M5 g6 SFormat                                   : DTS XLL
" [5 G6 K2 n+ g9 N( F) p1 U( ?Format/Info                              : Digital Theater Systems& z: z3 M* m0 o& T) H& Y6 t
Commercial name                          : DTS-HD Master Audio
9 m; ]' N9 h/ v& Z# DCodec ID                                 : A_DTS$ |6 N+ f, v2 K" t2 H# F  r
Duration                                 : 1 h 24 min
( i3 a: e, a2 CBit rate mode                            : Variable
0 L( G. D  N4 I- T6 X6 aBit rate                                 : 1 432 kb/s
/ S$ y3 G& s! y3 n4 G  V( Q+ Q$ CChannel(s)                               : 6 channels
* S+ L( O7 q1 R) g4 YChannel layout                           : C L R Ls Rs LFE
* G+ a) d0 C2 ]6 U3 bSampling rate                            : 48.0 kHz
0 ]+ Z; V- Y# a+ s; NFrame rate                               : 93.750 FPS (512 SPF)% n* M" P4 ~: g" F, d) t6 G6 ]
Bit depth                                : 16 bits
2 f% e' C4 _2 f8 a: g+ L" H- Y. U1 N" L* _Compression mode                         : Lossless
# h8 x7 f, |" t$ d* o' f  X! mStream size                              : 862 MiB (6%)
8 K+ }( j9 `2 PTitle                                    : Dry.Blood.2017.1080p.BluRaycd.REMUX.AVC.DTS-HD.MA.5.1-FGT7 c! u# e3 `# D, i5 s1 U4 c8 z( [
Language                                 : English8 [) m- ]2 @5 R9 r2 Z6 O
Default                                  : Yes
# E1 l7 F' T: r* K8 eForced                                   : No1 w- [! v( h) [$ o+ {, o
Original source medium                   : Blu-ray
2 B6 C6 j6 E* U9 ]8 l
: J  X* c9 P% s& n  @3 SText
7 y, ~9 b! I5 R9 J# }: k0 E+ WID                                       : 3
  b% b2 D+ S6 A2 P: yFormat                                   : UTF-8% D3 ?$ |  d: k# d9 a+ b8 s% w
Codec ID                                 : S_TEXT/UTF81 C! }6 Y# b5 X$ |& i# d
Codec ID/Info                            : UTF-8 Plain Text+ d) G/ e% G8 t1 Q; |3 p( c, c
Duration                                 : 1 h 23 min
) z( {, C+ }2 Y+ A' X5 IBit rate                                 : 39 b/s
! s2 Y0 \) U' D! `# cCount of elements                        : 850
/ D0 `8 D9 k( X' ^# v. W, B) zStream size                              : 24.5 KiB (0%)
: T1 ~2 [2 f/ B4 C) P! g+ v# JTitle                                    : English-SRT
3 U' M! X8 J* D+ J% n. ~Language                                 : English2 b# `! v7 E: G* g- \
Default                                  : Yes
+ {/ O9 j' S# N) F# c! A* m# |% X  y$ PForced                                   : No
6 Q: H4 Q8 ^  U6 t9 Z* K  J' Y% I
: @- q0 ]! h5 d1 Z# jMenu
' L1 g0 A1 R) S- p0 C1 k00:00:00.000                             : en:Chapter 01
  `( I$ `$ e+ [' C. ~00:02:32.944                             : en:Chapter 02
' P- R6 m2 F4 F00:10:12.194                             : en:Chapter 03
$ {: e, q1 A; l; P0 s4 e00:22:16.209                             : en:Chapter 047 C) |. I- J+ |$ m
00:33:44.897                             : en:Chapter 05
3 r3 \, [. A7 A4 j" g( c00:41:44.335                             : en:Chapter 06
! s+ d0 @" a8 X3 P+ t00:53:15.400                             : en:Chapter 070 P6 r% Y( h! N
01:02:51.350                             : en:Chapter 08
2 P3 o8 N! w" D& i; \01:08:58.008                             : en:Chapter 09) A+ ?/ c# [8 G3 h
01:13:27.778                             : en:Chapter 10  G) E9 r0 {* Z* E# G( @
01:19:19.504                             : en:Chapter 11% b! {$ X  {4 {; E' c3 ~
01:22:22.020                             : en:Chapter 12
Dry Blood Blu-ray, Video Quality   
4 p( u, W6 S9 o1 V9 K+ M
/ j  w0 N7 b% }$ H8 ~2 [& c& h) Y' l6 {: L& V
The AVC encoded image (1.90:1 aspect ratio) presentation delivers a comfortable look at the HD-shot feature, maintaining an encouraging level of detail, securing facial particulars and interior decoration. Gory incidents are also available for study, along with exteriors, which retain the rural seclusion of the setting. Colors are inviting, with deep reds with bloodshed and brighter primaries for costuming. Visits to a local store offer more varied hues with labels and signs, and greenery is intact. Delineation is adequate, but some stretches of blackness are milky, losing their natural appeal. Banding is periodically detected during the viewing experience.( |* j/ l% A/ Y) E* h5 o+ v5 G
7 h* g. U/ S. j9 ^, K) \$ m9 b; J
Dry Blood Blu-ray, Audio Quality   
' e6 d: {9 P$ G9 N; e  @$ \, s, N" p: G, P% r& N' D7 C
& O9 o! Y  \  M; A" `+ V
The 5.1 Dolby Digital sound mix preserves conversations, as dialogue exchanges lead the way in "Dry Blood." Heated exchanges and acts of panic maintain stability, never distorting extremes. Scoring is supportive and crisp, along with a few soundtrack selections. Surrounds push out music and manage some atmospherics, but largely remain sedate. Low-end is minimal.
6 s& e6 e! w' t$ w' Y+ l
游客,查看本帖隐藏内容请回复 | 加入VIP贵宾组可免积分免回复下载 了解详情 | 还不是会员:点击获取邀请码 Invitation Code

64

主题

1499

帖子

5461

积分

Sponsor

金币
300 枚
体力
2071 点
lanpanshuma 发表于 2020-9-19 08:54:28 | 显示全部楼层
楼主发贴辛苦了,I*老*虎*U!# {3 `5 J6 H- d( \+ T
Thank you for sharing such a good resource polite reply, very sorry for myself!
$ G% |! h$ ]5 n8 o
该会员没有 ...

本版积分规则

小黑屋|Archiver|蓝光电影资源网

GMT+8, 2020-10-25 19:15

快速回复 返回顶部 返回列表