BluRayCD Forum

 找回密码
 立即注册【分享大片】

QQ登录

只需一步,快速开始

查看: 18|回复: 2
收起左侧

[科幻恐怖] 血干倘卖无 Dry Blood 2017 720p BluRaycd x264-GETiT 1.93GB

[复制链接]

3885

主题

4259

帖子

3万

积分

Post Share

金币
7277 枚
体力
6557 点

卓越贡献勋章

mvods 发表于 2020-9-11 00:03:47 | 显示全部楼层 |阅读模式
) r& m( H  o4 c, Z" R. H0 Y. _

+ h  W8 Z( |2 ], |2 j8 N. h4 y◎译  名 血干倘卖无
9 v5 I. @/ A/ S, R; k% [◎片  名 Dry Blood
, c6 A3 d3 V9 K; E7 @◎年  代 2017: o4 N- a+ Q2 \# h  g( \7 W. l
◎产  地 美国
0 W* J" F4 q( w- V4 j◎类  别 恐怖
# T7 X6 M9 }+ @" M◎语  言 英语
( ]7 v. w0 O' E◎上映日期 2017-04-23(Dead by Dawn Horror Film Festival)/2019-01-11(美国), V6 e1 _  f; H1 o
◎IMDb评分  4.5/10 from 409 users
; M3 C3 A& L( T9 V◎IMDb链接  https://www.imdb.com/title/tt5195828/& ?1 i# B  W+ D$ b6 f- R: r
◎豆瓣评分 0/10 from 0 users
; n, C; z" E4 q1 h8 |◎豆瓣链接 https://movie.douban.com/subject/26899286/
1 U$ a) \% O6 A$ L7 N6 k◎片  长 1 h 24 min4 f- D2 K( q2 g  M" l1 e
◎导  演 Kelton Jones
0 Q$ z+ I8 i5 a! G& o; @: P◎编  剧 Clint Carney( O7 j4 d, d2 a+ D
◎主  演 Clint Carney
' c' d- Q' M  `' _0 n       Jaymie Valentine
$ m$ Z8 T1 R8 e  c8 N& ^' y       Kelton Jones
8 B+ H; P5 g+ l) g; M. _' Y
( R+ n) U: j; n7 g! T2 ^◎标  签 美国 | 惊悚 | 恐怖 | 2017 | 美国电影 | 恐怖电影 | 亲情
: r5 i: I+ K" a& b  q5 i4 V" D) }0 \* l( O4 _
◎简  介  & f+ Q% s0 o& x' M4 s. s* e
' |; p" {; T+ c1 Z
  在一个乡村山区小镇,一个不稳定的吸毒者必须揭开一个超现实的谋杀谜团,因为他被恶毒的幽灵、精神错乱的治安官和他戒毒后产生的可怕幻觉吓坏了。; M  b* F0 N) ?$ |! Z$ U
Video  W- B) A+ p2 B8 N# q5 v
ID                                       : 1
1 g0 F. K7 i0 W: r1 [Format                                   : AVC, ^% m3 f7 a* o% I
Format/Info                              : Advanced Video Codec" v# L3 L3 T$ W- ]# \
Format profile                           : High@L4.13 a1 w1 n  h% I  @
Format settings                          : CABAC / 8 Ref Frames8 Y9 ?- U5 l9 v3 k
Format settings, CABAC                   : Yes
+ M4 c5 ~6 F4 sFormat settings, Reference frames        : 8 frames0 u, a  A" R8 v1 x7 V0 Q, G
Codec ID                                 : V_MPEG4/ISO/AVC" h! \* P! t( v6 b
Duration                                 : 1 h 24 min
% t1 \$ [6 d2 hBit rate                                 : 2 632 kb/s
) ~) u1 o7 h0 \+ U3 r$ XWidth                                    : 1 280 pixels
/ g" g- R/ @$ B5 m1 Q, I) oHeight                                   : 672 pixels
/ j# u% ~4 Z! C: t. C9 ?# P( D( BDisplay aspect ratio                     : 1.905
' S4 ~0 J1 ?! y+ n: W( m2 bFrame rate mode                          : Constant
4 o, B) P# V8 B) W6 ?3 ~9 ZFrame rate                               : 23.976 (24000/1001/37687) FPS
6 s1 F9 x" ~0 R  ^+ SColor space                              : YUV/ d* O2 u% @7 K; E- q0 j7 `  k& L
Chroma subsampling                       : 4:2:0: [2 U9 `! J2 Z" a( Z
Bit depth                                : 8 bits& P, u0 A5 B& d
Scan type                                : Progressive
1 ^* ?- y7 s9 ^" r$ ~Bits/(Pixel*Frame)                       : 0.128
- Q9 E% M0 o& GStream size                              : 1.55 GiB (80%)
' K& c; q# [8 L  k4 }& b$ f9 L1 gWriting library                          : x264 core 160 r3000 33f9e14
: @+ \' X- i) }7 L7 f3 A; |  ~' MEncoding settings                        : cabac=1 / ref=8 / deblock=1:-3:-3 / analyse=0x3:0x133 / me=umh / subme=9 / psy=1 / psy_rd=1.00:0.00 / mixed_ref=1 / me_range=16 / chroma_me=1 / trellis=2 / 8x8dct=1 / cqm=0 / deadzone=21,11 / fast_pskip=1 / chroma_qp_offset=-2 / threads=21 / lookahead_threads=1 / sliced_threads=0 / nr=0 / decimate=1 / interlaced=0 / bluray_compat=0 / constrained_intra=0 / bframes=3 / b_pyramid=2 / b_adapt=2 / b_bias=0 / direct=3 / weightb=1 / open_gop=0 / weightp=2 / keyint=250 / keyint_min=23 / scenecut=40 / intra_refresh=0 / rc_lookahead=60 / rc=crf / mbtree=1 / crf=17.0 / qcomp=0.60 / qpmin=0 / qpmax=69 / qpstep=4 / ip_ratio=1.40 / aq=3:0.80$ T# n" m+ n' p- m; e* l/ q  Y
Language                                 : English$ E! b; `& d* _- n; H
Default                                  : Yes
/ W( l$ `; f* {. s+ C% bForced                                   : No- b0 m$ V, n" [1 ]( R
Color range                              : Limited
, J" N2 g9 e6 V* C  VMatrix coefficients                      : BT.7099 O/ a1 a# m! Q
Audio
) u" x4 m% ]" k8 k2 IID                                       : 2
! E' B* ~$ [8 ]8 g# Q8 NFormat                                   : AC-32 Y: L0 }. s; a  O7 ?
Format/Info                              : Audio Coding 3, c1 M2 S  s# c8 q& V9 j
Commercial name                          : Dolby Digital
0 z2 O: X" C  D  N- z% [Codec ID                                 : A_AC3% ^+ L- e4 `! v. u$ i" r" d
Duration                                 : 1 h 24 min1 K) ?: w+ H; Y3 z8 m% R  j& d
Bit rate mode                            : Constant3 x9 g+ V; _6 q+ C$ ]3 |
Bit rate                                 : 640 kb/s
" k; f- y7 G% p) Q: r' ~* NChannel(s)                               : 6 channels+ d7 a! m- v6 b) G; m) q
Channel layout                           : L R C LFE Ls Rs4 @1 q. r5 w" D2 |* c2 W
Sampling rate                            : 48.0 kHz# W6 e& ~$ J- c+ t6 ~% q
Frame rate                               : 31.250 FPS (1536 SPF)
9 x6 {+ a0 p, c8 F# K6 @Bit depth                                : 16 bits
9 F2 Y- n8 A' z, k, p- f0 ]& kCompression mode                         : Lossy6 \+ C7 Y5 S2 `: w- a- P0 C
Stream size                              : 385 MiB (20%)
/ l+ `7 Z5 X8 g; e5 ~$ ZTitle                                    : ac3  n- }. a2 @1 P& F2 E
Language                                 : English& i' t8 t$ X' M% E# W' @, y, H
Service kind                             : Complete Main
: a" F" c( H, m' Y- zDefault                                  : Yes2 B% v9 @; m3 b" o+ W
Forced                                   : No
1 `" d. j- _0 GText #1
. E: g1 l; V4 Q7 K* n9 k4 g5 [( ~ID                                       : 3
/ E/ e; i* v* {Format                                   : PGS
2 w) l4 x8 r' W7 I. X/ v) V" W# o/ xMuxing mode                              : zlib
- q4 q9 E/ G) Q2 m+ kCodec ID                                 : S_HDMV/PGS
+ m4 }- @# l, ^3 OCodec ID/Info                            : Picture based subtitle format used on BDs/HD-DVDs1 p6 f; E" N% @
Duration                                 : 1 h 19 min
% A) j8 y9 Y% f  i/ j6 }) M, |1 j$ J5 TBit rate                                 : 6 950 b/s1 X, d! i. x7 `
Count of elements                        : 10616 r* W/ v# y2 B4 m1 W
Stream size                              : 3.94 MiB (0%)
# H5 B0 s+ |/ k3 vTitle                                    : sub& G7 J& P/ T( t2 p3 a5 I
Language                                 : German
+ l. m) W/ i0 L; gDefault                                  : No
! \' v+ K1 Y$ Y6 QForced                                   : No; m  V9 T& n, {# U& ]) J! B
Text #2
2 @# C5 p$ u' G, g  G7 |ID                                       : 4
* J$ [  I! D' ^  K& j* E/ S, yFormat                                   : PGS
! u+ \; @4 _# v% m; ZMuxing mode                              : zlib
7 h/ w) ?/ n1 g# R& E9 }2 ]7 @! oCodec ID                                 : S_HDMV/PGS9 ~& N. P. O2 t/ i  C3 S1 ?% D
Codec ID/Info                            : Picture based subtitle format used on BDs/HD-DVDs- L  {* \& ]+ h# j
Duration                                 : 18 min 55 s
% E( g* s, h( {* w0 G7 b9 nBit rate                                 : 184 b/s/ U$ V( B$ K# O: q6 e! Z* C
Count of elements                        : 8
6 k! o/ B! ]" P8 h8 L3 Y1 nStream size                              : 25.6 KiB (0%)
# _0 S% [' y; d- h* G% t" Z( L( GTitle                                    : forced
8 _2 c; m. Y6 u9 }" X+ z& K7 }- iLanguage                                 : German
6 b- L% t* R; k$ A0 v- H% d% NDefault                                  : No
! i7 w4 y+ k) P+ L. D" {& j! gForced                                   : No9 l0 k: f/ h& u3 h* S
Menu+ R6 M$ Q7 {* ?' `8 @
00:00:00.000                             : en:00:00:00.000$ s6 v% H! R5 o- x
00:02:32.861                             : en:00:02:32.861
' w/ q0 ~3 p( C4 }8 b7 R5 B; [# K00:10:12.028                             : en:00:10:12.028# ?- N, H* c$ b) n, i) D
00:22:16.085                             : en:00:22:16.085+ h% O. S( ?0 Z  I
00:33:44.981                             : en:00:33:44.981
5 \5 D5 G4 L, a2 R00:41:44.252                             : en:00:41:44.252
2 T) s, k6 n: T( r  s$ U; w00:53:15.442                             : en:00:53:15.442
1 j8 J1 v# N/ V! t01:02:50.892                             : en:01:02:50.892
, \, E' I" N1 R01:08:58.384                             : en:01:08:58.384
) u4 Z4 R2 u$ [  \: h" F01:13:27.862                             : en:01:13:27.8625 x; H" o7 i& m) Z0 B) ^
01:19:19.672                             : en:01:19:19.672. n* M( c& s  D5 O
01:22:22.146                             : en:01:22:22.146
3 q) d0 {$ q  n# D4 i7 l! ]( X/ Y( v4 ^
Dry.Blood.2017.720p.BluRayCD.x264-GETiT
- b" I' m2 R6 C3 t6 i" i
4 `& U3 b8 I' G# ZRelease Type .......: x264 CRF17: S9 \; _  Z2 m( g$ @  C+ L
Video Bitrate ......: 1280 x 672  @ 2632 kbps( W" {% r1 D6 K4 v4 x
Source Bitrate .....: 21,3 MB/s
% U/ L6 K( G. H1 E: @Audio Bitrate ......: English AC3 5.1 @ 640 kbps
5 Y- ?& a3 F8 I7 GSubtitles .........:  German - German forced% n! e4 W; i" g1 y) p
( c8 M9 ^: w2 @/ {. O
Release Date .......: 02.06.2020
# y0 l( c4 Q  P( O, o3 @. ESize ...............: 1975 MB
4 [6 q" D! n( H" `, KNotes ..............: Not Yet!1 L2 G2 ?1 a" n7 m: m

" f* ~: B2 m  L$ e6 W" Rhttps://www.imdb.com/title/tt5195828/
- y5 N% D4 o3 M! T, N4 H( J* h4 u; C/ g6 z& S/ M0 h6 b
UNiVERSUM (Big Thanks!) - iTWASNTME
, |+ |  {8 u0 w; C( C( E1 e
游客,查看本帖隐藏内容请回复 | 加入VIP贵宾组可免积分免回复下载 了解详情 | 还不是会员:点击获取邀请码 Invitation Code

0

主题

445

帖子

2133

积分

Sponsor

金币
21 枚
体力
1255 点
QQ
七喜 发表于 2020-9-11 10:31:24 | 显示全部楼层
每天都来蓝光论坛看看,我爱蓝光电影。
. _- @% [" w2 z" s, w5 lBlu-ray movies Community: my favorite!
9 O, ^- W3 E+ X. W1 a9 j( |) J

0

主题

445

帖子

2133

积分

Sponsor

金币
21 枚
体力
1255 点
QQ
七喜 发表于 2020-9-11 10:39:23 | 显示全部楼层
这么好的帖子不回对不起自己!' y6 l! Q, P0 j3 T- j
Thank you for sharing such a good resource polite reply, very sorry for myself!6 m( m! k0 F2 H4 n0 g: O% x

本版积分规则

小黑屋|Archiver|蓝光电影资源网

GMT+8, 2020-10-23 02:14

快速回复 返回顶部 返回列表