BluRayCD Forum

 找回密码
 立即注册【分享大片】

QQ登录

只需一步,快速开始

查看: 15|回复: 0
收起左侧

[喜剧爱情] 迷失伦敦 Lost In London 2017 LiMiTED 1080p BluRaycd x264-GETiT 10.02GB

[复制链接]

3897

主题

4271

帖子

3万

积分

Post Share

金币
7316 枚
体力
6584 点

卓越贡献勋章

mvods 发表于 2020-9-11 00:09:20 | 显示全部楼层 |阅读模式

! Z# ?1 @' G, x" r, b# V
9 U! V7 S+ }# ^. L3 E◎译  名 迷失伦敦) ^& b) |5 A" p" S9 c8 Z5 k
◎片  名 Lost in London: M6 B' Y, O: X
◎年  代 2017. Q1 ^3 @. H+ w0 |$ U; h
◎产  地 美国
; D3 S  F# c, G8 {6 \3 A◎类  别 剧情/喜剧
3 I) H) e2 l0 g0 g( ^$ \◎语  言 英语# P) ^9 e( ]+ R& w! a
◎上映日期 2017-01-19(美国)( }- G2 R& c/ h7 p+ @0 L
◎IMDb评分  6.2/10 from 2,932 users
; s1 x3 K4 ^% w. ^, @' m◎IMDb链接  https://www.imdb.com/title/tt6338476/
1 g3 @8 p1 a8 a1 G* r  y& J' |◎豆瓣评分 0/10 from 0 users
1 L% ?6 D1 i8 l6 Y' A' a◎豆瓣链接 https://movie.douban.com/subject/26882451/% s( U5 \' A: [+ C9 {' A
◎片  长 1 h 48 min
( N2 @! N6 U  `7 Q◎导  演 伍迪·哈里森 Woody Harrelson
2 d0 ~! w* R5 l  R  N  u◎编  剧 伍迪·哈里森 Woody Harrelson
. Y2 m: M4 |# ]" D8 W6 g2 _9 e  z◎主  演 伍迪·哈里森 Woody Harrelson
( _, g) Z, _8 M1 P       欧文·威尔逊 Owen Wilson
" m& d1 z8 B* w       威利·纳尔逊 Willie Nelson% m+ x) c% @8 p7 d2 a
       马丁·麦凯恩 Martin McCann
  O" f5 v4 V/ y       大卫·艾弗里 David Avery
1 G$ k9 D4 T1 h, k. s( W7 a       彼得·费迪南多 Peter Ferdinando
- P; G* ~. v0 z       优素福·凯尔科尔 Youssef Kerkour0 g; o. j% {! p# a+ a8 g8 R& A4 b* X
       Amir El-Masry
: W! B" A+ q: M5 ]. L# j' |, A; I3 _, T! X% l% P; b3 V! b
◎标  签 WoodyHarrison | 美国 | 喜剧 | 伦敦 | LIVE | 电影 | Comedy | 美国电影  w- ]8 p) w3 ~! J
; {+ j7 e& w; u( x7 b
◎简  介  
( l( C. ?' m0 U% Y* {/ [1 p
" S+ \0 \' P' k3 [1 d4 h  伍迪·哈里森自编自导自演新作《迷失伦敦》取得新进展,欧文·威尔逊和威利·纳尔逊确定加盟。据悉,影片将会在明年一月中下旬投入拍摄。哈里森将在片中饰演一位努力与家人团聚的角色,然而事不遂人愿,来自多方的重重压力阻碍着他重新回归家庭的路。$ Y8 ?" o5 s' F( ]
8 [* u3 J/ _9 K, r. U( U
  Within the course of one night, Woody Harrelson finds himself in a misadventure in London that winds him up in jail.
$ D6 o( E5 {! X
Video4 g  t6 j' b. y2 U2 i- y; J
ID                                       : 1' u' q% E& t6 M* Z9 g) B
Format                                   : AVC1 A7 c. i  _4 f
Format/Info                              : Advanced Video Codec
7 S% r9 E0 C# w; d7 ?Format profile                           : High@L4.1! s8 H: }7 S1 y6 u- S$ q  @
Format settings                          : CABAC / 4 Ref Frames! I; d2 y6 [( ^$ r
Format settings, CABAC                   : Yes: I  O2 `: ?/ ]
Format settings, Reference frames        : 4 frames2 s( [8 S0 m0 F; I( y7 {0 v
Codec ID                                 : V_MPEG4/ISO/AVC
% q7 a4 c- k* i0 v% U) IDuration                                 : 1 h 48 min6 g0 x7 b& t/ ]* f
Bit rate                                 : 11.9 Mb/s
6 n2 Y& \, Q/ ~( NWidth                                    : 1 920 pixels$ D3 i  O7 X: t  @& |  a) u5 m# `
Height                                   : 1 080 pixels
# _) ~. C( }+ ADisplay aspect ratio                     : 16:9
. {+ i- O! }- T0 W* T6 G! yFrame rate mode                          : Constant5 ]. h! S9 T8 z" _: H9 M" X# }
Frame rate                               : 23.976 (24000/1001/37687) FPS
4 E) }3 ?$ y- Y3 v& p4 z* gColor space                              : YUV
# a6 ?) ^7 \+ tChroma subsampling                       : 4:2:04 W  _* B" s! Y
Bit depth                                : 8 bits; N1 T7 n3 m0 o) Z% A) x5 f
Scan type                                : Progressive/ v0 x# b( t: e6 D( @0 V3 I% n
Bits/(Pixel*Frame)                       : 0.2389 t0 m+ ?- V, V+ K* W9 r
Stream size                              : 8.96 GiB (89%)4 _1 R: z' |. e+ I- G5 y, H
Writing library                          : x264 core 160 r3000 33f9e14$ F; s* K9 m8 {9 L# P7 M5 e9 }( B
Encoding settings                        : cabac=1 / ref=4 / deblock=1:-3:-3 / analyse=0x3:0x133 / me=umh / subme=9 / psy=1 / psy_rd=1.00:0.00 / mixed_ref=1 / me_range=16 / chroma_me=1 / trellis=2 / 8x8dct=1 / cqm=0 / deadzone=21,11 / fast_pskip=0 / chroma_qp_offset=-2 / threads=34 / lookahead_threads=2 / sliced_threads=0 / nr=0 / decimate=1 / interlaced=0 / bluray_compat=0 / constrained_intra=0 / bframes=3 / b_pyramid=2 / b_adapt=2 / b_bias=0 / direct=3 / weightb=1 / open_gop=0 / weightp=2 / keyint=240 / keyint_min=24 / scenecut=40 / intra_refresh=0 / rc_lookahead=60 / rc=crf / mbtree=1 / crf=17.0 / qcomp=0.60 / qpmin=0 / qpmax=69 / qpstep=4 / ip_ratio=1.40 / aq=1:1.00
( u& D4 P9 \3 |, xLanguage                                 : English& O" N- E, Q* ^2 ?3 }
Default                                  : Yes
' n, B1 t- L4 w$ U2 F. KForced                                   : No# H" n' e) y+ p, \$ j0 x
Audio& L; X- Y& W) E3 ?# r2 h7 T
ID                                       : 2
  }( l6 Q4 M9 r$ o6 AFormat                                   : DTS XLL0 V6 Q6 Y1 \; F! b2 e! S
Format/Info                              : Digital Theater Systems) U1 ?0 f0 \* w; l
Commercial name                          : DTS-HD Master Audio
0 J  _- N* H5 j( U' w* [Codec ID                                 : A_DTS) |' ~" j/ W9 M: l: U# ?
Duration                                 : 1 h 48 min
0 h. }7 Z- @' }( R3 c+ wBit rate mode                            : Variable& C5 Y4 R8 c. d) k7 }0 C
Bit rate                                 : 1 387 kb/s
2 P/ I0 s& q3 G' N6 q2 z" s( {& X1 |Channel(s)                               : 6 channels
( S& X( U" t& S$ g, q  }  k+ ?. rChannel layout                           : C L R Ls Rs LFE
9 ?+ H5 N7 D' E  k) lSampling rate                            : 48.0 kHz4 y0 T' ^  P( }8 v0 w) f0 Z8 N, t% Z
Frame rate                               : 93.750 FPS (512 SPF)
, u5 q; u* e6 |' e$ j, ?7 [0 EBit depth                                : 16 bits1 V- g5 R  H8 a" y# Q
Compression mode                         : Lossless& T, n& y" Q% L4 a. U' k
Stream size                              : 1.05 GiB (10%)
3 `, N8 c$ p& A. Z( `! @Title                                    : dts
  q* W7 S  ^% M% I5 p0 ]* d7 RLanguage                                 : English& F" w8 A1 V* K- V% Z% w5 t
Default                                  : Yes
3 w  @+ K; H/ C$ g! X6 vForced                                   : No
2 h% ?# L8 m# U" `Text
/ p2 e3 O; s1 ]+ _( `. iID                                       : 3! o7 \% z2 h. }! Y
Format                                   : PGS  h; ]+ k( |3 K+ W0 J
Muxing mode                              : zlib
: z( t( U  b- `8 U5 x9 UCodec ID                                 : S_HDMV/PGS( _* s* a, b6 n0 ?* w: a$ P& V3 q
Codec ID/Info                            : Picture based subtitle format used on BDs/HD-DVDs; _6 Z( M; M; |* \$ l
Duration                                 : 1 h 44 min) o; W! E8 T: C' o' M' a
Bit rate                                 : 14.5 kb/s5 \8 Y( I/ {7 r: Y) {! N. p8 M* _4 K9 E
Count of elements                        : 27134 r0 j7 z# S: x
Stream size                              : 10.9 MiB (0%)
% U! T  j1 W' o' ^% `Title                                    : sub: J; O' k/ K5 f) y
Language                                 : German
$ ~; g, L. h8 Q8 c/ I7 HDefault                                  : No
1 W3 ?+ y* z# O. r+ ^Forced                                   : No
3 P' l3 y% I1 X: b) m$ i8 lMenu
9 V. Z0 ~6 `9 u" S2 H00:00:00.000                             : en:00:00:00.000/ f1 ]6 a- w+ l
00:05:37.921                             : en:00:05:37.921. o: |9 i) F4 W1 v" Z
00:15:36.144                             : en:00:15:36.1442 p5 i0 e4 i- |
00:25:43.834                             : en:00:25:43.8342 X" F) A2 Y0 q8 B: Y8 `) F! r
00:32:49.968                             : en:00:32:49.968
) K- l& O# X  E4 L$ G2 ?6 l% u, T00:39:07.303                             : en:00:39:07.303
# O# f( w7 m1 Q7 q00:53:38.715                             : en:00:53:38.715
6 u) |# y0 l# ]01:03:59.586                             : en:01:03:59.5868 z  s8 v! c  K! J
01:11:36.626                             : en:01:11:36.626: ]' l- T0 o* Z/ ~; B; _6 v0 \1 C8 Q
01:17:54.461                             : en:01:17:54.461
$ d( b5 V$ a% }01:30:17.746                             : en:01:30:17.746/ I  y2 I1 Z! }$ o# U: i) }
01:45:06.300                             : en:01:45:06.300
* c/ H  m, T/ b  w# n
* b; _& c0 D) yLost.In.London.2017.LiMiTED.1080p.BluRayCD.x264-GETiT. N2 b$ w% ], D$ {" e' `9 w
6 M8 x3 e2 j4 v1 c( `
Release Type .......: x264 CRF17
, `% U( u  W: g" ~5 rVideo Bitrate ......: 1920 x 1080  @ 11,9 MB/s3 A+ w5 ~, `3 M3 ~; q: H! A
Source Bitrate .....: 22,2 MB/s3 L9 y- ~5 [" k7 x9 w( a
Audio Bitrate ......: English DTS XLL 5.1 @ 1.387 kbps (DTS-HD)- l" J2 I6 f+ t" L' Y/ Y
Subtitles .........:  German
0 ^  c& o) e0 k6 `) m2 G% U7 K: w6 S1 U( ^" p( y" g
Release Date .......: 02.06.20203 T+ H( ~+ G9 C  W$ @
Size ...............: 10 GB
/ x" q0 W5 x, C7 N. CNotes ..............: Not Yet!
0 Z+ h, H9 ]/ o- P- ~9 S
+ t: Q" S1 c4 X2 v+ Thttps://www.imdb.com/title/tt6338476/( \$ `, _; m1 c; R
9 d9 Q+ L' q; r) `* x
UNiVERSUM (Big Thanks!) - iTWASNTME

6 Y: Z3 l* r0 v  d
游客,查看本帖隐藏内容请回复 | 加入VIP贵宾组可免积分免回复下载 了解详情 | 还不是会员:点击获取邀请码 Invitation Code

本版积分规则

小黑屋|Archiver|蓝光电影资源网

GMT+8, 2020-10-29 04:10

快速回复 返回顶部 返回列表