BluRayCD Forum

 找回密码
 立即注册【分享大片】

QQ登录

只需一步,快速开始

查看: 56|回复: 3
收起左侧

[蓝光原盘] 迷失伦敦 [REMUX无损版] Lost in London 2017 1080p BluRaycd REMUX AVC DTS-HD MA 5.1-FGT 17.39GB

[复制链接]

4550

主题

4722

帖子

6万

积分

Post Share

金币
8727 枚
体力
16795 点

卓越贡献勋章

黄金嫖客 发表于 2020-9-21 03:52:58 | 显示全部楼层 |阅读模式
Within the course of one night, Woody Harrelson finds himself in a misadventure in London that winds him up in jail.
6 ?, v; g; Z% x; g2 A5 ?
5 y8 O; c" J( m& B 01.jpg
) v+ I4 ?0 v2 D8 r  e  @4 b+ l- w# ^) B
◎译  名 迷失伦敦
) _  |- u4 L. ?◎片  名 Lost in London
) o/ H8 u- Q2 ~/ b* Q& R) A◎年  代 2017" \% Z) r/ L' X' M, c/ C4 y$ B
◎产  地 美国# G9 o# v" s. n+ h/ U. y
◎类  别 剧情/喜剧4 B5 M& S* C: ^! D
◎语  言 英语
( L# T# d- Q4 C. T4 a" y; B◎上映日期 2017-01-19(美国)8 f' d" Z; }; j$ i
◎IMDb评分  6.2/10 from 2,952 users8 U: p8 d: X8 p3 ~' g4 A" }6 t
◎IMDb链接  https://www.imdb.com/title/tt6338476/
3 P; j# r7 [. i7 j◎豆瓣评分 0/10 from 0 users8 ~0 l1 ^7 ~) A) B  I
◎豆瓣链接 https://movie.douban.com/subject/26882451/# W. \. r# g$ q, V2 O& q
◎文件格式 x264 + DTS
6 Q) f' j: k8 ^& `6 C% a: \◎视频尺寸 1920 x 1080
4 x* N) t) H1 j; ]' e7 u5 @- l◎文件大小 1DVD 17.39 GiB
% |5 J! H2 r+ c( w4 H: [( _$ R◎片  长 1 h 43 min0 r6 ~9 z" s0 E# J% ~6 _3 [9 R
◎导  演 伍迪·哈里森 Woody Harrelson
6 U" {3 |3 s5 A4 `! G◎编  剧 伍迪·哈里森 Woody Harrelson4 C- Z, P$ G, \5 q
◎主  演 伍迪·哈里森 Woody Harrelson8 D! p* k  e' J9 ?
       欧文·威尔逊 Owen Wilson1 ], o* n8 {1 U0 n
       威利·纳尔逊 Willie Nelson* f" O4 ^: a1 t+ [0 g2 b
       马丁·麦凯恩 Martin McCann( N& L+ k6 r4 k
       大卫·艾弗里 David Avery
& n7 W. E: l7 w6 I       彼得·费迪南多 Peter Ferdinando
* z- ]: S; ^# P) K$ y: |       优素福·凯尔科尔 Youssef Kerkour
* M1 T8 F" G( H& O* G$ m- M       Amir El-Masry
4 x9 J" F7 A4 C; o* }: b
- f$ o( O1 g( H# b% [◎标  签 WoodyHarrison | 美国 | 喜剧 | 伦敦 | LIVE | 电影 | Comedy | 美国电影
' H# L& E/ e( I$ O/ e. k( h
. u# v( Y: y, @; \◎简  介  - O* ^6 B$ u, I, p) N6 M& R! m3 ~9 z2 F

, D; p) d: \6 p6 n( ]/ Y4 K& p  伍迪·哈里森自编自导自演新作《迷失伦敦》取得新进展,欧文·威尔逊和威利·纳尔逊确定加盟。据悉,影片将会在明年一月中下旬投入拍摄。哈里森将在片中饰演一位努力与家人团聚的角色,然而事不遂人愿,来自多方的重重压力阻碍着他重新回归家庭的路。
! z: d/ U! }7 o4 C! `4 o  W* H, u. L2 q# V: O# \
  In a comedy that draws a new line between real and surreal, Woody Harrelson takes a live misadventure through London for an honest look at fame, family and faith. Woody finds himself stuck in a drama bubble as he drifts from a spirited encounter with Owen Wilson at a club to the wisdom of the Texas Dalai Lama, Willie Nelson, in prison. His resolve is tested over the course of the night as he is faced with the true nature of what it means to make a connection with the demanding world around him. An aspiring first foray as a writer/director, Woody Harrelson shot LOST IN LONDON in a single take and challenges audiences to follow him on this unique journey for a night in his life.
3 N9 W5 q+ y* N5 @5 z! Y4 E4 c# _# R+ X, n3 A
Video
/ y/ ?$ }" j. C! x" \( t. q% FID                                       : 1
% s- a- L( c& wID in the original source medium         : 4113 (0x1011); i3 G9 h2 C) ]8 V, o# n
Format                                   : AVC5 x9 |* o3 ~, K2 J8 F( R3 T; n; y
Format/Info                              : Advanced Video Codec: {7 K3 H' E7 k5 U
Format profile                           : High@L4.1
( a' x6 k# k: y9 Z% AFormat settings                          : CABAC / 2 Ref Frames
$ R* n% l. X0 m4 G6 U, mFormat settings, CABAC                   : Yes; U$ D( Q! q% r0 {
Format settings, Reference frames        : 2 frames
- X. u, E! D0 B* [6 `/ X4 ~8 `Codec ID                                 : V_MPEG4/ISO/AVC% {: D* Y1 P3 U' a. `- t
Duration                                 : 1 h 43 min
5 v* Z) ?. {* G. Z9 y6 s+ qBit rate mode                            : Variable
: v( x7 x( v. _, v4 U  JBit rate                                 : 22.6 Mb/s( X$ f* m. V3 X) _9 K0 S6 |
Maximum bit rate                         : 30.2 Mb/s3 S2 I$ k! i3 f  V5 l
Width                                    : 1 920 pixels
. v" p$ R" Q8 h; F2 n9 e; g/ MHeight                                   : 1 080 pixels
& b1 H' w# k3 C5 g' @Display aspect ratio                     : 16:95 Q7 @* Y. _" _/ g( K) ^% a3 V9 y
Frame rate mode                          : Constant" w5 j: a5 O+ M5 d1 e
Frame rate                               : 23.976 (24000/1001/37687) FPS8 J% U, f' w2 R2 l1 b. u
Color space                              : YUV
& y/ [1 R4 Q& }( HChroma subsampling                       : 4:2:0* C) Q+ ~) \2 ~2 I$ D$ h
Bit depth                                : 8 bits) \5 n$ w! j% p+ {3 Z0 X& J
Scan type                                : Progressive
( Q& q7 O2 {8 B6 eBits/(Pixel*Frame)                       : 0.455
: z4 z( `3 X: g2 t* E6 nStream size                              : 16.4 GiB (94%)+ ^$ n* R) t( X1 {3 Y! M
Title                                    : Lost.in.London.2017.1080p.BluRayCD.REMUX.AVC.DTS-HD.MA.5.1-FGT; q# }$ }5 S6 d" [/ e
Language                                 : English
8 [, m" p. G1 z' kDefault                                  : No
- X; j" B: G4 m) j0 c% [9 l8 VForced                                   : No
3 y$ X' P4 K) x" X- A0 D; }Original source medium                   : Blu-ray
: w) N5 M8 i7 v# e  z4 N1 N) B& l
Audio! t  n8 X/ d8 o3 [6 v- r
ID                                       : 2; A- i& {2 L3 D' Y: g: x
ID in the original source medium         : 4353 (0x1101)7 K6 N( E3 L& c/ V% [1 _& J/ a
Format                                   : DTS XLL
! r- ?! ^0 K" E* ^9 N0 QFormat/Info                              : Digital Theater Systems0 e  ^4 m' N4 R
Commercial name                          : DTS-HD Master Audio
. `, k4 ]! D6 R2 ~! |Codec ID                                 : A_DTS" Q8 d- V9 d0 o4 Q( V
Duration                                 : 1 h 43 min' T' q" z3 g. p1 U$ P
Bit rate mode                            : Variable
0 Z* M2 ]0 e+ F7 U& m2 QBit rate                                 : 1 376 kb/s
) m) Y. K! r4 N7 w2 X( ?; [; P3 NChannel(s)                               : 6 channels
2 q+ t+ o/ c( O3 ]" GChannel layout                           : C L R Ls Rs LFE( m- |* G: [; a; L. T
Sampling rate                            : 48.0 kHz+ ?" v% j: W0 N# q# v0 ^
Frame rate                               : 93.750 FPS (512 SPF)
# f6 r# U$ y2 x8 O, d( X( WBit depth                                : 16 bits
1 K! @( ~3 d8 E7 d; h( E( R* WCompression mode                         : Lossless
2 z" X( A0 ~* Q9 PStream size                              : 1 021 MiB (6%)
6 }1 ]5 t! K9 u( H% B/ P3 Y3 q- X  \! ~Title                                    : Lost.in.London.2017.1080p.BluRaycd.REMUX.AVC.DTS-HD.MA.5.1-FGT. P0 U0 a+ e& g- y, a! z
Language                                 : English
% w# F9 P! p" g% BDefault                                  : Yes
+ X5 I1 o# s2 Q5 k8 qForced                                   : No
/ e+ T* U' I: \4 c+ }/ M2 I7 yOriginal source medium                   : Blu-ray
* n7 u( ]4 r* j$ T
; y8 C) X7 B5 n) T7 H7 V$ U3 d( JText5 S( D( ~% i& U. n" i8 N
ID                                       : 3$ d9 t" L3 D3 Q, p" _+ Q
Format                                   : UTF-8
1 R9 T. t( k. h4 J- s2 h6 [Codec ID                                 : S_TEXT/UTF8
6 L- z. t$ Q$ ~! A, w6 L% pCodec ID/Info                            : UTF-8 Plain Text9 z7 `, h# X. c  l% M. _
Duration                                 : 1 h 43 min2 L- z5 c0 e- B* M# ^: k
Bit rate                                 : 96 b/s
3 Y9 b1 X6 y! u* l6 g8 zCount of elements                        : 2131' e% H& ^9 Y$ _' X' N2 M0 q9 s
Stream size                              : 72.7 KiB (0%)3 c- u  t" P) i' L9 O
Title                                    : English-SRT$ D. U6 r$ P5 d, u+ a
Language                                 : English
. C8 r' T3 W* ?) J% @, L. iDefault                                  : Yes
9 Q( b$ a, c5 z3 H! `5 q8 GForced                                   : No
' Y8 H+ T3 h. p# A0 v; G
% W; b0 b: ~5 ]8 D- QMenu; M& E) i  ~- l4 q
00:00:00.000                             : en:Chapter 01
& |- B' [+ K2 z# h00:01:04.856                             : en:Chapter 026 r- |, t( W# v' U. s5 K( ]2 s
00:11:02.953                             : en:Chapter 03  J& t2 ~$ h; [: c
00:21:11.311                             : en:Chapter 04# V" O4 Z1 `6 s, M' Y- y& o
00:28:17.070                             : en:Chapter 059 i  S$ @- v( O1 J! k$ r
00:34:34.196                             : en:Chapter 06
; u7 \; J0 h2 ?( W) o+ K" N3 J00:49:05.901                             : en:Chapter 072 [6 k1 O. Y+ i
00:59:26.604                             : en:Chapter 08
+ r* N' q- S  e8 W3 g01:07:03.435                             : en:Chapter 09) O  H9 p) R& N2 \. r, X
01:13:21.772                             : en:Chapter 10
: b. J& ~% u3 {1 P( j! D01:25:45.014                             : en:Chapter 11$ t4 \' ~1 ^9 \; q6 t1 z
01:40:33.360                             : en:Chapter 12
3 n7 A1 t4 U3 K  l& e4 g' }: I
游客,查看本帖隐藏内容请回复 | 加入VIP贵宾组可免积分免回复下载 了解详情 | 还不是会员:点击获取邀请码 Invitation Code

0

主题

91

帖子

575

积分

Sponsor

金币
1 枚
体力
402 点
welkinlau 发表于 2020-9-24 09:59:25 | 显示全部楼层
感谢楼主分享

0

主题

186

帖子

993

积分

Sponsor

金币
152 枚
体力
482 点
2475017 发表于 2020-10-4 02:05:38 | 显示全部楼层
感谢楼主分享
3 P' M2 P1 ~9 N; f9 v5 B3 m9 m
该会员没有 ...

本版积分规则

小黑屋|Archiver|蓝光电影资源网

GMT+8, 2020-10-23 04:03

快速回复 返回顶部 返回列表