BluRayCD Forum

 找回密码
 立即注册【分享大片】

QQ登录

只需一步,快速开始

查看: 12|回复: 2
收起左侧

[喜剧爱情] 迷失伦敦 Lost In London 2017 LiMiTED 720p BluRaycd x264-GETiT 3.54GB

[复制链接]

3897

主题

4271

帖子

3万

积分

Post Share

金币
7316 枚
体力
6584 点

卓越贡献勋章

mvods 发表于 2020-9-11 00:13:21 | 显示全部楼层 |阅读模式

* F0 m  W# V; X; D' I
/ i) D1 Y, @6 y/ `◎译  名 迷失伦敦4 m# e1 j  C# \
◎片  名 Lost in London
) T1 y" F( X; O" y◎年  代 20173 L' e! v% b) S2 K
◎产  地 美国
4 \9 K- l, r9 \5 P6 H( e" ?+ z5 k5 s◎类  别 剧情/喜剧
$ D+ h% c; E, }: u/ A. o◎语  言 英语
) ^6 O) {2 p; X" N( t◎上映日期 2017-01-19(美国)$ x" h. ^) ?* t: B4 }( |
◎IMDb评分  6.2/10 from 2,932 users' b( Q7 \9 @( t
◎IMDb链接  https://www.imdb.com/title/tt6338476// C9 r4 _, s# P. w* A
◎豆瓣评分 0/10 from 0 users* y5 m& p+ N; K' O: ^" u
◎豆瓣链接 https://movie.douban.com/subject/26882451/# @2 H3 e2 Q- i+ j9 [) x8 ]
◎片  长 1 h 48 min0 u  f9 d, O8 L6 m. ~
◎导  演 伍迪·哈里森 Woody Harrelson$ |+ D2 u' A1 N
◎编  剧 伍迪·哈里森 Woody Harrelson
6 n2 c# [0 k. q& |- j◎主  演 伍迪·哈里森 Woody Harrelson8 S8 a: S0 u# F! J0 A! H7 H
       欧文·威尔逊 Owen Wilson
: P$ P! F, [$ n! z) s5 |       威利·纳尔逊 Willie Nelson9 t$ `. P7 P8 ~% P
       马丁·麦凯恩 Martin McCann
2 \8 P# f/ \; M3 R. H; A& Q       大卫·艾弗里 David Avery/ H4 H) E, J3 N- X  l5 J
       彼得·费迪南多 Peter Ferdinando8 v( R* e2 i+ `- J0 s9 `/ f! u
       优素福·凯尔科尔 Youssef Kerkour" z* G' H' P' F" R4 N' y9 Y
       Amir El-Masry( x8 t  T9 h) c2 X8 J: f
/ J' t' h& J; w7 M8 b) q
◎标  签 WoodyHarrison | 美国 | 喜剧 | 伦敦 | LIVE | 电影 | Comedy | 美国电影
" {1 n2 k+ |: F$ u
9 w0 Y8 Y1 `1 S◎简  介  
, W( z: h2 B# d% ]
5 p$ y1 [5 L# \8 Q4 M7 h4 z; m  伍迪·哈里森自编自导自演新作《迷失伦敦》取得新进展,欧文·威尔逊和威利·纳尔逊确定加盟。据悉,影片将会在明年一月中下旬投入拍摄。哈里森将在片中饰演一位努力与家人团聚的角色,然而事不遂人愿,来自多方的重重压力阻碍着他重新回归家庭的路。, J2 a: e+ g: {1 F% _
Video
- B' s$ Q% d  x  o+ f; }ID                                       : 1
. b1 Q" Y) w! w: m! |- u. BFormat                                   : AVC
* \# \7 {' t5 Q+ N" K6 J9 [Format/Info                              : Advanced Video Codec
' A7 T; @4 U" k) s: zFormat profile                           : High@L4.1& ^# i' M* l7 E' W
Format settings                          : CABAC / 8 Ref Frames
3 M! L  g: q# I9 Y4 E* ^Format settings, CABAC                   : Yes4 [7 o: z. F1 M
Format settings, Reference frames        : 8 frames
. i; F: i" i& `+ K% I0 m% D  WCodec ID                                 : V_MPEG4/ISO/AVC' t* b! v6 ?$ c/ |* @+ \0 O
Duration                                 : 1 h 48 min% F0 }: {+ J3 K9 o5 L5 M: i* y
Bit rate                                 : 4 030 kb/s
& L' Y. J; n* ]% v( ?Width                                    : 1 280 pixels& z! ]6 d7 z& G; _' J- @
Height                                   : 720 pixels5 T8 Y; L- W4 L; L
Display aspect ratio                     : 16:92 M6 u5 [4 Q$ c  G# u) w7 [
Frame rate mode                          : Constant$ h# u. K5 x3 u/ k
Frame rate                               : 23.976 (24000/1001/37687) FPS
6 M4 a: Z3 N2 K7 A0 p* C+ o9 RColor space                              : YUV( w0 Q* e5 T* ]9 k1 e; q' I
Chroma subsampling                       : 4:2:0/ o! u0 |$ ~8 L( o( |6 \( s
Bit depth                                : 8 bits
4 i2 B/ E% [, ^! t+ u5 z. kScan type                                : Progressive! ]6 p, ]1 H. |7 p) s) a* C
Bits/(Pixel*Frame)                       : 0.182
0 T/ \; N& H: y: z" X: o  OStream size                              : 3.05 GiB (86%)
7 m" h1 L( W: v4 v$ n/ A* w* P1 eWriting library                          : x264 core 160 r3000 33f9e14. s" ~5 u2 \* C- H$ _) s) U- c
Encoding settings                        : cabac=1 / ref=8 / deblock=1:-3:-3 / analyse=0x3:0x133 / me=umh / subme=9 / psy=1 / psy_rd=1.00:0.00 / mixed_ref=1 / me_range=16 / chroma_me=1 / trellis=2 / 8x8dct=1 / cqm=0 / deadzone=21,11 / fast_pskip=0 / chroma_qp_offset=-2 / threads=22 / lookahead_threads=1 / sliced_threads=0 / nr=0 / decimate=1 / interlaced=0 / bluray_compat=0 / constrained_intra=0 / bframes=3 / b_pyramid=2 / b_adapt=2 / b_bias=0 / direct=3 / weightb=1 / open_gop=0 / weightp=2 / keyint=240 / keyint_min=24 / scenecut=40 / intra_refresh=0 / rc_lookahead=60 / rc=crf / mbtree=1 / crf=17.0 / qcomp=0.60 / qpmin=0 / qpmax=69 / qpstep=4 / ip_ratio=1.40 / aq=1:1.00% [  y8 x5 W) M
Language                                 : English
& @) r1 P0 O: {4 WDefault                                  : Yes6 h- [7 F: x1 P& ]' N/ G! J9 }7 t  X
Forced                                   : No
; z( c$ G1 |0 q/ @& c5 [% ]Audio
5 ?4 T3 g5 j5 h8 I/ b& q, U% p; @ID                                       : 2
9 D1 @" m! y+ z, R3 bFormat                                   : AC-3! d3 A+ B. @- _7 O/ {- Q
Format/Info                              : Audio Coding 3
' s- Q* e" a3 R" VCommercial name                          : Dolby Digital
, H9 Z# a4 y$ y7 }( _" FCodec ID                                 : A_AC3# V: B+ n& \- }) h) V- M) J
Duration                                 : 1 h 48 min
. i$ I1 ~3 Z  U5 m7 Z! b1 d2 HBit rate mode                            : Constant9 X, N1 t7 L* O7 ?
Bit rate                                 : 640 kb/s/ e* B1 b4 R; v: d5 Z
Channel(s)                               : 6 channels) Q/ ^. ~! U6 ]& N# J( C
Channel layout                           : L R C LFE Ls Rs+ F; n) G( R: u( K- M) j
Sampling rate                            : 48.0 kHz+ O) i( u7 p7 r$ e7 \6 w% ~
Frame rate                               : 31.250 FPS (1536 SPF)
, a( t% Y! l) j  S  NBit depth                                : 16 bits
* y+ x! `% v8 y5 e6 {: @$ CCompression mode                         : Lossy' o, T; p, H& q! L* Z+ V& N5 f
Stream size                              : 496 MiB (14%)
( n7 N% l& k* R" DTitle                                    : ac3
9 Y2 K  W& N  `: PLanguage                                 : English: R, q' k! k4 b+ O+ L
Service kind                             : Complete Main
. x4 G* u6 ?6 s1 FDefault                                  : Yes) O; U8 l' ~. c( T8 l, U4 {1 S$ m
Forced                                   : No8 ?* i" _  y. V* ^+ j, n. q7 H! B
Text$ f: e' `3 e% @5 R# m# s
ID                                       : 35 n1 ]2 G7 k6 f9 e# P1 K2 ]- C- }
Format                                   : PGS
9 Z, V5 i8 Z: }/ [$ O& k  JMuxing mode                              : zlib* x! B6 G/ ^% _6 y7 T8 V
Codec ID                                 : S_HDMV/PGS
! w% S/ @3 }, J7 v  HCodec ID/Info                            : Picture based subtitle format used on BDs/HD-DVDs8 b6 @" w+ B8 Q- w4 P: G: i
Duration                                 : 1 h 44 min
: J% k9 K, ]  |) \) y  u9 WBit rate                                 : 14.5 kb/s
+ W: t# U1 U1 o! M7 t- xCount of elements                        : 2713( n: w& U; u$ f# B4 @6 ^
Stream size                              : 10.9 MiB (0%)
' G, L  W' ]# x7 q* VTitle                                    : subs2 W& Q- C" _' n$ f2 f. Y; S
Language                                 : German
; u2 t/ H' e# H; {/ r8 P$ iDefault                                  : No3 i" v; Q: h; F) O1 Z
Forced                                   : No& u: u/ X# O3 [3 B3 R+ X7 c" G, u
Menu: @# q! R( G  l7 C* x
00:00:00.000                             : en:00:00:00.000
/ q  |8 Z% Y3 {; c% T* f$ C00:05:37.921                             : en:00:05:37.9216 J5 E0 s8 _6 c- z
00:15:36.144                             : en:00:15:36.144
- g" d. S0 ]: I% ]8 h3 l$ g1 w00:25:43.834                             : en:00:25:43.834
9 [( M+ n- d6 [" s& L. j. n00:32:49.968                             : en:00:32:49.968( E0 h% Z; t8 i6 e
00:39:07.303                             : en:00:39:07.303
4 _# ?% |  e: n/ z) w$ R9 g00:53:38.715                             : en:00:53:38.715, U9 J2 F5 D! U! }) G7 Q; r
01:03:59.586                             : en:01:03:59.586
: k& ?% k: f/ Q4 Q0 C* R2 i2 B. n01:11:36.626                             : en:01:11:36.626
( q1 ?/ P+ {7 X" [01:17:54.461                             : en:01:17:54.4614 {+ _- H. n7 X1 F) W3 D' q
01:30:17.746                             : en:01:30:17.746
. t8 d2 J: B1 |6 j& r' i01:45:06.300                             : en:01:45:06.300) t3 [: P: ]1 t1 s
2 g, J! L) b" o+ {6 [
Lost.In.London.2017.LiMiTED.720p.BluRayCD.x264-GETiT
9 A) v( k  e1 B8 V" F# _/ b: R
; J0 u. z$ E0 L) [6 NRelease Type .......: x264 CRF17
7 ^: [5 z) d6 P2 gVideo Bitrate ......: 1280 x 720  @ 4030 kbps: V8 U. w! r4 T3 P8 ?
Source Bitrate .....: 22,2 MB/s* Y: D* O4 Z5 s& v  Z% [. {  x/ i3 h
Audio Bitrate ......: English AC3 5.1 @ 640 kbps
8 h8 @7 e; l' y" \9 n8 ESubtitles .........:  German
- ^1 X) V& o3 D8 Q8 ^/ H; g7 p! [. h4 C" V' C* G
Release Date .......: 02.06.2020
5 ?+ }5 N9 c* W4 G1 tSize ...............: 3628 MB% u/ E7 A7 p' r+ R$ M
Notes ..............: Not Yet!
6 L7 P- ^* p; C0 v
3 p( C+ u% D6 `5 {; Khttps://www.imdb.com/title/tt6338476/) s5 k' F4 y# o: M

+ t4 L7 R  c1 q) |! X4 [2 FUNiVERSUM (Big Thanks!) - iTWASNTME

3 b+ }2 i' k% ^
游客,查看本帖隐藏内容请回复 | 加入VIP贵宾组可免积分免回复下载 了解详情 | 还不是会员:点击获取邀请码 Invitation Code

0

主题

506

帖子

2316

积分

Sponsor

金币
10 枚
体力
1326 点
QQ
七喜 发表于 2020-9-11 01:05:14 | 显示全部楼层
姐顶的不是帖子,是寂寞!
+ m8 F# s& a. y+ n$ q& [Blu-ray movies Community: my favorite!
8 ?6 q1 X8 T& Z; \/ H: x6 }  x5 `

0

主题

506

帖子

2316

积分

Sponsor

金币
10 枚
体力
1326 点
QQ
七喜 发表于 2020-9-11 11:38:23 | 显示全部楼层
沙发是抢的而不是占的!
# \; W3 Z9 [9 |$ D# EThe decisive Replies sink is I get the sinking feeling great sense of accomplishment!
& U: v7 R5 j. u2 }" e8 \# I

本版积分规则

小黑屋|Archiver|蓝光电影资源网

GMT+8, 2020-10-29 04:45

快速回复 返回顶部 返回列表