BluRayCD Forum

 找回密码
 立即注册【分享大片】

QQ登录

只需一步,快速开始

查看: 20|回复: 0
收起左侧

[经典影片] 世界大战/地球争霸战 [重制版] The War of the Worlds 1953 REMASTERED 1080p BluRaycd x264 DTS-HD MA 5.1-FGT 8.78GB & 12.08GB

[复制链接]

3897

主题

4271

帖子

3万

积分

Post Share

金币
7316 枚
体力
6584 点

卓越贡献勋章

mvods 发表于 2020-9-11 00:26:57 | 显示全部楼层 |阅读模式
$ C: J. `. f  F
  R8 n# G/ W" y7 E
◎译  名 世界大战/地球争霸战/外星人大战地球/ A) C1 [+ R( w9 Y5 T5 Z' c/ n
◎片  名 The War of the Worlds
& z9 V4 [* x. r5 [% E$ \! s◎年  代 1953
; B# `) Q$ x6 T) ^' Z( K◎产  地 美国8 _( l, n7 Q9 h1 j$ h
◎类  别 动作/科幻/惊悚/恐怖& K/ {+ r* b  a7 h
◎语  言 英语/西班牙语
- i- `7 {% U' |( V# h+ k, z◎上映日期 1953-08-26
+ o! [& X2 Q# @( u! p# {0 J3 r" R◎IMDb评分  7.1/10 from 32,102 users2 w1 ^& e  M# y; |) ?' J
◎IMDb链接  https://www.imdb.com/title/tt0046534/6 q! z& ]7 B5 {/ D+ \# @
◎豆瓣评分 6.4/10 from 535 users  r% W, q- Z( K7 J: d# ^
◎豆瓣链接 https://movie.douban.com/subject/1293523/- C4 r, K: B* f0 `+ \  T
◎片  长 1 h 25 min
; B1 C- {( z; X. g% y5 K9 {# M+ B$ f0 `◎导  演 拜伦·哈斯金 Byron Haskin
  I" T* p) n4 Y: @9 u- |◎编  剧 巴雷·林登 Barré Lyndon
! j* E' G3 X, n  n4 {" R       赫伯特·乔治·威尔斯 H.G. Wells
# D* I6 c7 B' d5 y4 V' Z% E◎主  演 吉恩·巴瑞 Gene Barry
7 E  h" K6 b$ A  u       安·鲁滨逊 Ann Robinson1 b' H: F. E4 n. R( Y- V
       莱斯·崔梅恩 Les Tremayne4 _* Y. Y! i6 R  P( |" x
2 x3 K/ a0 E. B4 _& X6 v
◎标  签 科幻 | 美国 | 1953 | 1950s | 美国电影 | 外星人 | 惊悚 | 美國8 T1 ~0 I' x5 ]6 H* u/ s3 B

3 N0 Q; f" m, G. u4 O, s6 e5 x- h◎简  介  
+ c9 B! D2 n# @8 @
7 v, D1 r, X3 h  火星人因火星气候变化无法生存而计划大举侵入地球,当第一艘飞船落到地球上时,居民们以为是陨石。博士克莱法斯特通过探测仪器得知有放射性,需等冷却才能查看,但有人好奇前去观看,不料被杀死。人类的所有武器都不能对付火星人的死光炮,全世界的人都在逃命,整个地球乱作一团。正在这时,火星人却一个接一个死去,原来……1 T: L4 z% G, a. V

6 r* {  z& H0 }2 j  A small town in California is attacked by Martians, beginning a worldwide invasion.  A  `- o- Y) b/ C8 ~0 S, S

  d  L1 Z  K: ]9 O& c, e- o◎获奖情况  + l% u6 @. z, p! a3 e9 s

0 V5 v& e* R4 X1 z  第26届奥斯卡金像奖(1954)
3 E  B- h$ J% n8 p9 F! V  最佳剪辑(提名) Everett Douglas; J% K3 j4 o$ t1 {4 Y6 u5 s/ G
  最佳特效1 s5 B$ H7 m! T
  最佳录音(提名) 洛伦·L·里德
# R! B& L  e& Z
Video9 i5 f2 A) s* G" F3 L* W5 C
ID                                       : 11 y2 j+ v) J/ {( |5 T* T
Format                                   : AVC2 ^$ _9 ^; v/ G4 d% o. a# p' ^7 i
Format/Info                              : Advanced Video Codec& t8 J- E) G- k- j; a
Format profile                           : High@L4.1
$ D4 e' z8 r$ w! t/ ]- ^" Y  k7 \$ gFormat settings                          : CABAC / 4 Ref Frames
6 s+ i7 c" B( n8 oFormat settings, CABAC                   : Yes
! k( G! B( X# z. j& A3 K" V8 i: B8 fFormat settings, Reference frames        : 4 frames
2 a" s+ r, Y5 k7 E* J  |$ {Codec ID                                 : V_MPEG4/ISO/AVC
: A9 _* H9 X, f  d% ]0 `* ZDuration                                 : 1 h 25 min
5 e9 J4 ^% I. `/ |Bit rate                                 : 11.5 Mb/s
6 y- f& Q+ m6 e* b' R$ b. |4 WWidth                                    : 1 480 pixels! b8 D) e% p! U# }. k& J
Height                                   : 1 080 pixels# u6 f! A8 o3 N& [/ A$ l" N
Display aspect ratio                     : 1.370: f7 m% Z, h$ F
Frame rate mode                          : Constant
. X6 G/ ]* b( T. C8 M9 ~Frame rate                               : 23.976 (24000/1001/37687) FPS
' l# ]# x; ]) T4 u+ o- vColor space                              : YUV
% p$ ^7 L) [4 M' I6 ^Chroma subsampling                       : 4:2:0
: w9 [! i1 }7 I* q- n2 _+ S8 cBit depth                                : 8 bits; P( G" G1 w! D! ~4 n
Scan type                                : Progressive
. c+ S8 T1 {5 x) Y7 @Bits/(Pixel*Frame)                       : 0.3009 Q3 W1 X6 o  e9 N' C$ o  E* k7 u+ U
Stream size                              : 6.86 GiB (78%)
3 u/ m- h7 H4 P: m, i4 [; `Title                                    : The.War.of.the.Worlds.1953.REMASTERED.1080p.BluRayCD.x264.DTS-HD.MA.5.1-FGT
! P2 u- U0 j$ b5 n% Z( l* ^) SWriting library                          : x264 core 148 r2748 97eaef29 I( k4 i& D8 m& \' t& p
Encoding settings                        : cabac=1 / ref=4 / deblock=1:-2:-2 / analyse=0x3:0x113 / me=umh / subme=9 / psy=1 / psy_rd=1.00:0.15 / mixed_ref=1 / me_range=16 / chroma_me=1 / trellis=2 / 8x8dct=1 / cqm=0 / deadzone=21,11 / fast_pskip=1 / chroma_qp_offset=-3 / threads=72 / lookahead_threads=3 / sliced_threads=0 / nr=0 / decimate=1 / interlaced=0 / bluray_compat=0 / constrained_intra=0 / bframes=3 / b_pyramid=2 / b_adapt=1 / b_bias=0 / direct=3 / weightb=1 / open_gop=0 / weightp=2 / keyint=250 / keyint_min=25 / scenecut=40 / intra_refresh=0 / rc_lookahead=50 / rc=2pass / mbtree=1 / bitrate=11500 / ratetol=1.0 / qcomp=0.60 / qpmin=0 / qpmax=69 / qpstep=4 / cplxblur=20.0 / qblur=0.5 / vbv_maxrate=31250 / vbv_bufsize=31250 / nal_hrd=none / filler=0 / ip_ratio=1.40 / aq=1:1.00( `/ j5 N5 S' c4 U$ \- G% K7 t( [
Language                                 : English
- w. C' u* c5 D9 p5 kDefault                                  : Yes
- l9 G; w$ b: s9 v4 T* M8 SForced                                   : No
- r* w  t' x/ \+ e4 T+ _! o; V! l0 ]5 b5 [9 X
Audio4 o4 O7 r5 G% S8 W+ P
ID                                       : 2
" Y) _! _& e1 J7 c' Q7 Z8 mID in the original source medium         : 4352 (0x1100)
* K) L9 ?0 \5 i* yFormat                                   : DTS XLL
4 `3 W' t* Z+ o2 kFormat/Info                              : Digital Theater Systems
. H2 p/ `0 o& T( j: |. _Commercial name                          : DTS-HD Master Audio% P0 ?4 L) I. F9 ]
Codec ID                                 : A_DTS
: }- g9 Z. |, R6 }Duration                                 : 1 h 25 min4 I8 D3 _+ O1 Z/ k
Bit rate mode                            : Variable% v& ~& @8 }/ ]" Y8 f
Bit rate                                 : 3 188 kb/s0 F- v! b1 d: n+ |  D) G
Channel(s)                               : 6 channels1 P* `' M- [" g( B, v5 V: F
Channel layout                           : C L R Ls Rs LFE7 H# `5 h' t  Q
Sampling rate                            : 48.0 kHz
$ j4 H2 ~. k9 V) gFrame rate                               : 93.750 FPS (512 SPF)0 H; A5 m2 Q' {. f0 }, K
Bit depth                                : 24 bits- r, V! i( i- E& K
Compression mode                         : Lossless
+ U& F. |" P. E' B  Q# D$ wStream size                              : 1.90 GiB (22%)
& f# m; [6 o5 E  t# eTitle                                    : The.War.of.the.Worlds.1953.REMASTERED.1080p.BluRaycd.x264.DTS-HD.MA.5.1-FGT
6 N: d1 m! a6 ^! F5 O" R& VLanguage                                 : English' u# M8 s6 t  r' \; a# f4 m
Default                                  : Yes
$ R/ Y, s% a3 o, }Forced                                   : No3 S4 b3 }5 B9 J1 ]$ x0 S3 L
Original source medium                   : Blu-ray0 F9 m7 Y" w5 a, D" q

1 N6 F) Q2 ?  v% x* ?% uText #1
7 r/ A$ Z1 s4 H' V4 @ID                                       : 3
# Y6 P2 n3 w; A  n, u5 bFormat                                   : UTF-81 C- w# e* U, T  C) F4 e
Codec ID                                 : S_TEXT/UTF84 B6 G$ G/ ~9 Q7 n7 ]
Codec ID/Info                            : UTF-8 Plain Text
2 _* M' b  c6 E, ~' ~Duration                                 : 1 h 24 min7 J& i* f' d3 n$ m- y) R# `  x
Bit rate                                 : 58 b/s4 p$ l" Y" ]' c, n# Q
Count of elements                        : 898
, L+ P* @/ f* U' `- nStream size                              : 36.1 KiB (0%)
, [( \6 M3 ^! z! P& \. l8 nTitle                                    : English-SRT) |; J  F) U  X7 ^3 L
Language                                 : English
5 U$ ?( z5 E/ G' LDefault                                  : Yes- V; n2 Y5 `6 ?
Forced                                   : No& B( p' [) I2 a6 \# ^6 c3 [

8 N$ p' X. o" r/ A. V8 EText #2$ S  h; e# P* x8 O. W
ID                                       : 4
  [9 }  o% Z$ c; aID in the original source medium         : 4608 (0x1200)  H1 O- T* J' b/ K+ z8 `% N$ w( G
Format                                   : PGS
( T8 G/ f+ X9 r  K; `  K7 f+ xMuxing mode                              : zlib
2 p$ K; I  u% X! @3 PCodec ID                                 : S_HDMV/PGS* G& X2 X; r* @: g. A- i: V
Codec ID/Info                            : Picture based subtitle format used on BDs/HD-DVDs
% ^4 X& T7 J8 k, i& LDuration                                 : 1 h 24 min
/ P# p9 @& _/ {Bit rate                                 : 38.5 kb/s
) h' O2 b" c5 QCount of elements                        : 18067 x5 l% `# y7 J. |  ?
Stream size                              : 23.4 MiB (0%)
, {  t# L' C1 j' TTitle                                    : English-PGS# j7 i9 s; a$ n! h* [
Language                                 : English) G2 _2 t; P! {( |) l; a
Default                                  : No2 M* u# J5 Y/ G6 c
Forced                                   : No1 j- ^4 Y! q8 V9 j+ c" \6 k
Original source medium                   : Blu-ray
7 @  T1 s3 h8 `) H% e, Z/ f
; E2 g8 l6 l: X6 m6 x) a& BMenu% Q# [9 g5 a# {5 ?; S1 g/ L
00:00:00.000                             : en:Chapter 01% ~7 |8 n9 p  C8 g
00:00:06.715                             : en:Chapter 02
6 [7 e- [6 F" j7 j00:04:16.256                             : en:Chapter 03
! Z1 y1 ^4 i5 p- u$ O6 K& t2 W. p00:07:22.733                             : en:Chapter 04
# U1 q2 D3 V, }7 G4 _00:12:58.527                             : en:Chapter 05
0 O% G+ o/ }- \) O  z00:22:10.078                             : en:Chapter 063 I) I1 g9 L: L/ I# r5 P: G
00:30:37.252                             : en:Chapter 07
* E' }2 T" ^" {00:35:06.354                             : en:Chapter 081 `. z( L' a3 G
00:42:45.062                             : en:Chapter 09+ O/ }  r2 g  g& g; Q" a
00:46:39.505                             : en:Chapter 10( Q! N& t& A3 z8 m0 s* R& L( f
00:53:52.896                             : en:Chapter 112 i4 m  d- Z# w" e; W7 j: n. r- R
01:01:46.369                             : en:Chapter 12  r* J  R! i1 Q  U. V3 }# v$ B& l
01:08:08.876                             : en:Chapter 13
* [0 ]) m# a, S1 }' B& M" J01:13:48.924                             : en:Chapter 147 D1 y( p; A6 ^9 S
01:20:02.589                             : en:Chapter 15
* v/ l6 N! r& \0 @6 C$ V& I01:24:22.515                             : en:Chapter 16
Video
6 D0 L6 r+ S2 _  u+ jID                                       : 1
( [# u1 O5 S" x# c0 R1 tFormat                                   : AVC
" h5 Z, U$ \* ^' yFormat/Info                              : Advanced Video Codec
2 Y# H. o3 _7 x+ D8 f# m) wFormat profile                           : High@L4.1; [' G" w) q. p
Format settings                          : CABAC / 5 Ref Frames
/ S  @. g0 r1 j& S6 O7 Z( O) tFormat settings, CABAC                   : Yes
$ D- U+ U% @1 l1 [+ XFormat settings, Reference frames        : 5 frames
9 b" I7 L/ x9 t9 b9 v0 r0 j. vCodec ID                                 : V_MPEG4/ISO/AVC: L$ }0 h+ j; p/ ^+ R! r" @
Duration                                 : 1 h 25 min& d/ y6 z- F. \' a. a9 v; G
Bit rate                                 : 16.3 Mb/s, b6 }: V7 k" x
Width                                    : 1 480 pixels* R9 @' t% L4 f
Height                                   : 1 080 pixels
+ c  l# Y3 \# G; E9 NDisplay aspect ratio                     : 1.370" A% X/ H; i1 H/ U5 U
Frame rate mode                          : Constant5 z$ }( r7 z, G+ Y! A/ Z- w2 w. ~
Frame rate                               : 23.976 (24000/1001/37687) FPS
0 v- @. O& S. b2 J. v( ]! J" NColor space                              : YUV; |- G8 s) k- L
Chroma subsampling                       : 4:2:0" X' e) |, b3 [0 L, O' ^  L
Bit depth                                : 8 bits# p) x  c1 `, J9 v+ F
Scan type                                : Progressive, z0 _+ F4 U3 L. `
Bits/(Pixel*Frame)                       : 0.425
+ ^( ]; L; |4 @- EStream size                              : 9.74 GiB (81%)
; Y% L8 f- b3 V: g. i/ h0 uWriting library                          : x264 core 161 r3018 db0d417
, @% c7 a' d# O, ]Encoding settings                        : cabac=1 / ref=5 / deblock=1:-3:-3 / analyse=0x3:0x133 / me=umh / subme=9 / psy=1 / psy_rd=1.10:0.00 / mixed_ref=1 / me_range=32 / chroma_me=1 / trellis=2 / 8x8dct=1 / cqm=0 / deadzone=21,11 / fast_pskip=0 / chroma_qp_offset=-2 / threads=34 / lookahead_threads=2 / sliced_threads=0 / nr=0 / decimate=0 / interlaced=0 / bluray_compat=0 / constrained_intra=0 / bframes=3 / b_pyramid=2 / b_adapt=2 / b_bias=0 / direct=3 / weightb=1 / open_gop=0 / weightp=2 / keyint=250 / keyint_min=23 / scenecut=40 / intra_refresh=0 / rc=crf / mbtree=0 / crf=17.0 / qcomp=0.60 / qpmin=0 / qpmax=69 / qpstep=4 / ip_ratio=1.40 / pb_ratio=1.30 / aq=3:0.70
* r. q! U' c1 Q+ YDefault                                  : Yes
. N2 z, Z7 B' f0 F5 XForced                                   : No
2 y0 }) l/ B( n5 j9 ]) _. v6 o% |Color range                              : Limited8 X3 y8 e  k+ B
Matrix coefficients                      : BT.709
. h" U, _: ]9 k" _& SAudio #13 E+ A; O. w3 v2 g" {- \
ID                                       : 20 D* j  |7 R* v8 j9 i
Format                                   : DTS XLL2 K( I' H5 x- E
Format/Info                              : Digital Theater Systems
  F. v/ L- k4 G8 x  J# y, PCommercial name                          : DTS-HD Master Audio
* H. M; L6 T" c8 j* uCodec ID                                 : A_DTS
0 k0 A( I* H1 _% d/ }1 x: t" EDuration                                 : 1 h 25 min( y0 |7 M: [  y2 @' @- O9 Z
Bit rate mode                            : Variable
$ J6 K# t; V/ Q3 y1 |Bit rate                                 : 3 285 kb/s
' ]% ]7 }" n% G- h" E% cChannel(s)                               : 6 channels
. M$ s! j* E. W. c$ ^Channel layout                           : C L R Ls Rs LFE
3 q/ M: F! [# Z, L( DSampling rate                            : 48.0 kHz
* \/ S0 a+ Z: B: z6 Y4 t* jFrame rate                               : 93.750 FPS (512 SPF)
" |' a  N& f* Y5 d6 VBit depth                                : 24 bits
# @7 y! r) Z. }Compression mode                         : Lossless/ J& o( |$ ?5 P0 c0 ?) T# Q) v
Stream size                              : 1.96 GiB (16%)  m7 M8 F3 H5 a7 |
Title                                    : DTS-HD MA 5.1
% N+ c. |5 S8 l) M5 P' {, ILanguage                                 : English9 y. B) \8 _1 d# w, R' {
Default                                  : Yes
( m9 t+ c0 e5 n3 @, D) f# s4 \Forced                                   : No
, @3 c) x) ?+ N0 P6 f6 W- C! HAudio #2* h' f2 h/ P0 X+ i/ r) ^
ID                                       : 6
# Z& R) v, q7 `# CFormat                                   : FLAC
% y* w3 O$ R4 ]6 B7 SFormat/Info                              : Free Lossless Audio Codec
# c; L6 C+ ]0 Z3 X( }Codec ID                                 : A_FLAC
  X9 W7 t# G6 G3 L) p4 sDuration                                 : 1 h 25 min/ }5 x+ l, ^  W0 O+ A
Bit rate mode                            : Variable8 R9 N& `) y( ]7 L& ?& w
Bit rate                                 : 538 kb/s+ u% E7 e% B" D" H" h' Z
Channel(s)                               : 1 channel# R  [, B) L0 A* B
Channel layout                           : C
' ]# {) a3 {' o3 O3 p9 w3 ISampling rate                            : 48.0 kHz
3 B# U" C+ W7 N2 H/ FFrame rate                               : 11.719 FPS (4096 SPF)  m" B* Q9 A( H3 i" D9 V! Y5 n
Bit depth                                : 24 bits% \$ j$ |" a; z! o' G1 Z( u2 R
Compression mode                         : Lossless
9 W( S; B; T( H4 c: z# V/ }Stream size                              : 329 MiB (3%)  p7 `$ z# v# ?! ~
Title                                    : Original Audio
; |' J$ e; |3 O6 _; uWriting library                          : libFLAC 1.2.1 (UTC 2007-09-17)
0 v. K' a$ J- ]2 \* B. sLanguage                                 : English. N; H6 z3 v- r7 d: K' k& F# M
Default                                  : No  ?: `) `. _) u- j% x# h
Forced                                   : No
! n1 H, @+ m' j& X, n6 c+ ^Audio #3  z+ P. i# @' ?% g$ g& C
ID                                       : 7  T' r& [+ A( @; C& t' Z* z5 r) I
Format                                   : AAC LC0 b, N4 J" z4 b. B8 X' M! z3 T, L
Format/Info                              : Advanced Audio Codec Low Complexity
" ?* Z& n: V1 wCodec ID                                 : A_AAC-27 U3 h1 k) J, X2 C, B1 b
Duration                                 : 1 h 25 min7 Z# J& `/ Z& e2 G9 g2 C/ n6 v
Bit rate                                 : 76.9 kb/s
! Z! w; E3 g3 a& {/ A8 {Channel(s)                               : 1 channel/ T! I5 ]! d3 M7 @% M
Channel layout                           : C
) U$ R1 _& O2 e4 ^Sampling rate                            : 48.0 kHz
/ s& D% T* N( a  n5 }/ f$ k5 RFrame rate                               : 46.875 FPS (1024 SPF)
8 x; C& L: o+ KCompression mode                         : Lossy
4 f8 G* u1 p6 b. _Delay relative to video                  : 9 ms+ z9 @# I  u- s3 G7 z' h2 @
Stream size                              : 47.1 MiB (0%). n8 f/ i# `7 |  N) G: J9 @3 F+ s
Title                                    : Commentary with filmmaker Joe Dante, film historian Bob Burns, and writer Bill Warren# N3 e0 r5 A8 s1 M9 j0 V
Language                                 : English8 }% p6 P3 o3 x$ V3 C, S  W1 K: E6 P
Default                                  : No. g& E7 l5 j4 K; Z9 }3 T8 D% R$ b
Forced                                   : No  {' @/ ]; J  l
Text #1) B/ C* \; P" u' e5 z3 A; |
ID                                       : 3
3 K' b7 d3 Y  A1 U3 l+ ]Format                                   : UTF-8
( T( C# d! v' i6 e& t7 CCodec ID                                 : S_TEXT/UTF8
, ]: I2 b  [9 N0 @Codec ID/Info                            : UTF-8 Plain Text0 r4 U- O" a2 M; Y& V
Duration                                 : 1 h 25 min4 Y6 z# X; H. h. s- N
Bit rate                                 : 60 b/s
0 ^$ @% i8 @' o  S% D& e" wCount of elements                        : 931
6 Z8 T' n( D* J- D  {/ gStream size                              : 37.6 KiB (0%)
) ?4 Z1 v$ l' RTitle                                    : Stripped SRT/ p6 d3 E9 Q# [( y# B# h& T7 ]  q: c
Language                                 : English
3 x& C& ^* ]6 ]% K- FDefault                                  : No2 h5 r' U$ b# J
Forced                                   : No
" v6 f! X0 L4 ^5 M; VText #2
9 d. e. u! q: W! Q7 Q( d3 J7 gID                                       : 49 t! d  G( R8 [  _
Format                                   : UTF-8. ]7 N0 U5 }  M6 Q
Codec ID                                 : S_TEXT/UTF85 k0 v+ p$ E# Y3 w5 s
Codec ID/Info                            : UTF-8 Plain Text
3 v4 P: U% |* v* x+ CDuration                                 : 1 h 25 min
. b+ c; J$ }5 z& eBit rate                                 : 62 b/s
; `/ H. ]# g/ U- F/ X3 p0 SCount of elements                        : 976, [' A2 v' Y6 J! ]/ o
Stream size                              : 38.9 KiB (0%)
  ^! ^' t0 {* g1 g' ]Title                                    : SDH SRT
: o! L' `9 \9 V2 YLanguage                                 : English+ g# c& M# \; M7 I, @
Default                                  : No
7 U; R! j6 H1 Q8 ]9 x8 CForced                                   : No
& _" I! w+ }5 h$ z! ^* _, pText #3
! N7 O$ ?& a. UID                                       : 5
" n) k4 e& A- b1 G, jFormat                                   : PGS
* X2 u4 t2 k8 R. W/ _Muxing mode                              : zlib
8 D4 N% Y) Y3 _* c. g6 iCodec ID                                 : S_HDMV/PGS
! N% Y) C+ j6 v( x& I- rCodec ID/Info                            : Picture based subtitle format used on BDs/HD-DVDs
5 R' g. G5 ^2 m# C" h" U" h% q! h: jDuration                                 : 1 h 25 min
+ J& q! \; \& h3 X* `Bit rate                                 : 52.3 kb/s
  o; o2 p) h, z# d* \5 pCount of elements                        : 1952! S" N4 a: m- b
Stream size                              : 31.8 MiB (0%)0 `# z! o3 K& s4 P) M
Title                                    : English SDH- k  Q7 {7 t  z
Language                                 : English
# c# ]& Z. W7 F% r) v6 ?8 dDefault                                  : No
' p' d3 u  l# nForced                                   : No) m8 R9 s. f' t  J
Menu
( @- T8 M) X) n; {6 l% g00:00:00.000                             : en:Chapter 01- C/ i1 k- a# q/ ?
00:07:33.286                             : en:Chapter 02
/ O) R! r- q' C/ l, L6 `00:13:10.790                             : en:Chapter 03* y& P* K5 Q5 s
00:22:22.007                             : en:Chapter 04
/ |  K& l! L0 W% ]/ g( \( d00:30:49.723                             : en:Chapter 05
; T+ L+ g5 K: ]8 p( b00:40:25.423                             : en:Chapter 069 C" {/ \% j8 S6 }2 u8 E! l8 [
00:54:04.366                             : en:Chapter 07
4 q, a  g7 l: M7 W. f% R( a00:56:25.382                             : en:Chapter 089 e5 Y  f6 y$ ^' K) R- t
01:08:19.387                             : en:Chapter 09
7 H# q2 m" R% I5 Y1 L* v7 l$ x01:15:09.714                             : en:Chapter 10
# \& P% i! G$ v. c# ^9 i, U

" p( E7 u* Z( g5 g( F- n/ X# M1 W6 U
游客,查看本帖隐藏内容请回复 | 加入VIP贵宾组可免积分免回复下载 了解详情 | 还不是会员:点击获取邀请码 Invitation Code

相关帖子

本版积分规则

小黑屋|Archiver|蓝光电影资源网

GMT+8, 2020-10-29 04:21

快速回复 返回顶部 返回列表