BluRayCD Forum

 找回密码
 立即注册【分享大片】

QQ登录

只需一步,快速开始

查看: 32|回复: 2
收起左侧

[经典影片] 世界大战/地球争霸战/外星人大战地球 The War of the Worlds 1953 720p BluRaycd x264-AMIABLE 4.28GB

[复制链接]

3897

主题

4271

帖子

3万

积分

Post Share

金币
7316 枚
体力
6584 点

卓越贡献勋章

mvods 发表于 2020-9-11 00:33:30 | 显示全部楼层 |阅读模式
01.jpg 8 U" E) |4 D3 J% }1 e+ g
  D* Y1 p, |- y& ~4 w% L
◎译  名 世界大战/地球争霸战/外星人大战地球. u# h4 l$ B3 A' [7 g
◎片  名 The War of the Worlds
" _  S3 @& y+ b+ {/ [0 X◎年  代 1953
2 J7 o" \7 N/ m' F0 x◎产  地 美国$ c+ h% }# [4 i' I+ r
◎类  别 动作/科幻/惊悚/恐怖  v4 ]& N0 z+ X( a( x
◎语  言 英语/西班牙语1 J, y3 }7 J! Z6 N
◎上映日期 1953-08-26. j% I7 E' S( N9 `3 h) i
◎IMDb评分  7.1/10 from 32,102 users
9 F/ O! u$ W+ g/ M$ w◎IMDb链接  https://www.imdb.com/title/tt0046534/
4 ?9 t4 v8 t1 n+ X* t◎豆瓣评分 6.4/10 from 535 users
# ^1 V: ~0 v; |2 L◎豆瓣链接 https://movie.douban.com/subject/1293523/% x2 p; I8 y( N0 V  }: q0 h5 y
◎片  长 1 h 25 min
, L) N$ V7 M& U6 M7 X  m◎导  演 拜伦·哈斯金 Byron Haskin
: k+ A4 g! h, _8 f0 Z◎编  剧 巴雷·林登 Barré Lyndon' T% n2 ?; O. b3 K. n
       赫伯特·乔治·威尔斯 H.G. Wells( n" t6 \7 m/ m: M0 |! [
◎主  演 吉恩·巴瑞 Gene Barry6 N( p" \' @0 Q( d: x2 A# U
       安·鲁滨逊 Ann Robinson$ `5 k, q; g, L3 c
       莱斯·崔梅恩 Les Tremayne' t- Z; N+ a, G/ D5 F
, p  z9 m( ]5 Y. L) N" U* }
◎标  签 科幻 | 美国 | 1953 | 1950s | 美国电影 | 外星人 | 惊悚 | 美國! L& }8 d' ~" S( a& w! r
5 d& i7 K: E4 \4 X8 k! i
◎简  介  
7 E$ ~, R- @$ c2 I' m! w7 x1 s( H# }" }# {
  火星人因火星气候变化无法生存而计划大举侵入地球,当第一艘飞船落到地球上时,居民们以为是陨石。博士克莱法斯特通过探测仪器得知有放射性,需等冷却才能查看,但有人好奇前去观看,不料被杀死。人类的所有武器都不能对付火星人的死光炮,全世界的人都在逃命,整个地球乱作一团。正在这时,火星人却一个接一个死去,原来……' a1 V4 \% v( G% v) f7 H; c) Y6 c
7 I1 l- F2 h6 n% a8 Z
◎获奖情况  
: }: [, s+ K3 j  k# L0 s% h; |" M# n+ C$ j, f% u: X
  第26届奥斯卡金像奖(1954)( o6 b* u, r  E% Y) }  F
  最佳剪辑(提名) Everett Douglas
* t0 G& |! V# N+ ?  最佳特效4 M3 t9 ?& r# i( C
  最佳录音(提名) 洛伦·L·里德# J0 ?: U6 F1 l* v5 _+ t
Video
2 W3 U$ Q' A1 ], dID                                       : 1
$ [" Y4 h) I5 X0 dFormat                                   : AVC4 R0 r/ F1 O1 p% C! {3 @
Format/Info                              : Advanced Video Codec
9 S0 s7 P% e8 A" e) uFormat profile                           : High@L4.1
* Q# C- E# T4 m$ L+ cFormat settings                          : CABAC / 8 Ref Frames
, t2 W2 F7 P* N6 f( a' L: k  XFormat settings, CABAC                   : Yes
/ z8 k& @9 G4 Y; R- ^$ C. YFormat settings, Reference frames        : 8 frames" j7 t. p# e, S4 O
Codec ID                                 : V_MPEG4/ISO/AVC
: d& \: B7 y9 \% O; {  tDuration                                 : 1 h 25 min
, i0 _$ j# {1 m, N7 P  X1 R6 UBit rate                                 : 5 887 kb/s
, U' Z. M7 n' A, y2 f" QWidth                                    : 986 pixels$ [9 \5 G' v9 Z! C& o
Height                                   : 720 pixels
& N! C( w7 W( P; [2 P5 wDisplay aspect ratio                     : 4:3
: a5 `9 x3 n  w* |! f* n& b3 S$ M1 _Frame rate mode                          : Constant5 H: M9 w; ^+ `  {$ {) G. ~
Frame rate                               : 23.976 (24000/1001/37687) FPS: _$ P" ^3 a8 f0 G
Color space                              : YUV
/ n$ c# o; `! j2 P6 `Chroma subsampling                       : 4:2:0
; U# w8 o6 I, T' U0 d7 C% v0 H# YBit depth                                : 8 bits
. @. z: f; E' N& c- j7 F: qScan type                                : Progressive
! X: k9 ]/ g/ @! x) XBits/(Pixel*Frame)                       : 0.346
2 D" ?, [/ n! N! w/ _+ e/ \$ `% AStream size                              : 3.52 GiB (82%)
* n' v  H( w0 Q( U: R" u+ zWriting library                          : x264 core 161 r3018 db0d417! B% ^. D* G% X2 E+ D6 j
Encoding settings                        : cabac=1 / ref=8 / deblock=1:-3:-3 / analyse=0x3:0x133 / me=umh / subme=9 / psy=1 / psy_rd=1.10:0.00 / mixed_ref=1 / me_range=24 / chroma_me=1 / trellis=2 / 8x8dct=1 / cqm=0 / deadzone=21,11 / fast_pskip=0 / chroma_qp_offset=-2 / threads=22 / lookahead_threads=1 / sliced_threads=0 / nr=0 / decimate=0 / interlaced=0 / bluray_compat=0 / constrained_intra=0 / bframes=3 / b_pyramid=2 / b_adapt=2 / b_bias=0 / direct=3 / weightb=1 / open_gop=0 / weightp=2 / keyint=250 / keyint_min=23 / scenecut=40 / intra_refresh=0 / rc=crf / mbtree=0 / crf=17.0 / qcomp=0.60 / qpmin=0 / qpmax=69 / qpstep=4 / ip_ratio=1.40 / pb_ratio=1.30 / aq=3:0.70, A0 `$ d  j+ e9 v
Default                                  : Yes: u- M4 c  H0 b1 t( ?- {) c
Forced                                   : No
$ e' R) Q  ?* u# z; hColor range                              : Limited
+ p/ \0 d4 R% P2 ?+ d2 [Matrix coefficients                      : BT.7096 h- D* _* z9 Q7 m- u
Audio #1
- E  c$ E2 U' g0 P8 ?ID                                       : 2
  M7 ]  f9 {4 C% QFormat                                   : AC-3
+ a8 W( R( B' q8 t( R1 nFormat/Info                              : Audio Coding 3$ @% z  m+ \& |' u7 k3 a! @
Commercial name                          : Dolby Digital% i# H6 ?+ y* f8 I& K5 G  s3 L2 j
Codec ID                                 : A_AC30 y# ?) J. w1 X) L/ ~3 `9 f) o/ x1 N
Duration                                 : 1 h 25 min
* b) F5 I' g8 D0 W. c- YBit rate mode                            : Constant
7 \, U8 t, l8 E4 \8 r1 L9 DBit rate                                 : 640 kb/s
5 f2 `% W5 p2 P; ]( O& z* j" [3 _Channel(s)                               : 6 channels) I1 c( W$ N. {
Channel layout                           : L R C LFE Ls Rs
. H6 W/ h7 N) D: z, z; c# ESampling rate                            : 48.0 kHz+ ]! U3 G. k! R' p/ Y! Y$ O
Frame rate                               : 31.250 FPS (1536 SPF)
0 B( t( E% G$ |! ?Bit depth                                : 16 bits1 _) \# `0 U* w: e/ `: ~0 U  E
Compression mode                         : Lossy
5 _3 R3 I2 ^. I0 MStream size                              : 392 MiB (9%)+ E9 m& L2 ?6 _5 d( }/ P7 G
Title                                    : AC-3 5.1
6 q- O3 D9 [% O3 W; Z+ ?4 ALanguage                                 : English
1 M$ ~% H0 b( P! DService kind                             : Complete Main
* G$ e" p! x( n$ D0 M, SDefault                                  : Yes
- a2 q" _; j6 h4 NForced                                   : No
: t8 L, P8 X" Q( ?9 }) z9 dAudio #24 ?8 b  t# |" ]2 |* v' U  X5 F# V6 }# W7 I
ID                                       : 61 I" a, {8 B, j2 Y  d5 |6 t
Format                                   : FLAC+ q1 M5 \/ J6 K, W  _2 N
Format/Info                              : Free Lossless Audio Codec1 J/ Q. g6 n) }6 {/ K* A
Codec ID                                 : A_FLAC1 K# g' D+ z: z" Z
Duration                                 : 1 h 25 min
, }3 s) T  z3 Y( N; F" K4 sBit rate mode                            : Variable
% p0 {3 W* a6 v, M7 W6 w3 }Bit rate                                 : 538 kb/s6 q& I  N4 M9 A2 Z# s5 |: b4 V
Channel(s)                               : 1 channel% f: ~, @; S; H5 R+ ?
Channel layout                           : C
$ P7 q# s- }" t( y' ESampling rate                            : 48.0 kHz
* D$ @/ m6 s- r$ J; @4 iFrame rate                               : 11.719 FPS (4096 SPF)$ t  M3 Z+ j; i. ?6 q
Bit depth                                : 24 bits' ]1 u' h9 C. B: k% s9 M
Compression mode                         : Lossless) Y. x: w: u1 H' ~- S
Stream size                              : 329 MiB (8%)* ]/ C7 _) U" M# Y
Title                                    : Original Audio
/ t+ E4 s/ P7 K  @; `Writing library                          : libFLAC 1.2.1 (UTC 2007-09-17)- Q; m* u% s$ e! ~0 ?# w1 P. f
Language                                 : English
# ?4 _9 s2 F- M4 D. FDefault                                  : No7 s! v% |8 Q2 m2 M6 E! A
Forced                                   : No
8 l( `5 W# _- k. L5 @& V0 F8 l/ FAudio #3
$ r/ f+ D" `8 g' X) Q1 Y0 aID                                       : 7, F7 E, I/ v$ T* T' B" X
Format                                   : AAC LC
* V* m. a: X* tFormat/Info                              : Advanced Audio Codec Low Complexity; v$ L; E# z' ~
Codec ID                                 : A_AAC-2
  D+ L9 B2 n5 Q' f$ y% X  J. k- h+ VDuration                                 : 1 h 25 min6 T& |* y: Y# d7 f
Bit rate                                 : 76.9 kb/s
; w6 V5 J( _" N. C$ ~. g6 @2 {Channel(s)                               : 1 channel
& M- o: ^7 |% h' }1 F% g7 i' |/ _Channel layout                           : C
4 i( e$ Q1 Y1 q3 l* m* J: }Sampling rate                            : 48.0 kHz
+ I' m8 }2 I9 PFrame rate                               : 46.875 FPS (1024 SPF)/ ~' {. t0 e( y! l: c; I5 o2 \9 b
Compression mode                         : Lossy
$ p8 {) B! _; l- LDelay relative to video                  : 9 ms# Y8 }8 o4 U$ x* K
Stream size                              : 47.1 MiB (1%)# _  j+ g9 L3 x' a: f" h7 R
Title                                    : Commentary with filmmaker Joe Dante, film historian Bob Burns, and writer Bill Warren" E. R7 U+ r* n6 P- h7 ]( o+ A
Language                                 : English3 S* d6 d2 q+ M! X( i
Default                                  : No- `0 ^) L8 q* N1 m# Z( Y- b" _  \
Forced                                   : No$ ?" J- z( o6 b1 `  O: P7 K; h( v
Text #1
0 e: }$ q: f- PID                                       : 3
8 k. N! }* R% o* z, w. M& bFormat                                   : UTF-8
! d: W, r+ r1 Z; P- fCodec ID                                 : S_TEXT/UTF8% j) Z+ |' W4 v1 I/ \" p, _1 z% {
Codec ID/Info                            : UTF-8 Plain Text& w# N9 U6 u0 y4 T  O; S! f8 y
Duration                                 : 1 h 25 min
* S# P* L' S8 x) W% p2 l8 H  ?Bit rate                                 : 60 b/s
  ^. }' K4 n% qCount of elements                        : 931
4 w5 K6 S: |3 [3 z% MStream size                              : 37.6 KiB (0%)
+ D% k/ `( a1 ~( D9 c$ v! k# M# R" r" xTitle                                    : Stripped SRT, |! c* k. k- B3 m7 x+ U6 x
Language                                 : English- I3 J) Z- I3 }7 K: u( A
Default                                  : No& U: ~3 o" ^5 {5 ]. c* X6 B
Forced                                   : No
+ h* L& u: L7 VText #2+ n" K3 r* q4 V7 Y
ID                                       : 4
" E- ~4 F3 Y/ b% |- @Format                                   : UTF-8
% }! Z, R! {2 i$ j$ A7 z5 \Codec ID                                 : S_TEXT/UTF8
) F6 F6 E8 S$ e% I5 S8 i( c8 ZCodec ID/Info                            : UTF-8 Plain Text
+ q# i! d5 F/ Y" A! pDuration                                 : 1 h 25 min
, _8 M4 j; m& a7 XBit rate                                 : 62 b/s
: J! y4 l" i8 F1 C, R% UCount of elements                        : 976
, w6 Z& q3 [* H+ [, ZStream size                              : 38.9 KiB (0%)
* E. O8 z' `7 G0 e6 ^* q8 GTitle                                    : SDH SRT( w9 ~0 D! M1 j/ D, y1 ]
Language                                 : English* b: w4 w4 H7 y; V% u# K
Default                                  : No
, P" i  @: R6 P. J$ \8 _8 A, NForced                                   : No
" m/ u- }* W" P: F" }Text #3
3 ?& Q' P% ]0 f8 k; i7 h8 T& jID                                       : 5
7 b6 B6 y9 \* ?/ }" U4 x8 \: \Format                                   : PGS# |2 N2 A  ?2 _/ l5 i9 |; ~( }: k
Muxing mode                              : zlib
: K7 j- b4 v  z0 u; P9 oCodec ID                                 : S_HDMV/PGS" i/ y( h" N4 x
Codec ID/Info                            : Picture based subtitle format used on BDs/HD-DVDs8 b2 V! @) O2 i
Duration                                 : 1 h 25 min
0 z- B) w5 F5 o3 ~$ w/ dBit rate                                 : 52.3 kb/s
- A0 G( \. z# h6 hCount of elements                        : 1952
& L0 G- E$ A* q/ W2 F: B; hStream size                              : 31.8 MiB (1%)
. G8 Y8 _. O1 `- STitle                                    : English SDH
' x. w6 ]+ a% F6 W$ U9 qLanguage                                 : English* o; w6 K8 j+ d- Y4 s& k6 B- t
Default                                  : No3 }7 k! s- A! }8 M. B
Forced                                   : No
! c7 ?$ v( p4 @6 W& qMenu
! o7 @2 B: ^6 K4 q; z( K, w% }00:00:00.000                             : en:Chapter 01
1 N: p* r, |3 G, U8 N' k00:07:33.286                             : en:Chapter 02
: w% _2 n1 x6 T4 f" j! ?+ x/ ?00:13:10.790                             : en:Chapter 038 v# o( I0 A+ b& M( R/ L2 F
00:22:22.007                             : en:Chapter 045 L0 p# i" t) E) V% c* r: Z
00:30:49.723                             : en:Chapter 053 |6 m" _: U% E+ I" `7 K. U2 o
00:40:25.423                             : en:Chapter 068 A9 _+ B. L5 ~4 S/ q+ h; Q! `
00:54:04.366                             : en:Chapter 07
+ f9 b" \( O4 A. K00:56:25.382                             : en:Chapter 08
' n; _0 A4 l8 z, G01:08:19.387                             : en:Chapter 09
9 p1 u  X2 V1 c$ U* I# m+ g( q) ?01:15:09.714                             : en:Chapter 10

7 O7 b: ~3 w/ C4 Y/ S9 v
游客,查看本帖隐藏内容请回复 | 加入VIP贵宾组可免积分免回复下载 了解详情 | 还不是会员:点击获取邀请码 Invitation Code

相关帖子

0

主题

506

帖子

2316

积分

Sponsor

金币
10 枚
体力
1326 点
QQ
七喜 发表于 2020-9-11 10:30:18 | 显示全部楼层
啥也不说了,楼主就是给力!
6 q& C1 c( f6 E( i1 _: INot see, I am a novice, the inadequacies of the first Please bear with me!
6 L7 }+ R0 u0 E9 ^4 w4 i% x

19

主题

1320

帖子

7086

积分

Sponsor

金币
943 枚
体力
3520 点
QQ
shiji1973 发表于 2020-9-27 12:32:40 | 显示全部楼层
感谢分享精彩电影

本版积分规则

小黑屋|Archiver|蓝光电影资源网

GMT+8, 2020-10-29 03:55

快速回复 返回顶部 返回列表