BluRayCD Forum

 找回密码
 立即注册【分享大片】

QQ登录

只需一步,快速开始

查看: 33|回复: 2
收起左侧

[科教记录] 揭秘海军陆战队 [4K原盘压制版] We the Marines 2017 DOCU 1080p BluRaycd x264 DTS-HD MA 7.1 & TrueHD 7.1 Atmos-SWTYBLZ 4.75GB & 4.66GB

[复制链接]

7777

主题

7971

帖子

6万

积分

Forum Moderator

金币
10563 枚
体力
9607 点

卓越贡献勋章

24小时 发表于 2020-9-11 22:58:52 | 显示全部楼层 |阅读模式

' T8 b/ i$ J1 O
. B& A3 k6 }/ S& S' p' ^◎译  名 揭秘海军陆战队, I5 h# U& |% J5 r" \( P0 R2 f
◎片  名 We, the Marines
3 g% R5 S2 [2 E$ U3 _* g◎年  代 2017/ y: ]  a7 C8 h& k$ g5 J  Q
◎产  地 美国
$ H% _5 p* k3 B◎类  别 纪录片/短片
6 Z0 ^- |/ F# \1 Z! {5 k- O$ B◎语  言 英语6 o7 @1 |, L- }
◎上映日期 2017-07-21(美国)# D9 t* M' @+ q9 U) P' r
◎IMDb评分  5.4/10 from 405 users
4 _6 `6 d( @4 i  r8 m  G$ Y◎IMDb链接  https://www.imdb.com/title/tt7422506/1 F9 c3 L% W/ Y1 Q* j# K  F' o. U/ t5 }
◎豆瓣评分 0/10 from 0 users
' r" `; N1 x& C- _/ r! w7 D) K* i◎豆瓣链接 https://movie.douban.com/subject/30269830/
+ y4 g! c0 |, H& t1 n* J9 _◎片  长 37 min 53 s3 m6 s% Q# a- n
◎导  演 格雷戈·迈吉里弗雷 Greg MacGillivray
2 X1 _4 ^* Q7 I% Z4 M0 I◎主  演 吉恩·哈克曼 Gene Hackman
  e/ Z/ b; W8 @: x" T# m; b7 Z
, S1 ~9 ^- O4 Q, ]0 k7 a# V◎标  签 纪录片 | 军事 | 美国 | IMAX | 2017 | 短片 | 美国电影 | 紀錄片) B$ h$ ]& K9 z1 I6 x
* _+ \! b- p3 z9 ]
◎简  介  , ^# J) p' f3 [2 D
( e& t# y/ Z* l8 H
  这部纪录片由身位演员和前海军陆战队员的金·哈可曼解说,展现了美国海军陆战队成员的成长经历。
$ D; t/ [. I6 E6 C, {4 ~  E# B: T# a' k
  WE, THE MARINES takes viewers on an action-packed adventure into the unparalleled experience of becoming and serving as a member of the U.S. Marine Corps. Narrated by former Marine and actor, Gene Hackman, the film honors something more than dedication and service; the film offers an unforgettable glimpse into the first-hand experiences of America's "first responders" and what it takes to become the men and women who honor and defend our country.
+ X  a' U6 [  G" d
Video& D/ O$ Q% B9 @% P
ID                                       : 1
6 ~) z* L3 l6 A2 ?1 lFormat                                   : AVC( t6 D* j( w, b! [, \
Format/Info                              : Advanced Video Codec
; K% u+ B, U% h) L2 JFormat profile                           : High@L4.1
- X5 i* F+ i8 F0 OFormat settings                          : CABAC / 4 Ref Frames
2 I% G; u& \# R0 C- o* |Format settings, CABAC                   : Yes
' {8 X; h% O* {* qFormat settings, ReFrames                : 4 frames
& Z4 G7 o& n7 _0 T( t) g1 F. B3 P2 Y) [Codec ID                                 : V_MPEG4/ISO/AVC
3 g5 m& _3 _1 q  E$ LDuration                                 : 37 min 53 s' f% j1 Q, k0 X" j7 \
Bit rate                                 : 13.9 Mb/s
9 b+ X, R8 B% E- c3 ^" n; a  XWidth                                    : 1 920 pixels
$ S3 \* v- P! Z+ o" DHeight                                   : 1 080 pixels
; d: r6 _, R: I5 x8 F  N( B3 n* \Display aspect ratio                     : 16:9
; V3 V5 k! ?; P  _4 f% s. cFrame rate mode                          : Constant+ Y1 X# U, J% v5 r- Z$ ~( `# W
Frame rate                               : 24.000 FPS
, r* ~6 C( S; e  ~/ @Color space                              : YUV0 i3 b4 \- Y( j7 |5 f4 D
Chroma subsampling                       : 4:2:0; h( F' p6 h  o) U/ g. ?
Bit depth                                : 8 bits
* m, Q: c) H7 HScan type                                : Progressive7 s6 q7 R' R' }1 T# c' Z
Bits/(Pixel*Frame)                       : 0.2802 V% C: y* y% @7 D- N
Stream size                              : 3.69 GiB (78%)
0 g' b& i: V- zTitle                                    : We.the.Marines.2017.DOCU.1080p.BluRayCD.x264.DTS-HD.MA.7.1-SWTYBLZ
, c( G7 C5 E; j( b- c5 R% e8 i, @Writing library                          : x264 core 157 r2935 545de2f" u3 c8 s3 x$ o2 @3 b& a! u
Encoding settings                        : cabac=1 / ref=4 / deblock=1:-1:-1 / analyse=0x3:0x133 / me=umh / subme=10 / psy=1 / psy_rd=1.00:0.15 / mixed_ref=1 / me_range=48 / chroma_me=1 / trellis=2 / 8x8dct=1 / cqm=0 / deadzone=21,11 / fast_pskip=1 / chroma_qp_offset=-3 / threads=34 / lookahead_threads=5 / sliced_threads=0 / nr=0 / decimate=0 / interlaced=0 / bluray_compat=0 / constrained_intra=0 / bframes=8 / b_pyramid=2 / b_adapt=2 / b_bias=0 / direct=3 / weightb=1 / open_gop=0 / weightp=2 / keyint=250 / keyint_min=24 / scenecut=40 / intra_refresh=0 / rc_lookahead=60 / rc=crf / mbtree=1 / crf=17.0 / qcomp=0.60 / qpmin=0 / qpmax=69 / qpstep=4 / ip_ratio=1.40 / aq=1:1.00
' y) B* ~- s2 ALanguage                                 : English
$ h& C* q# Z. Q+ U7 Y# I% eDefault                                  : Yes
7 J  d! _# ^: _Forced                                   : No
. M9 q3 j6 x+ V; u8 W1 n5 B* n" K  \, A. ?- v' k  J. d1 R2 H: ^
Audio1 {6 b4 H# J7 P5 \) |# i
ID                                       : 23 C5 H3 p$ s- g* B4 b
Format                                   : DTS XLL9 A8 ]! |8 l3 Y% n2 Y
Format/Info                              : Digital Theater Systems" g* G$ _5 y8 p+ `3 x: u+ W: N+ ]
Commercial name                          : DTS-HD Master Audio
, Z% _  _8 T: D) o$ LCodec ID                                 : A_DTS: T; k, A3 W' W
Duration                                 : 37 min 53 s: w8 W1 y! u# Z
Bit rate mode                            : Variable0 ?6 ~9 _2 ?9 N1 ~
Bit rate                                 : 3 979 kb/s7 c; k" m8 }& K6 x3 J* s" @3 J
Channel(s)                               : 8 channels
) s- }% y: {# C/ n* O9 b3 VChannel layout                           : C L R LFE Lb Rb Lss Rss  n8 [' y6 F1 s9 G, |. S/ r
Sampling rate                            : 48.0 kHz
8 ^- H* u, j) L) ~; b9 VFrame rate                               : 93.750 FPS (512 SPF)2 P8 y3 t' A9 n7 I  H& M0 f
Bit depth                                : 24 bits, l9 p8 y; Z: t
Compression mode                         : Lossless% ?% X% i* V2 Q
Stream size                              : 1.05 GiB (22%)  P! H9 L  p) b) s
Title                                    : We.the.Marines.2017.DOCU.1080p.BluRaycd.x264.DTS-HD.MA.7.1-SWTYBLZ1 Y9 ]* }( G# v6 y* b$ i
Language                                 : English" ^) t: w0 I- v5 j4 W
Default                                  : Yes
7 C7 }1 Q8 ]( l# w# s2 u/ }  lForced                                   : No3 G. g7 [$ K; X/ O) |2 V/ U
1 g; i1 n  T' o! A* K
Text #1
$ m1 j2 a& G8 l" _% j! s" hID                                       : 3
- v9 f/ H( @' k8 j0 e! nFormat                                   : UTF-8
% C0 R* a$ ^$ n  I) s- l' W# a- BCodec ID                                 : S_TEXT/UTF85 s( q2 h' c$ z
Codec ID/Info                            : UTF-8 Plain Text8 ~2 a8 l0 J# s3 _
Duration                                 : 37 min 23 s% A: n- y  F  B. X) y
Bit rate                                 : 65 b/s
$ G2 [. a1 P+ G+ l  hCount of elements                        : 5721 C8 e3 c1 G% \' `+ F  F4 r. C
Stream size                              : 17.9 KiB (0%)5 o  r0 H$ }5 F7 n
Title                                    : English-SRT$ Z/ ?- y7 ?' A5 r$ G
Language                                 : English! M  d; T3 S% r2 `9 S; s, ?* i
Default                                  : Yes+ c% y7 L. G1 p/ W8 v/ U
Forced                                   : No
2 z% v# f" d( ^$ N6 k
# c* s3 _0 F4 W! `Text #2
! p/ K- c1 {! L' D' ?ID                                       : 4
& s+ J1 m+ B7 D" MFormat                                   : UTF-82 j$ K6 p4 q9 O" D* I( u
Codec ID                                 : S_TEXT/UTF89 Y/ p# D2 o+ I% I" s
Codec ID/Info                            : UTF-8 Plain Text5 M$ w: p; n' ~0 o& r
Duration                                 : 37 min 48 s
0 {) R4 K8 Q) u! {% M& c- _& E9 _- YBit rate                                 : 72 b/s
3 ^; ~# y. i" c! z4 `! DCount of elements                        : 643
1 K7 l  D, N/ I- |+ BStream size                              : 20.2 KiB (0%): z  n4 p) g# j* r$ x' f
Title                                    : English-SDH-SRT
" h& D0 e, @# ~% `+ \8 DLanguage                                 : English) {- J$ N% Y; Y9 [2 A" U$ W4 G
Default                                  : No6 f8 K8 R/ r4 C
Forced                                   : No+ N6 Q: c4 M8 o5 k9 M5 L

9 Y9 q4 X$ S2 _/ U. FText #3
# T8 X3 D: D/ p/ K3 z- v) t- b, qID                                       : 5" a/ p1 v% }( t2 V
Format                                   : PGS& ]$ P( w; U: h/ X1 z8 z6 J& f  E
Muxing mode                              : zlib
8 M: M/ p3 _$ G9 j8 V3 ]+ VCodec ID                                 : S_HDMV/PGS
8 g. e" t$ s6 X* i2 H+ I" cCodec ID/Info                            : Picture based subtitle format used on BDs/HD-DVDs
! X) N1 N# n( `3 b' d( W1 V1 _1 KDuration                                 : 37 min 48 s
$ E# y: \- `9 U' e: GBit rate                                 : 30.3 kb/s0 M7 R' @1 c) \  M5 x5 }
Count of elements                        : 1292" \: O5 H4 T2 }( r2 m& V  Q0 A# j
Stream size                              : 8.20 MiB (0%)
* @  R- S: t1 I  a  MTitle                                    : English-PGS. D* B5 ]8 `. U4 u- m+ y6 J* K
Language                                 : English
. u2 ?  H# i& vDefault                                  : No
# z3 j. d! f3 w1 L/ G& `Forced                                   : No% y' ]3 f% h% v! b- w/ A

& `1 q; C5 p  X2 r1 P- M% f( OMenu
7 E  E: l3 f4 ]! J6 w00:00:00.000                             : en:Chapter 1
7 v! y" O0 t" j7 e# n7 [1 C00:04:14.500                             : en:Chapter 2
/ j; X, X( M# [5 C' A00:09:58.375                             : en:Chapter 34 K  }% O% Z. J# h1 v
00:14:02.417                             : en:Chapter 4
  B& u( Y4 N5 ^$ ^6 ]* k/ u1 f00:18:11.625                             : en:Chapter 56 f5 t* v- V# M
00:21:08.583                             : en:Chapter 6* t8 V# e0 d( k& b+ c" X
00:25:02.708                             : en:Chapter 7; f* l! ^# h8 U3 k
00:28:49.333                             : en:Chapter 8. f: ~# }* B: T( B1 O  f, _
00:32:38.958                             : en:Chapter 9
8 I2 @8 |3 M! H; y- R00:37:04.125                             : en:Chapter 10
Video0 M5 ]2 z/ U. R# i
ID                                       : 18 V) \5 J1 V& l! a( ?
Format                                   : AVC
! Y' ~; ]7 C/ eFormat/Info                              : Advanced Video Codec9 x; Y+ F1 k* f4 F6 H
Format profile                           : High@L4.1
/ t" C" b2 X, y& F! h7 l4 BFormat settings                          : CABAC / 4 Ref Frames# p7 s* ]" |5 W+ Z, \" A9 ]
Format settings, CABAC                   : Yes6 _* X6 I* k- M& f3 m7 X
Format settings, ReFrames                : 4 frames
" Z4 l% ?2 E1 v' y0 W  OCodec ID                                 : V_MPEG4/ISO/AVC
+ e4 @( @) E$ Q1 M; i6 HDuration                                 : 37 min 53 s$ @9 Y! P3 c  O5 a4 t
Bit rate                                 : 13.9 Mb/s& W& ^. ~. e: C) z; W+ [! t9 R1 q
Width                                    : 1 920 pixels
  s: h) b- w" W- mHeight                                   : 1 080 pixels
1 U, [$ j  K, O1 z2 A2 K- ]# Y. B& oDisplay aspect ratio                     : 16:9
& w) `: E1 X9 Z/ x6 rFrame rate mode                          : Constant% T" @6 a& f$ c7 M* C$ J7 u1 G
Frame rate                               : 24.000 FPS
! I/ V6 \' n7 g2 sColor space                              : YUV  Z, M$ e  R( `, p0 k4 u% F
Chroma subsampling                       : 4:2:0
* x# k/ J8 X1 ]- T9 ]# m% kBit depth                                : 8 bits
, k* m, |' \3 T! y) FScan type                                : Progressive
, l/ \$ {* L( L9 b" KBits/(Pixel*Frame)                       : 0.280; w( v7 ?. z. ?7 m7 w
Stream size                              : 3.69 GiB (79%)
( Z( {; U. S: h$ p! A( P, yTitle                                    : We.the.Marines.2017.DOCU.1080p.BluRaycd.x264.TrueHD.7.1.Atmos-SWTYBLZ# b! l$ h' J: }) T5 T, I
Writing library                          : x264 core 157 r2935 545de2f
4 m. ^& j* a7 QEncoding settings                        : cabac=1 / ref=4 / deblock=1:-1:-1 / analyse=0x3:0x133 / me=umh / subme=10 / psy=1 / psy_rd=1.00:0.15 / mixed_ref=1 / me_range=48 / chroma_me=1 / trellis=2 / 8x8dct=1 / cqm=0 / deadzone=21,11 / fast_pskip=1 / chroma_qp_offset=-3 / threads=34 / lookahead_threads=5 / sliced_threads=0 / nr=0 / decimate=0 / interlaced=0 / bluray_compat=0 / constrained_intra=0 / bframes=8 / b_pyramid=2 / b_adapt=2 / b_bias=0 / direct=3 / weightb=1 / open_gop=0 / weightp=2 / keyint=250 / keyint_min=24 / scenecut=40 / intra_refresh=0 / rc_lookahead=60 / rc=crf / mbtree=1 / crf=17.0 / qcomp=0.60 / qpmin=0 / qpmax=69 / qpstep=4 / ip_ratio=1.40 / aq=1:1.00; A+ |4 R$ q; j
Default                                  : Yes- _) Y+ G( h4 M4 Y- P8 E" R
Forced                                   : No
& S& A( M7 t5 `: Q9 m' n0 I( u8 b3 j& F* a) R8 W
Audio #1* G& _% U) m* p5 Z
ID                                       : 2
1 I$ \8 [; u, H+ _  a) W4 cFormat                                   : MLP FBA 16-ch
1 y' O- [0 N" P( f, X) K% n6 O5 LFormat/Info                              : Meridian Lossless Packing FBA with 16-channel presentation
2 t1 J  y/ @- r3 j) MCommercial name                          : Dolby TrueHD with Dolby Atmos
- S' [* L! r+ B/ c, Q6 wCodec ID                                 : A_TRUEHD
3 V, a, b, ^8 e" ?& Y! v- PDuration                                 : 37 min 53 s5 j( V3 u! Z. e4 j: [
Bit rate mode                            : Variable; q/ k) V0 I& {# b- G/ l
Bit rate                                 : 2 943 kb/s
& W/ E0 c/ }; {8 z; u$ m# YMaximum bit rate                         : 4 014 kb/s
; A) t2 n& d3 w) W1 f4 D6 LChannel(s)                               : 8 channels
: d0 P! U; c' k. U; O3 W6 vChannel layout                           : L R C LFE Ls Rs Lb Rb
+ E& @0 W/ V& Z  K0 r1 e! s# aSampling rate                            : 48.0 kHz
5 \0 w! C. u$ R/ a5 ]3 \3 q# tFrame rate                               : 1 200.000 FPS (40 SPF). Y0 d/ u- E# g1 M4 Z: G
Compression mode                         : Lossless
  K3 W  }1 o4 M4 o7 W2 t$ O' VStream size                              : 798 MiB (17%)- F0 d7 j) f9 K
Title                                    : We.the.Marines.2017.DOCU.1080p.BluRaycd.x264.TrueHD.7.1.Atmos-SWTYBLZ
& H: D5 q6 p  _- O% ?Language                                 : English3 q$ g" _+ s  D' A$ n
Default                                  : Yes6 z  i1 a1 A! d5 u9 Y4 k. \
Forced                                   : No! s- z( j2 z" V: k" I. Z
Number of dynamic objects                : 15+ ?- S' R% [, H2 e3 e6 L2 j8 ~
Bed channel count                        : 1 channel8 y" B1 z% Y% H' ^* s$ ^4 Q
Bed channel configuration                : LFE4 h# ~* O, x+ _( N

# c  b9 W1 M3 R/ I+ @Audio #2
! P+ Q/ \+ t6 s; H8 pID                                       : 3
3 `) X* o# U+ M2 o4 ~5 r, V5 WFormat                                   : AC-3
/ _6 K) L" R8 EFormat/Info                              : Audio Coding 3
1 @/ o* @! s+ O; XCommercial name                          : Dolby Digital3 j1 s- W+ V( p# ^* v5 m
Codec ID                                 : A_AC3
7 m0 w4 K2 \. Q+ P- u$ oDuration                                 : 37 min 53 s
+ t: t$ w' k0 `, M4 Y4 U2 SBit rate mode                            : Constant/ x4 W& b& ^: b" a' W- x
Bit rate                                 : 640 kb/s$ h+ ]$ @$ |4 B# S
Channel(s)                               : 6 channels
" S3 r/ }" q' u8 I1 N- Z! AChannel layout                           : L R C LFE Ls Rs
7 ~, o( ?7 t6 m+ LSampling rate                            : 48.0 kHz
' ^  W. k. X* C, J1 k; j  oFrame rate                               : 31.250 FPS (1536 SPF)
/ k# Z9 \  [  Q0 c2 `" j6 w# w8 c: FBit depth                                : 16 bits
, S+ c" i( q3 x0 L5 ICompression mode                         : Lossy; O5 `  g5 J, R6 r! _, Z! |' d
Stream size                              : 173 MiB (4%)
7 H" t" P: H  d- g4 h" |& A" FTitle                                    : We.the.Marines.2017.DOCU.1080p.BluRaycd.x264.TrueHD.7.1.Atmos-SWTYBLZ# S+ D) q( Y( I
Language                                 : English
, {% M' {# T  q% ~' j) QService kind                             : Complete Main
0 J8 U4 {7 C' ~$ s# KDefault                                  : No4 `* v" i9 B. ]# a
Forced                                   : No4 O) X* Q+ j, K+ I* V

  g) N1 U5 V$ n1 v# `Text #1
( f+ g6 Z% z+ V' m. _0 HID                                       : 4
" \3 I: D& q3 `Format                                   : UTF-8! N2 b2 `! G) Q, N
Codec ID                                 : S_TEXT/UTF8' \3 {3 }( o$ F" i0 V  x' v
Codec ID/Info                            : UTF-8 Plain Text
- R1 |2 c0 l; l4 _$ j' ?Duration                                 : 37 min 23 s
5 M* Q+ U9 n1 S* C8 G) W) }Bit rate                                 : 65 b/s/ {# S* z+ f( w
Count of elements                        : 5724 u* x* d8 n0 T0 l- h+ o
Stream size                              : 17.9 KiB (0%)
1 F7 ]# {  N0 ?) ?; t& WTitle                                    : English-SRT
6 f# Y: g' m4 `1 G( h" V& DLanguage                                 : English- u; v2 R; ~+ U8 d
Default                                  : Yes
8 {- q# A) l* E* Q% CForced                                   : No3 [% {% `, y3 j! k8 p7 ~

3 ]; s, U8 R+ iText #2' F, t9 `. u/ ]2 @4 q8 C7 h2 R
ID                                       : 54 C9 W7 d; j& L# B( y
Format                                   : UTF-8# h- q' ^: T/ m% {' s' Y% Z
Codec ID                                 : S_TEXT/UTF8: ]) w9 f& [& O" `" S1 X
Codec ID/Info                            : UTF-8 Plain Text
/ O. ]8 j& Z5 l5 b! H  zDuration                                 : 37 min 48 s
9 t, [. o( o' w: k1 L/ QBit rate                                 : 72 b/s; \4 l0 V7 H1 d: T
Count of elements                        : 643
0 H# `* s! |5 y9 C* ~2 {Stream size                              : 20.2 KiB (0%)& ~/ p: X& B5 [) C
Title                                    : English-SDH-SRT
  w3 ?$ I: ~4 f7 SLanguage                                 : English
# h# ~- a8 b: {! Q$ vDefault                                  : No
2 ~8 R: q2 m/ r7 N% ~Forced                                   : No
+ x( T, }( T: v# T3 B0 g2 E
' T9 M) m8 J3 X+ ^$ @Text #3) ^# }  `5 ?: p
ID                                       : 6. j, W; y  Y; m, z% O: n$ T# b, ~' W
Format                                   : PGS/ V/ s, C, T: d, P) ]! V. z' R) @% D
Muxing mode                              : zlib
4 ~! @+ f' o/ a8 o7 SCodec ID                                 : S_HDMV/PGS
3 Q% T1 T. J. N" i3 yCodec ID/Info                            : Picture based subtitle format used on BDs/HD-DVDs
% |& B! m( \- |  @3 M/ H7 tDuration                                 : 37 min 48 s
6 \/ J! A% K7 k- k1 l% VBit rate                                 : 30.3 kb/s
: N0 a5 E2 `  M; ?Count of elements                        : 1292
5 d1 _" y" ^" @3 c2 m0 s' ]" Z% h" `Stream size                              : 8.20 MiB (0%)0 _: V. b1 _% @( \
Title                                    : English-PGS
1 q$ `+ S& Z" kLanguage                                 : English
' j! S. H9 n; l9 wDefault                                  : No
7 w' J2 i  }9 X  p4 v9 n. oForced                                   : No  W# |7 y  N3 q+ s; H' ^3 F

4 {* g. p( s2 R- p" Z% l6 HMenu
7 t  G3 ?& J' N0 L2 {$ K7 i. s* j* D3 H# m00:00:00.000                             : en:Chapter 1
5 N$ \: W0 o3 J/ g. t# |4 j00:04:14.500                             : en:Chapter 2
# o$ [7 x  V# G% Z00:09:58.375                             : en:Chapter 3
3 ~7 d9 K# V3 E; \/ h00:14:02.417                             : en:Chapter 4  {% V. b" g" y' a% ?9 C  U7 J
00:18:11.625                             : en:Chapter 5
% L1 y; z6 \5 w00:21:08.583                             : en:Chapter 6
: r( Q$ O4 z5 Q. X9 h. a00:25:02.708                             : en:Chapter 7
2 \3 K5 ]8 N- }2 C4 m00:28:49.333                             : en:Chapter 8% L1 _8 B; ^0 [) b
00:32:38.958                             : en:Chapter 9  u, b7 u" W9 M9 L" A' r/ |2 Y
00:37:04.125                             : en:Chapter 10

( w# k8 g1 F4 O" t1 U, s* R' o1 v% l: B
Encoded from 4k bluray.2 J% R* Q, B- ]2 y
游客,查看本帖隐藏内容请回复 | 加入VIP贵宾组可免积分免回复下载 了解详情 | 还不是会员:点击获取邀请码 Invitation Code

64

主题

1506

帖子

5493

积分

Sponsor

金币
308 枚
体力
2082 点
lanpanshuma 发表于 2020-9-12 10:45:11 | 显示全部楼层
楼主发贴辛苦了,I*老*虎*U!6 j% l& E9 B1 \( u% w! g$ S# q
Blu-ray movies Community: my favorite!
  `7 Y% d& F2 R+ N" k* X
该会员没有 ...

0

主题

366

帖子

1881

积分

Sponsor

金币
20 枚
体力
1187 点
QQ
sunday_119 发表于 2020-9-30 17:11:06 | 显示全部楼层
每天都来蓝光论坛看看,我爱蓝光电影。1 K! m1 k9 ~( V  s& P' q
Not see, I am a novice, the inadequacies of the first Please bear with me!1 V( H* Q" ]0 [" J& T

本版积分规则

小黑屋|Archiver|蓝光电影资源网

GMT+8, 2020-10-29 03:46

快速回复 返回顶部 返回列表