BluRayCD Forum

 找回密码
 立即注册【分享大片】

QQ登录

只需一步,快速开始

查看: 12|回复: 0
收起左侧

[2160P极清] 揭秘海军陆战队 [4K HDR高码版] We the Marines 2017 DOCU 2160p UHD BluRaycd x265 10bit HDR DTS-HD MA TrueHD 7.1 Atmos-SWTYBLZ 8.46GB

[复制链接]

4491

主题

4663

帖子

6万

积分

Post Share

金币
8525 枚
体力
16644 点

卓越贡献勋章

黄金嫖客 发表于 2020-9-13 22:32:02 | 显示全部楼层 |阅读模式
: T# f6 h3 S) D. u2 m
+ K/ Z- B) G; [, O$ P) N0 [
◎片  名 We, the Marines9 P& e$ ~% M. \, Q$ c0 E# S+ q  Y
◎译  名 揭秘海军陆战队
$ X  b$ G* ~% k* B6 P1 O! k0 K# ^◎年  代 2017
5 \" c4 G* {* l8 j$ n  D◎产  地 美国7 F* e$ J5 S/ _) T! n) v) e
◎类  别 纪录片/短片
! b  z/ w* m; `* O' J- Y6 D$ ~* C◎语  言 英语9 w% \# ^9 c$ Q; `  F
◎上映日期 2017-07-21(美国)
% R' e% j0 m. K) g◎IMDb评分  5.4/10 from 400 users2 E8 A5 v7 [* I/ N1 A, R) U) J
◎IMDb链接  https://www.imdb.com/title/tt7422506/2 B$ l- c# B2 W% o* y! I
◎豆瓣评分 0/10 from 0 users$ [0 M. v( _, F! v+ y% d0 b
◎豆瓣链接 https://movie.douban.com/subject/30269830/- ?4 I$ u5 K* M1 E
◎文件格式 x265 + DTS + TrueHD, s, e, d: Z; s3 Y0 Y( ?  N
◎视频尺寸 3840 x 2160
; o% f. c* s- W6 z/ @9 @◎文件大小 1DVD 8.46 GiB" {! i2 t" ]6 b. a% M7 o6 s- h) h
◎片  长 37 min 53 s6 j- b# k3 B& C* G+ ?. b6 J* [; M! u
◎导  演 格雷戈·迈吉里弗雷 Greg MacGillivray" Q; b: H8 w% ~2 b% S
◎主  演 吉恩·哈克曼 Gene Hackman
- B5 H& Z3 y; t/ v) V- H- e6 F9 ?5 A9 Y( S) \; _8 h9 c
◎标  签 纪录片 | 军事 | 美国 | IMAX | 2017 | 短片 | 美国电影 | 紀錄片
  \" v' ^1 o# ~4 g, |9 T( O
5 C1 @" f- n, V) b+ @◎简  介  
9 [0 {# `% l7 O4 a* z) h+ j0 a
8 R- N/ z. d+ c3 d  w  这部纪录片由身位演员和前海军陆战队员的金·哈可曼解说,展现了美国海军陆战队成员的成长经历。
0 l; G" m* T4 g2 z% p/ h, S
1 S; m$ p+ ?( S* d3 \8 s1 J# B  WE, THE MARINES takes viewers on an action-packed adventure into the unparalleled experience of becoming and serving as a member of the U.S. Marine Corps. Narrated by former Marine and actor, Gene Hackman, the film honors something more than dedication and service; the film offers an unforgettable glimpse into the first-hand experiences of America's "first responders" and what it takes to become the men and women who honor and defend our country.) ?# p9 k1 Q2 f9 f* F) W/ t

0 G7 v- j9 S2 G1 E, a4 O
SWEATY BALLZ presents7 S$ c6 L2 E& |$ n
( C0 D- `" p$ f9 V2 i* T: S2 R
We,.the.Marines.2017.2160p.UHD.BluRayCD.x265.10bit.HDR.DTS-HD.MA.TrueHD.7.1.Atmos-SWTYBLZ
) j, X4 Z( w" r' z9 ?/ W( u; q4 UScreenshots are 8bit SDR/ D" t2 O3 _1 G8 O9 V: @: B- {
7 ?2 y6 x, [8 {# |# A
Video
) S& e/ m7 j5 k6 w3 p/ g) k5 uID                                       : 1; W) c- ]4 C/ I" e9 I7 z  \
Format                                   : HEVC5 o* n, f2 R7 d
Format/Info                              : High Efficiency Video Coding
5 R& V: v1 u& c/ |2 c" oFormat profile                           : Main 10@L5.1@High
% v/ K- t: r# x- o- vHDR format                               : SMPTE ST 2086, HDR10 compatible
0 B' ~! K: k, U0 m- h5 U( C% yCodec ID                                 : V_MPEGH/ISO/HEVC
$ M6 {+ W- d8 f# yDuration                                 : 37 min 53 s% D, u8 p, L9 z- z7 b
Bit rate                                 : 23.8 Mb/s
4 w) [& \& k1 {, Y$ g1 NWidth                                    : 3 840 pixels- N/ i  Z& x3 _0 j9 \3 h
Height                                   : 2 160 pixels( Y0 p4 u( W; g' |- M- T
Display aspect ratio                     : 16:91 C9 m8 U3 ]; g/ N9 r4 @
Frame rate mode                          : Constant- t* O4 R6 h5 X/ _# A# o; Z
Frame rate                               : 24.000 FPS$ Y1 e; I5 x2 f) V7 l, X) p6 v" q
Color space                              : YUV
8 w6 _9 A8 [. Q/ ^Chroma subsampling                       : 4:2:0 (Type 2)' P7 L5 B2 d' }
Bit depth                                : 10 bits7 i# N, [& P! [
Bits/(Pixel*Frame)                       : 0.1193 p) K5 [: n. N+ \
Stream size                              : 6.29 GiB (76%). G6 l# ^3 x% q8 @
Title                                    : We.the.Marines.2017.DOCU.2160p.UHD.BluRaycd.x265.10bit.HDR.DTS-HD.MA.TrueHD.7.1.Atmos-SWTYBLZ
  ^4 j' F, r. w9 {: F. j7 D* z: ]5 PWriting library                          : x265 3.0_Au+10-74a8672ea4f7:[Windows][GCC 8.2.1][64 bit] 10bit! W. _1 h8 [0 A! C" K3 g
Encoding settings                        : cpuid=1111039 / frame-threads=6 / numa-pools=24,24,24,24 / wpp / no-pmode / no-pme / no-psnr / no-ssim / log-level=2 / input-csp=1 / input-res=3840x2160 / interlace=0 / total-frames=0 / level-idc=51 / high-tier=1 / uhd-bd=0 / ref=3 / no-allow-non-conformance / repeat-headers / annexb / aud / hrd / info / hash=0 / no-temporal-layers / no-open-gop / min-keyint=1 / keyint=24 / gop-lookahead=0 / bframes=4 / b-adapt=2 / b-pyramid / bframe-bias=0 / rc-lookahead=25 / lookahead-slices=4 / scenecut=40 / radl=0 / no-splice / no-intra-refresh / ctu=64 / min-cu-size=8 / no-rect / no-amp / max-tu-size=32 / tu-inter-depth=1 / tu-intra-depth=1 / limit-tu=0 / rdoq-level=0 / dynamic-rd=0.00 / no-ssim-rd / signhide / no-tskip / nr-intra=0 / nr-inter=0 / no-constrained-intra / strong-intra-smoothing / max-merge=2 / limit-refs=3 / no-limit-modes / me=1 / subme=2 / merange=57 / temporal-mvp / weightp / no-weightb / no-analyze-src-pics / deblock=0:0 / no-sao / no-sao-non-deblock / rd=3 / no-early-skip / rskip / no-fast-intra / no-tskip-fast / no-cu-lossless / no-b-intra / no-splitrd-skip / rdpenalty=0 / psy-rd=2.00 / psy-rdoq=0.00 / no-rd-refine / no-lossless / cbqpoffs=0 / crqpoffs=0 / rc=crf / crf=16.0 / qcomp=0.60 / qpstep=4 / stats-write=0 / stats-read=0 / vbv-maxrate=160000 / vbv-bufsize=160000 / vbv-init=0.9 / crf-max=0.0 / crf-min=0.0 / ipratio=1.40 / pbratio=1.30 / aq-mode=1 / aq-strength=1.00 / cutree / zone-count=0 / no-strict-cbr / qg-size=32 / no-rc-grain / qpmax=69 / qpmin=0 / no-const-vbv / sar=1 / overscan=0 / videoformat=5 / range=0 / colorprim=9 / transfer=16 / colormatrix=9 / chromaloc=1 / chromaloc-top=2 / chromaloc-bottom=2 / display-window=0 / master-display=G(8500,39850)B(6550,2300)R(35400,14600)WP(15635,16450)L(10000000,01) / max-cll=987,340 / min-luma=0 / max-luma=1023 / log2-max-poc-lsb=8 / vui-timing-info / vui-hrd-info / slices=1 / opt-qp-pps / opt-ref-list-length-pps / no-multi-pass-opt-rps / scenecut-bias=0.05 / no-opt-cu-delta-qp / no-aq-motion / hdr / hdr-opt / no-dhdr10-opt / no-idr-recovery-sei / analysis-reuse-level=5 / scale-factor=0 / refine-intra=0 / refine-inter=0 / refine-mv=0 / refine-ctu-distortion=0 / no-limit-sao / ctu-info=0 / no-lowpass-dct / refine-analysis-type=1082181814 / copy-pic=1 / max-ausize-factor=1.0 / no-dynamic-refine / no-single-sei / no-hevc-aq / no-svt / qp-adaptation-range=1.00
: W9 f, C: Q1 \& @: @7 rDefault                                  : Yes
. Y5 g5 N7 ^* U. Z9 l; VForced                                   : No
' `) m) I) @( ?Color range                              : Limited
+ `0 T3 d9 K/ dColor primaries                          : BT.2020
2 A  X; q8 F7 d0 C: qTransfer characteristics                 : PQ' w: u4 O  y7 T2 w1 u3 k5 W6 o
Matrix coefficients                      : BT.2020 non-constant- Z; ~. ~* A+ V% e
Mastering display color primaries        : BT.2020' v: A) f! v& b
Mastering display luminance              : min: 0.0001 cd/m2, max: 1000 cd/m2
. ]1 F% X+ U1 e3 R9 H( \; _Maximum Content Light Level              : 987 cd/m29 k8 P! C5 ^: |9 r" H$ r
Maximum Frame-Average Light Level        : 340 cd/m2
* J* K9 [6 f. K" V' \( A, Y& c# n3 U
Audio #18 u1 ^% d6 B. f, S; w7 g4 Q
ID                                       : 2
0 w$ P. I5 w- T- [& UID in the original source medium         : 4352 (0x1100)
; O' V) N# t1 l3 L3 e0 Z( TFormat                                   : MLP FBA 16-ch2 r  s- ?5 r$ Z. r7 Q7 |- c
Format/Info                              : Meridian Lossless Packing FBA with 16-channel presentation
0 q$ ~" Y7 L1 j( g# i- w- E. MCommercial name                          : Dolby TrueHD with Dolby Atmos
0 Z! K* M6 q6 f$ ?' b& NCodec ID                                 : A_TRUEHD9 _* |! Y( u$ D
Duration                                 : 37 min 53 s
4 w9 E2 N% `6 g+ ?: \; ]+ [Bit rate mode                            : Variable
+ c, S6 V) V7 s0 C2 mBit rate                                 : 2 943 kb/s
/ D" S2 C5 K+ {$ O) ^! \% P' oMaximum bit rate                         : 4 014 kb/s
! F. ~; ?" O6 y& ~2 wChannel(s)                               : 8 channels
/ ?6 C3 U# M. b5 K! vChannel layout                           : L R C LFE Ls Rs Lb Rb7 g% n( ^, q) ?0 |
Sampling rate                            : 48.0 kHz
2 A5 y3 O# Y+ n; kFrame rate                               : 1 200.000 FPS (40 SPF)( k! `' f, V) q/ ~+ w
Compression mode                         : Lossless1 x" W  O3 @' C, r7 {& {
Stream size                              : 798 MiB (9%)3 T; Y" T: ~/ n  S
Title                                    : We.the.Marines.2017.DOCU.2160p.UHD.BluRaycd.x265.10bit.HDR.DTS-HD.MA.TrueHD.7.1.Atmos-SWTYBLZ
' Y) y/ x4 D+ |4 U# l) |( V0 yLanguage                                 : English5 Y' ~% Y( r3 F' ]- H
Default                                  : Yes
3 m1 p! |  l0 H* x: z5 r4 xForced                                   : No
+ `4 I8 |; r7 w: Y8 c! vOriginal source medium                   : Blu-ray: U% U! R! x/ P
Number of dynamic objects                : 15, T+ V2 s/ _6 l- D
Bed channel count                        : 1 channel6 \4 ^9 M, D+ k7 ^6 W  j" a' G
Bed channel configuration                : LFE; I' N( y7 `  v  c0 ]( m  e$ J

8 K( w5 _5 N) O0 V4 Z. xAudio #2% ?9 [3 i2 S3 C. `
ID                                       : 3
0 t8 T$ \; v0 j! J" A* c, CFormat                                   : DTS XLL
, |6 z3 v! `' TFormat/Info                              : Digital Theater Systems
& L1 T5 {8 B8 k- {& b# u* s9 xCommercial name                          : DTS-HD Master Audio
0 j( R3 T/ |6 e. iCodec ID                                 : A_DTS
5 `! }2 h) {: h8 u" IDuration                                 : 37 min 53 s
1 m" ?, U  M+ N4 W7 EBit rate mode                            : Variable5 Y5 l1 I% J, w9 q
Bit rate                                 : 3 979 kb/s
2 Z7 T2 _. b  Y2 j" g' e- wChannel(s)                               : 8 channels
" y! L. T+ o3 G9 {) N! k* W- _Channel layout                           : C L R LFE Lb Rb Lss Rss3 |/ {5 L8 D+ T# c4 b; a$ V9 J4 O
Sampling rate                            : 48.0 kHz
/ D- P4 H8 A! t5 KFrame rate                               : 93.750 FPS (512 SPF)
: e. s; O- ?" e% m. r7 [Bit depth                                : 24 bits
" ]. ?& f' D; S- WCompression mode                         : Lossless1 [( x% |4 t$ G
Stream size                              : 1.05 GiB (13%), K* q4 Y4 V! L, l# l' Y: \
Title                                    : We.the.Marines.2017.DOCU.2160p.UHD.BluRaycd.x265.10bit.HDR.DTS-HD.MA.TrueHD.7.1.Atmos-SWTYBLZ
: M. m: F, M. q4 H5 T1 k4 Z3 \Language                                 : English7 b. p& r1 C' Q+ l! U" B. ~* N
Default                                  : No
& t1 c2 k/ v/ C; WForced                                   : No5 z& {$ K, i% x7 C$ u- b& ~1 O

; [8 C* r, F! e: p9 n% R" ]+ ]# HAudio #38 E6 q& ^6 T" ?! B
ID                                       : 4
3 u5 Z+ b; g  n" NID in the original source medium         : 4352 (0x1100)
* E- V" }; J# ^) f& p, z. [0 qFormat                                   : AC-3
8 V& L) S& l- e% {& ^Format/Info                              : Audio Coding 3
1 W8 q" d+ g/ E' v& C3 _Commercial name                          : Dolby Digital
$ g8 w) V& {" z% r- NCodec ID                                 : A_AC3
: @7 ?0 j, I  W" |0 r4 s5 yDuration                                 : 37 min 53 s5 e  H/ ~+ a4 u7 a! s
Bit rate mode                            : Constant
" k- J) a7 C1 e- T4 ABit rate                                 : 640 kb/s
3 d$ K/ o7 y% c9 G) o( b3 V: wChannel(s)                               : 6 channels- x. B7 t4 i1 t
Channel layout                           : L R C LFE Ls Rs
. [6 O! C- A% r! J$ oSampling rate                            : 48.0 kHz
( o" b( A6 }% P1 `1 \, T4 A- gFrame rate                               : 31.250 FPS (1536 SPF)! L8 @# ?+ I8 e- V0 r+ D
Compression mode                         : Lossy
, j# X7 v& U8 w4 Z( x' Y, xStream size                              : 173 MiB (2%)  Y& n. G2 _, W3 o: L; I) G. h4 o
Title                                    : We.the.Marines.2017.DOCU.2160p.UHD.BluRaycd.x265.10bit.HDR.DTS-HD.MA.TrueHD.7.1.Atmos-SWTYBLZ
+ M/ E' m4 U2 T. e1 [, DLanguage                                 : English% A9 U$ `) `# {2 n4 j7 W
Service kind                             : Complete Main4 U* R  ?, f6 x, X5 r3 U
Default                                  : No
& W$ ?$ |- Q0 }Forced                                   : No
) E( \3 c5 L: @Original source medium                   : Blu-ray; V+ z% b/ |3 ^0 k

; J8 ?- K9 x7 U* r) M) |5 VText #1
7 C) E/ E5 s' h# i5 c: zID                                       : 5
. M+ @8 e  y  Q3 EFormat                                   : UTF-8
+ v8 M" ?7 c$ O& G* E( gCodec ID                                 : S_TEXT/UTF8% G7 n2 s& L" c9 a* ?
Codec ID/Info                            : UTF-8 Plain Text
: r( @+ ^' q8 S+ }* mDuration                                 : 37 min 23 s
4 e6 O/ M- R- ~# A4 PBit rate                                 : 65 b/s
" D' \/ g5 I6 R% _& a4 V$ e2 [Count of elements                        : 572
3 a4 @9 H9 L# w# F1 Q, uStream size                              : 17.9 KiB (0%)
3 _9 h2 P8 [" t& k* DTitle                                    : English-SRT
) ^9 V) Y$ j6 PLanguage                                 : English
* f7 z) P" `4 x0 S5 j  pDefault                                  : Yes0 u- f+ o6 R& c' L1 q/ |  }# X7 l
Forced                                   : No7 W: G( H% F: F

7 e, k# P- y* a3 u  OText #20 J" c" t! a, }( E8 l3 l0 h9 N
ID                                       : 6
2 `5 v9 V- b" J# ~Format                                   : UTF-8) f+ `( Q0 G" W  n
Codec ID                                 : S_TEXT/UTF8
/ X- q$ I: \3 i8 U: r8 oCodec ID/Info                            : UTF-8 Plain Text! B, j% H  x7 P( {
Duration                                 : 37 min 48 s4 z& V& S8 a3 d& q' I
Bit rate                                 : 72 b/s7 S! o/ P+ a- u0 Z+ I; @4 y
Count of elements                        : 643
! G/ O- F% S9 j* z+ rStream size                              : 20.2 KiB (0%)
8 v# f( i  c% ^8 u. s: aTitle                                    : English-SDH-SRT! j5 ~; Y2 }, d5 T" T7 l
Language                                 : English1 D; q# P3 N- Y; m: U, F; j
Default                                  : No% `2 w" U3 {. w. c! E
Forced                                   : No1 G  \& x. x) K$ ]( q/ O6 Z$ c

( q/ f- y1 `1 r1 e- o6 ^& ~Text #3
' u! n! ^1 }# `7 r) @  t- {ID                                       : 7) W: ^, K( G. E% X3 A
ID in the original source medium         : 4768 (0x12A0)) W7 ?1 ~8 Z6 p- H3 m+ p: w) H5 |  T
Format                                   : PGS
$ z  i/ A4 Y0 |6 GMuxing mode                              : zlib
8 ^+ J' q* F0 oCodec ID                                 : S_HDMV/PGS
: C  X$ P" ]' {" p! HCodec ID/Info                            : Picture based subtitle format used on BDs/HD-DVDs# [, S, _: N) b' J( X& |! G$ u+ r6 ]
Duration                                 : 37 min 48 s
! ?5 ^) h$ ^  t# |5 Y0 FBit rate                                 : 30.3 kb/s
+ J3 T$ q; E8 z0 mCount of elements                        : 1292: s5 x6 ]9 z- V$ ~0 a9 C
Stream size                              : 8.20 MiB (0%)* ~! u8 u+ p& ^6 [
Title                                    : English-PGS
0 b( Q, Q8 O; |* g7 z, E2 I& NLanguage                                 : English7 S# `- L! S; j! q' m1 \( ]
Default                                  : No
4 X/ I* Y2 ]7 g( W% w! f* {9 yForced                                   : No) g- w7 D  e) A$ A) r% F) N& j8 a
Original source medium                   : Blu-ray* j8 J4 C; W) \7 u
0 r0 x7 G$ ^/ w1 P2 @
Menu! j% g: |6 R+ Q; i. e8 c
00:00:00.000                             : en:Chapter 01
% |6 ]3 l' E$ H! @& K- p00:04:14.500                             : en:Chapter 02
/ `4 M/ w% G9 H9 @00:09:58.375                             : en:Chapter 03
" d/ S. s6 |" b: @6 m% r& S00:14:02.416                             : en:Chapter 04$ D* D) }/ q& N
00:18:11.625                             : en:Chapter 05
% X) R+ J% p# U( q2 u00:21:08.583                             : en:Chapter 06
. O5 Y( k. c0 N& M. m6 w00:25:02.708                             : en:Chapter 07- ~; B6 |- \) I
00:28:49.333                             : en:Chapter 081 C, n' d% H6 l
00:32:38.958                             : en:Chapter 090 W  k  D# o$ I4 T9 X
00:37:04.125                             : en:Chapter 10
* t1 v( ~, G7 ?
游客,查看本帖隐藏内容请回复 | 加入VIP贵宾组可免积分免回复下载 了解详情 | 还不是会员:点击获取邀请码 Invitation Code

本版积分规则

小黑屋|Archiver|蓝光电影资源网

GMT+8, 2020-9-22 03:35

快速回复 返回顶部 返回列表