BluRayCD Forum

 找回密码
 立即注册【分享大片】

QQ登录

只需一步,快速开始

查看: 20|回复: 1
收起左侧

[2160P极清] 揭秘海军陆战队 [4K SDR高码版] We the Marines 2017 DOCU 2160p BluRaycd x265 10bit SDR DTS-HD MA TrueHD 7.1 Atmos-SWTYBLZ 14.04GB

[复制链接]

4491

主题

4663

帖子

6万

积分

Post Share

金币
8525 枚
体力
16644 点

卓越贡献勋章

黄金嫖客 发表于 2020-9-13 22:39:34 | 显示全部楼层 |阅读模式
) H( k2 O" j/ P: _6 a& w

" f. z" F: U% {  J3 V( z& J( ?2 _- }2 X
◎片  名 We, the Marines4 ]0 u' m" e- I7 E/ m% o
◎译  名 揭秘海军陆战队" c( I& m% A0 k
◎年  代 2017
$ H" K5 m, T  W7 l◎产  地 美国# \) Y7 W( @! R# X! g! b4 D# N& ]: g
◎类  别 纪录片/短片8 x" a8 U, j+ ]1 ]! z5 Y7 n
◎语  言 英语
$ x% d$ t1 Q# E! g; |◎上映日期 2017-07-21(美国)
- C+ B' P. Q; P3 o2 e4 h◎IMDb评分  5.4/10 from 406 users; v, ]/ Q% R9 c( M+ \0 I/ s# V& K
◎IMDb链接  https://www.imdb.com/title/tt7422506/
) B" l% J0 @' T- ?9 {/ e  ~◎豆瓣评分 0/10 from 0 users
: Y+ s. J6 B" u, S9 w* I1 [◎豆瓣链接 https://movie.douban.com/subject/30269830/4 t. `: U, @5 ]1 Y2 b+ W
◎文件格式 x265 + DTS + TrueHD
- j5 l; Z3 a: j' v8 j* [4 x/ C( r9 @/ n$ m◎视频尺寸 3840 x 2160
+ Z1 ?, q% q8 f5 D$ i6 p◎文件大小 1DVD 14.04 GiB) z  w2 t2 F7 t2 [
◎片  长 37 min 53 s
  l7 a0 ]5 `$ D: S" G◎导  演 格雷戈·迈吉里弗雷 Greg MacGillivray
0 p, ?% Q, k- q$ c, m' ?1 D◎主  演 吉恩·哈克曼 Gene Hackman2 \( L" `/ i# |
) r' ?4 Q/ f* o; y5 s
◎标  签 纪录片 | 军事 | 美国 | IMAX | 2017 | 短片 | 美国电影 | 紀錄片
6 ^) m( a8 h3 @& v/ C% a: S4 r0 C# {/ x5 y: R- f
◎简  介  
0 x( P. W$ B8 H5 ^! N2 E  S, t
9 }7 C2 D5 `' w  ?" d6 R  这部纪录片由身位演员和前海军陆战队员的金·哈可曼解说,展现了美国海军陆战队成员的成长经历。5 L; [6 C* X* d, `8 ^% K( u1 c
" K$ \; a- \4 _3 x! Q3 h
  WE, THE MARINES takes viewers on an action-packed adventure into the unparalleled experience of becoming and serving as a member of the U.S. Marine Corps. Narrated by former Marine and actor, Gene Hackman, the film honors something more than dedication and service; the film offers an unforgettable glimpse into the first-hand experiences of America's "first responders" and what it takes to become the men and women who honor and defend our country.
+ p" O5 f) u; z" o' G
/ _2 z4 G$ U5 [' E( `  m4 H7 d9 J7 g. d8 `/ r# l
3 n- }9 E( k3 M' p6 ?& l! {, W
* p2 J' m6 ?* X0 |$ B' f
SWEATY BALLZ presents2 Q. J7 ]' q: s. r! P3 e$ v/ m; {: ^

! d8 i$ J/ Z0 P- ]We,.the.Marines.2017.2160p.BluRayCD.x265.10bit.SDR.DTS-HD.MA.TrueHD.7.1.Atmos-SWTYBLZ
& S; Z- V* t9 y$ WConverted from 10 bit HDR to 10 bit SDR using tripple mixed Hable-Reinhard-JJ per scene+frame analysis algorithm5 l) V- v# J9 ]/ n% V
Screenshots are 8bit SDR
0 U$ }$ [7 W9 Y) c1 d+ u0 r
  Q, |1 T. Q6 `+ TVideo
7 ~& t+ C$ e  ]1 _: v" yID                                       : 1
9 u5 Z- S7 y5 R0 L  X9 jFormat                                   : HEVC/ B/ X  l0 J* i! {' R5 Z- e; S
Format/Info                              : High Efficiency Video Coding
/ Z* i) D% |; @8 `8 B4 gFormat profile                           : Main 10@L5.1@High* \9 z. y* n1 D' o+ [- G
Codec ID                                 : V_MPEGH/ISO/HEVC
& W! ~- B, o  a" J) Z5 GDuration                                 : 37 min 53 s
9 ^# c8 X  k/ }) Z; [/ QBit rate                                 : 44.5 Mb/s
, v. x5 n6 D+ _# j$ `Width                                    : 3 840 pixels
( H8 L: E. R+ X( c) r) l; d1 ^Height                                   : 2 160 pixels
  n9 E; P2 c" F# N3 RDisplay aspect ratio                     : 16:97 Y5 _+ t5 Z( L8 q
Frame rate mode                          : Constant8 R6 Q4 s# s6 k$ c+ u$ n
Frame rate                               : 24.000 FPS
- M4 }; L8 B: F7 g6 SColor space                              : YUV
) h9 q! n. C1 x8 M- S- JChroma subsampling                       : 4:2:00 T# D0 j& n; u  ?0 L; K5 U
Bit depth                                : 10 bits# s: D# [) ^; S; j' D* b/ C
Bits/(Pixel*Frame)                       : 0.223
/ O1 s; e8 M8 |  s7 @Stream size                              : 11.8 GiB (85%)  ~% n7 x* ?8 w2 r* x% G
Title                                    : We.the.Marines.2017.DOCU.2160p.BluRaycd.x265.10bit.SDR.DTS-HD.MA.TrueHD.7.1.Atmos-SWTYBLZ& i9 u- u6 {) ~+ h# h7 W# L
Writing library                          : x265 3.0+1-ed72af837053:[Windows][GCC 8.2.0][64 bit] 10bit
& R( s! T2 W) Q2 MEncoding settings                        : cpuid=1111039 / frame-threads=6 / numa-pools=40 / wpp / no-pmode / no-pme / no-psnr / no-ssim / log-level=2 / input-csp=1 / input-res=3840x2160 / interlace=0 / total-frames=54564 / level-idc=51 / high-tier=1 / uhd-bd=0 / ref=3 / no-allow-non-conformance / repeat-headers / annexb / aud / hrd / info / hash=0 / no-temporal-layers / no-open-gop / min-keyint=1 / keyint=24 / gop-lookahead=0 / bframes=4 / b-adapt=2 / b-pyramid / bframe-bias=0 / rc-lookahead=25 / lookahead-slices=4 / scenecut=40 / radl=0 / no-splice / no-intra-refresh / ctu=64 / min-cu-size=8 / no-rect / no-amp / max-tu-size=32 / tu-inter-depth=1 / tu-intra-depth=1 / limit-tu=0 / rdoq-level=0 / dynamic-rd=0.00 / no-ssim-rd / signhide / no-tskip / nr-intra=0 / nr-inter=0 / no-constrained-intra / strong-intra-smoothing / max-merge=2 / limit-refs=3 / no-limit-modes / me=1 / subme=2 / merange=57 / temporal-mvp / weightp / no-weightb / no-analyze-src-pics / deblock=0:0 / no-sao / no-sao-non-deblock / rd=3 / no-early-skip / rskip / no-fast-intra / no-tskip-fast / no-cu-lossless / no-b-intra / no-splitrd-skip / rdpenalty=0 / psy-rd=2.00 / psy-rdoq=0.00 / no-rd-refine / no-lossless / cbqpoffs=0 / crqpoffs=0 / rc=crf / crf=16.0 / qcomp=0.60 / qpstep=4 / stats-write=0 / stats-read=0 / vbv-maxrate=160000 / vbv-bufsize=160000 / vbv-init=0.9 / crf-max=0.0 / crf-min=0.0 / ipratio=1.40 / pbratio=1.30 / aq-mode=1 / aq-strength=1.00 / cutree / zone-count=0 / no-strict-cbr / qg-size=32 / no-rc-grain / qpmax=69 / qpmin=0 / no-const-vbv / sar=1 / overscan=0 / videoformat=5 / range=0 / colorprim=2 / transfer=2 / colormatrix=2 / chromaloc=0 / display-window=0 / max-cll=0,0 / min-luma=0 / max-luma=1023 / log2-max-poc-lsb=8 / vui-timing-info / vui-hrd-info / slices=1 / opt-qp-pps / opt-ref-list-length-pps / no-multi-pass-opt-rps / scenecut-bias=0.05 / no-opt-cu-delta-qp / no-aq-motion / no-hdr / no-hdr-opt / no-dhdr10-opt / no-idr-recovery-sei / analysis-reuse-level=5 / scale-factor=0 / refine-intra=0 / refine-inter=0 / refine-mv=0 / refine-ctu-distortion=0 / no-limit-sao / ctu-info=0 / no-lowpass-dct / refine-analysis-type=0 / copy-pic=1 / max-ausize-factor=1.0 / no-dynamic-refine / no-single-sei / no-hevc-aq / qp-adaptation-range=1.00
% H2 s% T" B- E8 a' w0 BDefault                                  : Yes/ m5 @; k/ N/ N) ^8 }5 y
Forced                                   : No; n# S& ]. |( Z$ _& I. |0 H

3 ]3 I9 W3 Y8 a1 FAudio #1
5 D) \' C1 d7 @) Z  G3 u  E# KID                                       : 21 Y( w$ C- _4 P) p" K
ID in the original source medium         : 4352 (0x1100)5 z* b" d, h; E$ P
Format                                   : MLP FBA 16-ch
1 G, I' v$ r& f% I0 A) OFormat/Info                              : Meridian Lossless Packing FBA with 16-channel presentation" W5 s7 D, z( ]( `4 d
Commercial name                          : Dolby TrueHD with Dolby Atmos, F0 C$ B3 g# e" X1 U! |
Codec ID                                 : A_TRUEHD- t1 [/ g2 }- s$ q, R, a
Duration                                 : 37 min 53 s/ v. q- O' r$ [7 J2 P
Bit rate mode                            : Variable
4 B; p/ y9 p+ L1 n) K: YBit rate                                 : 2 943 kb/s
" L' U5 T2 w+ _7 g8 c8 ^' C! y& AMaximum bit rate                         : 4 014 kb/s+ H/ I( U1 Y. e2 m- B/ x. o
Channel(s)                               : 8 channels
/ H7 @) T) m; x5 V% k) X6 [: h3 hChannel layout                           : L R C LFE Ls Rs Lb Rb
+ ~6 `. s; R* p, R  N8 sSampling rate                            : 48.0 kHz( m, N. E1 L0 E  Y- Y1 i6 {# X
Frame rate                               : 1 200.000 FPS (40 SPF)
6 t* K% V7 k. FCompression mode                         : Lossless
7 T0 N' ?! Y7 l& v9 k9 m1 p6 BStream size                              : 798 MiB (6%)
$ r$ {, m+ J& E: [0 dTitle                                    : We.the.Marines.2017.DOCU.2160p.BluRaycd.x265.10bit.SDR.DTS-HD.MA.TrueHD.7.1.Atmos-SWTYBLZ' s: s7 B: R6 }1 j3 }. }: P7 [7 i) I
Language                                 : English5 Y+ t" s5 I. R% U3 o  \
Default                                  : Yes
& X  U, x1 {5 n  _3 K: j2 rForced                                   : No
8 j, A- V  N  x3 r$ QOriginal source medium                   : Blu-ray0 s# l: _6 t( R) y2 o0 S
Number of dynamic objects                : 15' r6 J' g. l3 o
Bed channel count                        : 1 channel' [5 C+ s( a$ W! ?8 i. G
Bed channel configuration                : LFE+ b, e; ?) L2 o+ i3 ]% b& u
" ^( w* T0 N1 Z0 x8 M3 v; a
Audio #2( z2 P; G6 \: \* b  k8 A6 y
ID                                       : 3
3 W) z6 y( C8 Y. a0 r3 q5 vFormat                                   : DTS XLL
2 Q! C1 Q0 l* X: g* x& HFormat/Info                              : Digital Theater Systems
. e% B7 B3 Q0 S. T& RCommercial name                          : DTS-HD Master Audio2 [8 U$ }# L% x. H
Codec ID                                 : A_DTS( Q) l" f4 O, r( N8 M
Duration                                 : 37 min 53 s
1 C1 N  H+ r' ?( v$ Q3 j8 _Bit rate mode                            : Variable
4 h1 a+ |& O: G6 k' N/ yBit rate                                 : 3 979 kb/s
( Q& `- n& C4 w) v+ d4 g; B6 pChannel(s)                               : 8 channels/ `0 q  v/ z& M/ D" n
Channel layout                           : C L R LFE Lb Rb Lss Rss
7 g- X/ @/ ^+ e, D3 K" }5 l% JSampling rate                            : 48.0 kHz6 ]2 ]# f0 m5 G$ \& ?: y, q0 i
Frame rate                               : 93.750 FPS (512 SPF)
3 i4 x/ }+ C  J' CBit depth                                : 24 bits
+ ?) @8 C% {/ \+ l# I, d/ l' JCompression mode                         : Lossless# w) Q# u/ B  C- N% J% r
Stream size                              : 1.05 GiB (8%)
( G/ Q! L* N# L3 X. [: [9 ]9 STitle                                    : We.the.Marines.2017.DOCU.2160p.BluRaycd.x265.10bit.SDR.DTS-HD.MA.TrueHD.7.1.Atmos-SWTYBLZ
) W3 V8 m$ K0 j5 J2 XLanguage                                 : English0 m% O9 D* M$ Z
Default                                  : No) G0 V7 {( c8 d2 d. \
Forced                                   : No0 }+ g% h6 T# _5 i

/ f9 ]" }" t- S! vAudio #3/ }$ e' M. u7 m$ w
ID                                       : 46 E7 S* f4 M; ]7 F
ID in the original source medium         : 4352 (0x1100)
8 k5 p& d* ]- U2 o6 U: m& }# FFormat                                   : AC-3
& t/ \) A4 v7 t/ @) TFormat/Info                              : Audio Coding 3+ T: M# f( S. Y7 N7 X
Commercial name                          : Dolby Digital
" X$ m$ u7 H- Z9 t: }+ A3 {Codec ID                                 : A_AC3
% e. n% q5 [) \Duration                                 : 37 min 53 s
7 {0 d+ B- c+ w% Z5 u8 p: |$ I9 \Bit rate mode                            : Constant7 s8 V  T( }- K2 h
Bit rate                                 : 640 kb/s
. _2 n2 e: C1 _Channel(s)                               : 6 channels4 E/ L/ }5 f" i3 n2 t6 _5 x
Channel layout                           : L R C LFE Ls Rs
5 g- y$ t- n2 g: c5 y/ OSampling rate                            : 48.0 kHz
5 h# T: \$ ~: e2 }Frame rate                               : 31.250 FPS (1536 SPF)
: e8 C0 e+ I% t( b+ k6 pCompression mode                         : Lossy
5 i2 d8 D. T+ a/ JStream size                              : 173 MiB (1%)& G- E% A; U+ {
Title                                    : We.the.Marines.2017.DOCU.2160p.BluRaycd.x265.10bit.SDR.DTS-HD.MA.TrueHD.7.1.Atmos-SWTYBLZ, t: B( q  G# P) x
Language                                 : English
- _5 \) V+ [( b9 \1 x5 k# H2 k. wService kind                             : Complete Main' W' _7 p# ?: D9 v; f% j5 ?  I/ a
Default                                  : No2 o3 N5 ?) v1 U
Forced                                   : No' \2 [+ ]% f% n6 ^! `: G
Original source medium                   : Blu-ray6 R" \8 J+ W+ d' D* A7 {: D1 u

/ p8 Z& o. n2 K- ~& uText #1
0 B  A; a; n% [6 G1 gID                                       : 5
) \  h( }& P% ?2 M2 iFormat                                   : UTF-8
% _8 F2 |% B( o- d  aCodec ID                                 : S_TEXT/UTF8
( M7 \9 n6 M* n& s% r% [Codec ID/Info                            : UTF-8 Plain Text) W/ R9 v9 p5 C, i# q/ `9 x  o
Duration                                 : 37 min 23 s) |4 `3 c  b% c6 J' F1 b0 f
Bit rate                                 : 65 b/s. o0 ^  R) F, H1 n. e  B
Count of elements                        : 572
: A3 m& T' g/ R, j; u0 z0 n  dStream size                              : 17.9 KiB (0%)# ]: l0 n: X! U0 |6 N! @, V
Title                                    : English-SRT
" h2 v0 `2 s) _. `5 @Language                                 : English
9 o8 Y0 |+ Z# b# _3 f. MDefault                                  : Yes% m: y& [* m+ p; T) n- C
Forced                                   : No0 M1 h6 H4 v$ M" _# ?2 O  l

' E- h4 T. f/ W, NText #2
. L) R& ?& `$ F# w+ f9 |7 MID                                       : 6) t4 S, z0 J( d" F0 ^
Format                                   : UTF-8
, L! [: W  F" I% o5 ]2 FCodec ID                                 : S_TEXT/UTF8
+ q1 w; r' u2 i: F6 ~; `. R8 oCodec ID/Info                            : UTF-8 Plain Text9 z9 E, a. l* f$ b5 h$ i
Duration                                 : 37 min 48 s
$ `4 Z; A0 N/ f1 YBit rate                                 : 72 b/s
; O" T* f5 T3 ^& r# T. y# rCount of elements                        : 6430 h' {5 K- N5 D' `: o0 E) N
Stream size                              : 20.2 KiB (0%); ^; L3 X$ E" K: S  r6 H. A6 a
Title                                    : English-SDH-SRT
9 q8 T- P$ q! r" D8 u: x- x& WLanguage                                 : English% ]  b* Y) I. p% t6 l! `8 ?
Default                                  : No
- f+ G' Y% K3 \' j. oForced                                   : No$ x* T7 B3 B8 V. v5 \/ r2 ^

# H2 I: O4 T$ q! T' aText #3) B# Q, W: s4 S  _1 [
ID                                       : 7
. K7 ~5 A' |5 U( @  N7 ZID in the original source medium         : 4768 (0x12A0)
& h+ O) s0 R% ~* a0 _' fFormat                                   : PGS
# \4 e# r8 U7 ~* d# B/ dMuxing mode                              : zlib
+ P/ u8 d9 K5 P) u& X5 Q( f, BCodec ID                                 : S_HDMV/PGS3 x. [4 j0 {9 B1 y0 L! f
Codec ID/Info                            : Picture based subtitle format used on BDs/HD-DVDs+ G0 s) A4 Q0 k; i5 t
Duration                                 : 37 min 48 s
3 p; D9 ~0 ~0 w. i8 G2 PBit rate                                 : 30.3 kb/s
: {! F+ W5 G' u# u; P& @9 k4 ]: BCount of elements                        : 1292
3 B' K+ Z( w: J7 Q4 m. dStream size                              : 8.20 MiB (0%)  V9 H( v' V+ ?* H: K
Title                                    : English-PGS$ k- e1 M& b" h& h- G& L
Language                                 : English
8 n, f7 w( z0 U% ?Default                                  : No
4 l/ {7 s- C; y& @' E" j2 cForced                                   : No
( q( b! W* n- u  l0 POriginal source medium                   : Blu-ray" M1 h7 h' H  w* T- ]. @7 u. b7 M8 e

8 X3 r* t* R# P0 [$ S; iMenu
0 M) S% I3 _' @00:00:00.000                             : en:Chapter 01/ `. I- G1 h% D0 _
00:04:14.500                             : en:Chapter 02
# x8 l% n+ U5 V3 K1 O00:09:58.375                             : en:Chapter 03- E5 n% {" G4 q" F8 N. e8 v0 D
00:14:02.416                             : en:Chapter 04
1 y6 ^/ y, {; {  O$ h' c00:18:11.625                             : en:Chapter 05+ K: \) E/ p. ]( C3 G. O
00:21:08.583                             : en:Chapter 06
: m4 V- d: z( B0 G00:25:02.708                             : en:Chapter 07
! m% @/ |& E) g8 l; ^+ o9 ~00:28:49.333                             : en:Chapter 08
7 C$ y4 o0 [( d2 |( f/ K% D00:32:38.958                             : en:Chapter 09' B9 Y; |! F6 v, Q
00:37:04.125                             : en:Chapter 10
" y$ t# S' k+ k2 }8 F( S
游客,查看本帖隐藏内容请回复 | 加入VIP贵宾组可免积分免回复下载 了解详情 | 还不是会员:点击获取邀请码 Invitation Code

0

主题

67

帖子

429

积分

Sponsor

金币
27 枚
体力
262 点
QQ
CR7态度 发表于 5 天前 | 显示全部楼层
啥也不说了,楼主就是给力!
* I& b/ c; F& L  O9 p6 M3 {: wThank you for sharing such a good resource polite reply, very sorry for myself!9 C; Q( N) a) n& ?/ h0 }

本版积分规则

小黑屋|Archiver|蓝光电影资源网

GMT+8, 2020-9-22 03:04

快速回复 返回顶部 返回列表