BluRayCD Forum

 找回密码
 立即注册【分享大片】

QQ登录

只需一步,快速开始

查看: 12|回复: 0
收起左侧

[科幻恐怖] 断头台 Two On A Guillotine 1965 1080p BluRaycd x264 DTS-FGT 9.76GB & 15.34GB

[复制链接]

3897

主题

4271

帖子

3万

积分

Post Share

金币
7316 枚
体力
6584 点

卓越贡献勋章

mvods 发表于 2020-9-12 09:00:20 | 显示全部楼层 |阅读模式

2 U: t7 b& I- D$ `  i5 _/ F  {& N- r" }4 u9 z. S* L
◎译  名 断头台' J  P; A; D6 `! C/ w. P
◎片  名 Two on a Guillotine
2 J+ g% c- v* v/ z+ T. t◎年  代 1965
  }& g# k, S2 t) l- o. O◎产  地 美国
* X9 a5 H" l" B0 l3 ]- K◎类  别 悬疑/恐怖0 Y, B) j6 U9 @: H' _: R& F2 b
◎语  言 英语9 A( o) J; l  p
◎上映日期 1965-01-133 r" c. a  w! g0 ]
◎IMDb评分  6.1/10 from 857 users0 |7 k# a* R; x1 D. D
◎IMDb链接  https://www.imdb.com/title/tt0059837/
6 o( m1 A( b  B◎豆瓣评分 0/10 from 0 users$ Z$ [$ u: \  U, W
◎豆瓣链接 https://movie.douban.com/subject/3335900/
3 k( d3 e; N9 ~◎片  长 1 h 47 min
- x; }) l7 [3 B( V& C◎导  演 威廉姆·康拉德 William Conrad
: ^; B: f. K( Y◎编  剧 John Kneubuhl / Henry Slesar( C" }* }9 ^4 s7 ^9 Y/ e
◎主  演 约翰·霍伊特 John Hoyt* n" ~( T8 [7 a( r6 I. H9 V
       康妮·史蒂文斯 Connie Stevens
% c% G- f0 H* I  z+ f       迪恩·琼斯 Dean Jones
" ^; k2 v0 A! X) d" r       恺撒·罗摩洛 Cesar Romero+ F  W' Q* S4 p4 }9 ?% j
       Jon Lormer) L7 C& P1 T! H& j
       德尔·穆尔 Del Moore
* W9 B4 s1 X0 c; c! S) @* |3 u7 W       乔治·N·奈泽 George N. Neise
+ ^  g  p% ^. d/ q       拉塞尔·索尔森 Russell Thorson0 b. p5 Q! ~9 q" \

  @0 K0 j( i8 g8 @, e◎标  签 悬疑 | 美国电影 | 美国 | 恐怖 | BDISO | 1965
0 V. `7 `. V( b# M7 \7 N1 o! s/ l- N8 \& O* o
◎简  介  9 X* o5 g1 ~% _/ J3 {$ M
" J' C2 A7 L( T' V
  一个精神错乱的魔术师的女儿必须在他的豪宅里住上七个晚上才能继承他的财产。0 T3 y! D5 Z+ d( _/ b4 j. x, ^
  The daughter of a psychotic magician must stay in his mansion for seven nights in order to inherit his fortune.3 N- a$ e4 U5 K9 h% x4 e
Video  J; j& }$ R9 _4 k
ID                                       : 1
: Q9 |. M) O* \9 MFormat                                   : AVC
# i) x% e" n3 i6 LFormat/Info                              : Advanced Video Codec/ S+ K. T) o0 n
Format profile                           : High@L4.1
7 `. q2 B& N* }8 Y& bFormat settings                          : CABAC / 5 Ref Frames7 m& c0 N6 ?! u. L" x, B( C7 g3 f. n1 C
Format settings, CABAC                   : Yes
5 H8 S4 Y) T) ?2 Y( K# R& SFormat settings, Reference frames        : 5 frames
# M8 |# e& a! J9 oCodec ID                                 : V_MPEG4/ISO/AVC
* k- X8 F* ?3 g" C' H5 w* WDuration                                 : 1 h 47 min
; Y: \( a& e/ R4 C+ d6 IBit rate                                 : 19.7 Mb/s, G( h$ s# A4 ~0 _  \
Width                                    : 1 920 pixels: \( u8 X4 m, L, A+ C0 d
Height                                   : 818 pixels
) o% S. e- o+ l$ q" iDisplay aspect ratio                     : 2.35:1
, j: e- s- S0 z1 yFrame rate mode                          : Constant
: Z5 ~' d5 _7 j* v' G1 l5 IFrame rate                               : 23.976 (24000/1001/37687) FPS
  }: T: c5 _6 zColor space                              : YUV: P; R% @- ^7 m
Chroma subsampling                       : 4:2:0* e+ X+ e  F: ^
Bit depth                                : 8 bits  l4 B5 i! B7 y/ g
Scan type                                : Progressive
+ J- j/ b8 z( V/ M% I4 qBits/(Pixel*Frame)                       : 0.522% N) V5 C8 a, j  K0 @* r. z  {2 l1 k* ~
Stream size                              : 14.8 GiB (96%); `1 Q1 V/ Z8 C+ }
Writing library                          : x264 core 160 r3000 33f9e14
6 }4 h1 @8 B/ A& i% z9 b7 ?Encoding settings                        : cabac=1 / ref=5 / deblock=1:-3:-3 / analyse=0x3:0x133 / me=umh / subme=11 / psy=1 / psy_rd=1.00:0.00 / mixed_ref=1 / me_range=64 / chroma_me=1 / trellis=2 / 8x8dct=1 / cqm=0 / deadzone=21,11 / fast_pskip=0 / chroma_qp_offset=-2 / threads=26 / lookahead_threads=4 / sliced_threads=0 / nr=0 / decimate=1 / interlaced=0 / bluray_compat=0 / constrained_intra=0 / bframes=8 / b_pyramid=2 / b_adapt=2 / b_bias=0 / direct=3 / weightb=1 / open_gop=0 / weightp=2 / keyint=250 / keyint_min=23 / scenecut=40 / intra_refresh=0 / rc_lookahead=60 / rc=crf / mbtree=0 / crf=17.0 / qcomp=0.60 / qpmin=0 / qpmax=69 / qpstep=4 / vbv_maxrate=50000 / vbv_bufsize=62500 / crf_max=0.0 / nal_hrd=none / filler=0 / ip_ratio=1.40 / pb_ratio=1.30 / aq=3:0.65, b: R$ P, M2 J) L" N: E5 x6 n( C* e
Default                                  : Yes
5 ~1 q1 _+ c$ N1 A! n( o+ X8 eForced                                   : No
% q% w7 N2 B' R7 l' k) IAudio; ?* D$ ]. c' ^& T
ID                                       : 2
/ v, \7 a( X0 EFormat                                   : FLAC
( ~' a3 d; i1 _+ z" d- nFormat/Info                              : Free Lossless Audio Codec5 ~( z4 @' E1 x9 o5 e" _$ I
Codec ID                                 : A_FLAC
& Y6 T- O( v2 {; \" r& a0 @% C2 `Duration                                 : 1 h 47 min* b: x' |5 R1 z# B
Bit rate mode                            : Variable3 d0 Z  @2 j2 }) C& H1 O" }
Bit rate                                 : 763 kb/s( b) s' o* h( m6 {7 r8 X4 S+ M
Channel(s)                               : 2 channels
( K. w  H  @% v4 y- F5 I' E6 F' kChannel layout                           : L R
# c* M, |: R7 j! cSampling rate                            : 48.0 kHz
  L- {& j8 i, e" s8 EFrame rate                               : 11.719 FPS (4096 SPF)
" J; {2 i9 n2 i+ _Bit depth                                : 24 bits
# F" D4 Q2 p3 d( v* J& L! RCompression mode                         : Lossless6 k" N5 I* \) x9 S, R+ R
Stream size                              : 586 MiB (4%)
/ o  B7 R$ g% W7 ETitle                                    : Flac 2.0* Q0 P# t( j1 Y& l% e: `9 V& u
Writing library                          : libFLAC 1.2.1 (UTC 2007-09-17)/ u. U: t3 b# C7 J3 J; L5 K# d, e: s$ j
Language                                 : English
: e4 H1 _; @0 {6 z( K. yDefault                                  : Yes
$ I( m% J. `* j% [Forced                                   : No$ v% r4 S: A  `& |! L$ a" r* a; |
Text #13 n* G# C) g2 m
ID                                       : 3
5 T$ e+ h: ?  g7 B, rFormat                                   : UTF-8/ w3 z* u4 J; |4 m1 P
Codec ID                                 : S_TEXT/UTF8
/ m5 D* z) w4 _Codec ID/Info                            : UTF-8 Plain Text
! ^  d. G% f- C& x  p5 P! ^Duration                                 : 1 h 46 min( d4 [6 \  S3 n0 r3 f
Bit rate                                 : 53 b/s$ k! ?2 s4 r9 y( U
Count of elements                        : 1215
7 \9 g/ P0 b# x/ M" C. P) ]  R" SStream size                              : 41.3 KiB (0%)
1 y5 ~2 W! X0 ?Title                                    : Full SRT# O/ G* \" w1 o! Z
Language                                 : English
3 W7 q( G6 {; rDefault                                  : No5 B! K: \# G. }9 k1 p& a  N
Forced                                   : No
4 o6 `9 S) I, c" y4 SText #2
- N8 N+ p# x( `, zID                                       : 4
/ u: J5 _+ H1 L+ B' {5 ]% ^Format                                   : UTF-8
  F: R$ c- ^6 G& hCodec ID                                 : S_TEXT/UTF8- T0 i, j* \( ^9 o9 B1 C
Codec ID/Info                            : UTF-8 Plain Text
$ ^7 w, F& T$ |8 l& G/ DDuration                                 : 1 h 46 min- O& ^) Z  j5 j1 c7 K- w
Bit rate                                 : 60 b/s
/ U, G7 m7 ]/ j+ r( j% OCount of elements                        : 1454& b) Q, C8 r9 Y5 ]7 r6 c  g) X
Stream size                              : 47.0 KiB (0%)
+ j/ v9 g) F2 O2 ]* `Title                                    : SDH SRT: I4 a5 W& \% o4 f/ _+ s( p# S
Language                                 : English
' `3 f( ~' e! FDefault                                  : No
* Q+ o" U4 O1 d- V- QForced                                   : No" [2 `/ h* l# e& o
Text #3
' k7 n9 L0 g) \' j' X* WID                                       : 5; G- k. C( q( @; k) E0 K) V
Format                                   : PGS
( M, \. |* k. o( |# h7 V! vMuxing mode                              : zlib. B' @/ J5 N: p4 q. b& \* |+ Q
Codec ID                                 : S_HDMV/PGS
5 l2 t" E3 M2 I  o) d9 _" [Codec ID/Info                            : Picture based subtitle format used on BDs/HD-DVDs2 k9 ~5 d5 H0 d7 ]; Y/ j2 Q
Duration                                 : 1 h 46 min- l: X3 F& W; K/ m6 k
Bit rate                                 : 32.2 kb/s4 Y. n% J1 A& ^9 x% [: s! E
Count of elements                        : 29084 g1 b. @; |- O- W2 D+ ?6 P
Stream size                              : 24.6 MiB (0%)" Z7 o( L6 P" ?: ~  f* ]. s7 [1 W
Title                                    : English SDH
! J/ N# e2 b9 U' l; QLanguage                                 : English2 J: Z/ H( E8 Y* M- K8 n
Default                                  : No& j  r( u) q: T' O* V4 Z
Forced                                   : No
0 b. G( f9 |, K$ v3 t& |' n9 TMenu7 x% V5 v0 X- Y) T8 F6 k% {
00:00:00.000                             : en:Chapter 01
7 V, B' C2 F: w# b00:01:56.575                             : en:Chapter 02' u/ C7 G; A( c2 z
00:04:35.650                             : en:Chapter 03) z+ b* y* @6 I( `
00:05:44.970                             : en:Chapter 046 F! o2 Z- @! S: x
00:07:16.519                             : en:Chapter 05
: }6 R& b( }; _9 ?' L00:11:00.952                             : en:Chapter 06% p3 Y! r* |9 Y3 Q; h
00:13:35.857                             : en:Chapter 07) ^4 [0 Y4 s. l1 A# s
00:18:28.899                             : en:Chapter 088 z* F6 d) N* Z0 _7 N' ]  h& `4 [
00:20:44.660                             : en:Chapter 09
- Z1 p- S6 F7 A! p1 j, ?00:23:29.325                             : en:Chapter 10$ d' P- q0 q* n, C" X3 t  Q* ?  f
00:27:56.842                             : en:Chapter 11# Z8 a/ `) T% h* Y
00:32:26.236                             : en:Chapter 12
5 E# ~0 |  W$ b* Y00:37:55.648                             : en:Chapter 13
+ |) j8 z0 a" n, |00:40:38.853                             : en:Chapter 14
) X' s; W( ?3 b( N7 I% L00:45:45.076                             : en:Chapter 15
% R' W" H0 x4 z! d00:48:06.634                             : en:Chapter 16
9 u9 y+ e' s( L00:51:23.080                             : en:Chapter 17
& T+ F: i8 e) S% y* N00:54:23.302                             : en:Chapter 180 Z' F: \- w( r4 I. |+ f9 z9 P
00:58:39.891                             : en:Chapter 192 q' s3 E9 b3 Q- a; q9 q7 x  |
01:03:33.893                             : en:Chapter 203 r8 O2 G8 `1 q. B) p$ U$ g; J& h
01:06:26.316                             : en:Chapter 21( o. t3 X- z: u, S2 W1 O* q! E2 _
01:08:39.907                             : en:Chapter 22
# Y. ?9 t8 _0 R' s( ~/ P5 I01:11:34.916                             : en:Chapter 23
/ D/ z7 L- _1 ]8 I01:14:06.025                             : en:Chapter 24
( }# U. X! z  P8 [' V, Q01:18:34.126                             : en:Chapter 25( r2 j( C! B- P$ T: S
01:22:01.458                             : en:Chapter 26
  ^% P) W, d# P01:24:32.192                             : en:Chapter 270 I' p4 h$ p  G  [$ f* x# d
01:29:51.886                             : en:Chapter 28
) X+ x2 k/ A! s' B* L01:33:04.704                             : en:Chapter 29/ a' ^  P+ u, g3 e
01:36:29.367                             : en:Chapter 30
1 }" }, o* A* t, |$ o01:40:10.046                             : en:Chapter 31/ P" R4 P3 ^' ~4 U8 i# t$ Q
01:44:09.827                             : en:Chapter 323 f( Z9 t  s+ h1 k( q' W
01:47:02.458                             : en:Chapter 33
Two.on.a.Guillotine.1965.1080p.BluRayCD.x264-SPECTACLE
& Z) W. t  z6 S8 f3 g
# m1 j8 S( ^" ?6 c. e' M; k+ KIMDB........: https://www.imdb.com/title/tt0059837/4 ?2 k4 U) I% |
Runtime.....: 01:47:21
" x& W! Y! U6 ~5 P# R/ pBD Bitrate..: 34.9Mb/s- p  ?: A0 b( y; s4 g% b
Video.......: x264 CRF 17.0, 19.7Mb/s
$ ]" K4 Z  A9 `1 V( \- |8 sFrame Rate..: 23.976
7 y3 }# c2 c- j8 m' I% B1 tResolution..: 1920x818
9 U; o  l8 `. [8 c+ _8 L* CAudio.......: English FLAC 2.0 - 763kbps
% M  X* F. ?, ^Subtitles...: English

4 `+ H8 @8 `9 O, n: l  Q
游客,查看本帖隐藏内容请回复 | 加入VIP贵宾组可免积分免回复下载 了解详情 | 还不是会员:点击获取邀请码 Invitation Code

本版积分规则

小黑屋|Archiver|蓝光电影资源网

GMT+8, 2020-10-29 13:32

快速回复 返回顶部 返回列表