BluRayCD Forum

 找回密码
 立即注册【分享大片】

QQ登录

只需一步,快速开始

查看: 27|回复: 2
收起左侧

[蓝光原盘] 断头台 [REMUX无损版] Two on a Guillotine 1965 1080p BluRaycd REMUX AVC DTS-HD MA 2.0-FGT 27.65GB

[复制链接]

4577

主题

4750

帖子

6万

积分

Post Share

金币
8799 枚
体力
16861 点

卓越贡献勋章

黄金嫖客 发表于 2020-9-13 21:04:37 | 显示全部楼层 |阅读模式
The daughter of a psychotic magician must stay in his mansion for seven nights in order to inherit his fortune.$ x6 M9 s3 C% \) A6 F4 c# I

' l2 a" {1 }6 H& f  F3 K- m+ ~  H 01.jpg - Q! E' \2 [* ^+ A/ l5 W2 H2 c
3 i; _$ v7 a# D& \8 u. Q
◎译  名 断头台6 d! Q- V; T, R& N
◎片  名 Two on a Guillotine3 ^# {  I$ O# A: J" j" }$ ?
◎年  代 1965
: |, E( E$ L5 [' D/ h$ A0 f◎产  地 美国
' l) y. I+ z. m8 X9 i! f7 }◎类  别 悬疑/恐怖0 G1 [) L2 U. k# U, y
◎语  言 英语2 G+ F( ]8 D9 }( M4 ^
◎上映日期 1965-01-13% s, j" w; m9 e3 O5 G8 x
◎IMDb评分  6.1/10 from 857 users6 s* t0 ]6 D0 R+ {
◎IMDb链接  https://www.imdb.com/title/tt0059837/( w# r. S+ J% O$ ?8 U) `, m
◎豆瓣评分 0/10 from 0 users
2 o  y: L7 x& e  U; y: l* B◎豆瓣链接 https://movie.douban.com/subject/3335900/
  u1 S5 X& h+ J: C1 k, g◎文件格式 x264 + DTS$ _; X; D! D( }/ t, k* b5 C1 k
◎视频尺寸 1920 x 1080
9 V! j; j8 ?+ V◎文件大小 1DVD 27.65 GiB8 z. `  ~" k8 r4 V
◎片  长 1 h 47 min
; [5 B5 P6 R. D: b; |8 m6 H◎导  演 威廉姆·康拉德 William Conrad( T  k5 X# q0 N5 y) J7 p3 t
◎编  剧 John Kneubuhl / Henry Slesar+ q& p0 v! V4 y! Q- t6 v2 c2 w" D
◎主  演 约翰·霍伊特 John Hoyt) W0 f  m3 s) @! y4 P# _- P
       康妮·史蒂文斯 Connie Stevens
0 |2 M1 f  \' m2 s5 J. _       迪恩·琼斯 Dean Jones
, K! g# B5 r  w       恺撒·罗摩洛 Cesar Romero4 N- f$ x9 q3 Q& C- I3 n. B
       Jon Lormer) i0 @8 Y; e- a* g1 l3 }
       德尔·穆尔 Del Moore" T  M* x2 B6 S
       乔治·N·奈泽 George N. Neise
) U7 e* w. Z1 c9 @: b" \7 @       拉塞尔·索尔森 Russell Thorson
% O" s/ s5 |$ g; ?' a# R5 a. J/ W, W+ g+ b
◎标  签 悬疑 | 美国电影 | 美国 | 恐怖 | BDISO | 1965
8 m  L4 I+ z8 V& p' z( S
/ o% j7 s- q2 m0 y◎简  介  $ Z4 @7 S$ x; g: u& B6 V! e
8 z5 t4 w6 I: [2 c- {2 S; t
  一个精神错乱的魔术师的女儿必须在他的豪宅里住上七个晚上才能继承他的财产。
& g; P* O/ L6 t1 u' R  D
* b" w; k# b; E$ J5 T& a  After the disappearance of her mother Melinda and untimely death of her father, a famous stage magician nicknamed "Duke", Cassie Duquesne is granted a sizeable inheritance under one condition: she must spend seven nights in his spooky mansion. With a fearless young reporter at her side, Cassie braves terrors that could be the work of evil spirits. Or are they illusions dreamed up by Cassie's dear, demented dad?
* ]5 ^! A1 ^( I; \( T, l5 u2 a
6 D' a, b% W" h( V
Video
, J8 |5 ?* G" Q8 c5 }: b( g5 \ID                                       : 1
, s; g9 \* P) u$ w. S% r4 G, h! ^ID in the original source medium         : 4113 (0x1011)4 X( F$ R' r+ u' T# K7 ~
Format                                   : AVC
3 P- U0 Q, Z( Z3 IFormat/Info                              : Advanced Video Codec
) U$ z) c+ V4 S5 M$ N' w$ qFormat profile                           : High@L4.1
9 m1 t# L2 N- R: R1 z9 SFormat settings                          : CABAC / 4 Ref Frames9 s: j8 q! Z0 q3 ~) ?' V% h
Format settings, CABAC                   : Yes
( \2 p6 n2 K- n: S( ]Format settings, Reference frames        : 4 frames
& D9 |" a, U1 M2 {Codec ID                                 : V_MPEG4/ISO/AVC% Y6 s( ^8 N1 ^2 }# d( e4 B! V0 n
Duration                                 : 1 h 47 min4 P& Q5 @4 m7 I) b3 ?: f7 e
Bit rate mode                            : Variable7 ]; c3 w) o, ?& Q
Bit rate                                 : 34.9 Mb/s4 V2 ^& m. }. i8 O, e' A
Maximum bit rate                         : 38.0 Mb/s
) K" d; R$ Q1 `" |+ z' d" EWidth                                    : 1 920 pixels
* {* y, h: O1 D+ Q' w, QHeight                                   : 1 080 pixels
6 O5 B$ c- R& MDisplay aspect ratio                     : 16:9
' ?. g2 @! Q4 z: _- xFrame rate mode                          : Constant
  c! N+ g) s4 h: i) ?0 F% X9 ZFrame rate                               : 23.976 (24000/1001/37687) FPS
: [# U' d1 _# s8 x" f# u3 IColor space                              : YUV
7 Y* @* s; G3 A5 o# NChroma subsampling                       : 4:2:0
. X$ Z: }# W% _4 h* ~# V- b$ _Bit depth                                : 8 bits
8 d3 W8 }7 h+ I* n! ~Scan type                                : Progressive$ X0 \( s" y1 F
Bits/(Pixel*Frame)                       : 0.7017 r  K1 n! D. p' b. r4 t4 r
Stream size                              : 26.1 GiB (95%)) S$ b' I9 G1 E0 V! i
Title                                    : Two.on.a.Guillotine.1965.1080p.BluRayCD.REMUX.AVC.DTS-HD.MA.2.0-FGT' \2 ?& S- s1 i) b) S
Language                                 : English
' ?& X0 G" E& O1 S) J. }Default                                  : No
- D- i( `( @7 `' yForced                                   : No5 _# g2 H" G% W% I0 v5 d
Original source medium                   : Blu-ray
1 }$ q3 x% H2 z5 ]+ l0 J  z
% R- S2 N8 E% A' ]Audio$ A' |3 A9 E0 A2 g8 I0 N, i/ l
ID                                       : 2
) n# t. @" ~3 W+ A% WID in the original source medium         : 4352 (0x1100)5 u2 k* o! i- p. F5 A- g$ n  E
Format                                   : DTS XLL
  z1 j6 I/ h! F* Y2 e5 F" t& {# kFormat/Info                              : Digital Theater Systems! d8 \  _" g/ |/ J6 n/ F
Commercial name                          : DTS-HD Master Audio
) y8 _  v" X% S" Z' ?Codec ID                                 : A_DTS5 P& S4 D6 H) N# N7 }& s$ A
Duration                                 : 1 h 47 min5 o" v- R: D3 N( D. O
Bit rate mode                            : Variable
' A+ h) l. f" \( X. z. cBit rate                                 : 1 981 kb/s) I  H, M& S# p8 v5 B+ z
Channel(s)                               : 2 channels
: y5 w5 \4 n% P! L) e! ]Channel layout                           : L R0 i; n9 D  ?) s0 w. P# t: Z; {
Sampling rate                            : 48.0 kHz- h+ ?( X$ k$ [& v5 N  o  Q
Frame rate                               : 93.750 FPS (512 SPF)
: F  |. k2 V* Y) T& q; a+ }8 `Bit depth                                : 24 bits
! i: J- \0 u1 ]5 X9 G: V# e2 E. wCompression mode                         : Lossless
* J  X! A- _: f: L* `" w1 |, O$ KStream size                              : 1.49 GiB (5%)6 M, H, Q6 r. ]3 d  D; S
Title                                    : Two.on.a.Guillotine.1965.1080p.BluRaycd.REMUX.AVC.DTS-HD.MA.2.0-FGT
4 w5 J! j8 b0 F+ |2 @0 a5 V' b" mLanguage                                 : English3 W; e0 ]/ _( Q: f1 A
Default                                  : Yes  ^& q. p9 g2 x. a% m# D
Forced                                   : No
" {+ ]; q) [  @& U; B  W) @$ y" ~, cOriginal source medium                   : Blu-ray) }6 Z/ C# l6 a4 [  r
7 S9 s- z1 M$ j4 F
Text #1
; h! l- x8 p. u+ q, i- pID                                       : 3
: i, s% N, x% A( e  l& tFormat                                   : UTF-8- U& X0 @7 n# H, z6 Q9 c
Codec ID                                 : S_TEXT/UTF8
0 T+ d4 v3 s& L2 \! `Codec ID/Info                            : UTF-8 Plain Text  |; _4 u: [' B( j$ G3 u
Duration                                 : 1 h 46 min
  P: L( v! A* ]5 V8 xBit rate                                 : 55 b/s) ~& @# S$ i# E- i6 V& U5 }
Count of elements                        : 13020 C& v8 {5 ~1 }$ A
Stream size                              : 43.1 KiB (0%)6 n/ H  [0 T% i0 \
Title                                    : English-SRT
3 Q0 G' L* J  S5 Z# kLanguage                                 : English2 k# ~" S! t; a) o
Default                                  : Yes
6 f6 ^- w$ p# G6 I8 z4 i: DForced                                   : No
8 p4 C+ M+ {4 d
, Z; w0 X  u% s' YText #2; N+ F7 X. O& f3 O: E7 I  H
ID                                       : 4- h0 u; t7 L8 m8 I4 r( z
ID in the original source medium         : 4608 (0x1200)
, l# m6 I. {. t& V$ Q$ ]0 XFormat                                   : PGS
3 z& M  s) R/ V- }7 MMuxing mode                              : zlib) `5 G' n( l! R
Codec ID                                 : S_HDMV/PGS- C+ P0 D* n9 e
Codec ID/Info                            : Picture based subtitle format used on BDs/HD-DVDs
4 {! J/ |( ?( [# h( uDuration                                 : 1 h 46 min2 L# j: A# h' t/ p% I
Bit rate                                 : 32.2 kb/s4 V* |( I! b8 T: c
Count of elements                        : 2908* ]: P# {/ b9 f- p! j
Stream size                              : 24.6 MiB (0%)
# O: y- J7 D: c7 F. t, R3 GTitle                                    : English-PGS
- R: B1 M9 @$ c2 J3 ULanguage                                 : English5 g* z0 K3 L- x" P+ v) r$ k( O
Default                                  : No
  ]$ c+ v. G3 q6 xForced                                   : No3 ?- ^  s0 }% o  c. m& e  A1 ]
Original source medium                   : Blu-ray
; s$ N# K' v; r  g. c
, }' F3 J( _6 q3 E' T# S" oMenu2 t( }5 j/ K9 H+ x5 E2 A) i$ {0 C
00:00:00.000                             : en:Chapter 01
  `$ h; C- t  R00:01:56.407                             : en:Chapter 02" [9 G  |+ t+ _- a8 O4 @
00:04:35.483                             : en:Chapter 032 }, \+ v+ `+ W7 F9 O- J
00:05:44.802                             : en:Chapter 041 H. b! ?4 r  ?( S  ]
00:07:16.811                             : en:Chapter 05
+ F3 e8 m$ p& r00:11:00.618                             : en:Chapter 06
2 P9 h1 B3 D8 l7 I00:13:35.940                             : en:Chapter 07
3 w: K, l% X+ ~00:18:28.732                             : en:Chapter 08
' i5 X. k: ~2 j) K00:20:44.493                             : en:Chapter 09
/ h- Q) O6 N% Y' J00:23:29.157                             : en:Chapter 10" _1 `, @2 V$ B
00:27:56.675                             : en:Chapter 11
8 X7 {7 J5 I; g! n00:32:26.027                             : en:Chapter 12
- w6 c+ Z5 }( ?- A6 A& l00:37:55.815                             : en:Chapter 13) D' }2 C+ q+ Y$ [
00:40:38.686                             : en:Chapter 14
4 Z0 d2 ~2 k2 R0 w00:45:45.367                             : en:Chapter 15* W0 r4 q3 Y4 y9 H
00:48:07.175                             : en:Chapter 16  d2 ^0 M# s* B& Z" _- {3 t
00:51:22.913                             : en:Chapter 17
1 L5 A0 D+ u; l+ E* t- y00:54:23.134                             : en:Chapter 18
- X9 r- Y6 H0 Z1 Q00:58:39.599                             : en:Chapter 19
: j* x3 H3 A& o" E9 |01:03:33.726                             : en:Chapter 20
  a, h) G  N0 ~6 Y  t- b# L01:06:26.232                             : en:Chapter 21
3 l, \) K" e& q% P/ R01:08:40.032                             : en:Chapter 22
' H  t# J8 `8 I6 c$ z+ d) r01:11:34.748                             : en:Chapter 236 C* _9 ?" |4 l
01:14:05.774                             : en:Chapter 24
2 ~/ J/ Q5 p# }! o' }" L+ R' j* [& k01:18:33.834                             : en:Chapter 25% N, ^' V# C8 }* j  z2 n7 g. |
01:22:01.291                             : en:Chapter 261 Z7 j5 T5 Y' _, E
01:24:32.025                             : en:Chapter 27
/ x+ `: s- H: Z3 f& O01:29:51.719                             : en:Chapter 28
/ z4 t% ?; X) f0 e# ?  V) W" \01:33:04.537                             : en:Chapter 29& ^. W4 [  y0 P
01:36:29.200                             : en:Chapter 30: o" N* D: @0 H* d! f
01:40:09.878                             : en:Chapter 31
- W9 v: ?* x) {: h01:44:09.660                             : en:Chapter 32
7 Y7 h/ C4 t% o01:47:02.707                             : en:Chapter 33" H8 j* k0 ~9 ?8 ?
01:47:20.642                             : en:Chapter 34
Two on a Guillotine Blu-ray, Video Quality   - Y, z9 [, L2 O

% r/ l5 W' L! d1 E# L6 m) J9 d" _+ O3 {1 P/ v
Two on a Guillotine makes great use of its interior sets, creating an effective mood that's aided by strong shadows and interesting textures. Both hold up exceptionally well on Warner Archive's reliably good 1080p transfer, which presents the film in its original 2.39:1 aspect ratio...even if its subject matter, shooting locations, and framed compositions don't always feel like the perfect fit. Close-ups reveal a fittingly tight image that's very stable and film-like, while the regular appearance of light to medium grain ensures that it hasn't been marred by excessive noise reduction. Dirt and debris are basically absent, as are common compression-related issues like banding or unsightly artifacts. Overall, it's just another crisp and pleasing transfer from one of the most dependable home video studios in the business.8 T9 H! h$ T; V% H+ P$ a# m) ^/ `
. U3 K% ~/ n; N9 {8 t
Two on a Guillotine Blu-ray, Audio Quality   % J" S9 r1 X/ i9 _, E! Q4 i

. j8 M% I! e4 V) e( d' i5 I( C, ?* q, v  I. y/ k' Q. D- A0 M6 Y
This surprisingly full and robust DTS-HD 2.0 Master Audio track features excellent fidelity and a consistently strong presence overall. Dialogue is cleanly recorded and very easy to follow, with Max Steiner's score and the background effects blending just about perfectly. One short scene at a raucous music club (during Cassie and Val's "day out" is mixed especially well, capturing the lively performance and careful balance of dialogue that, while drowned out, is still very much intelligible. No obvious defects (aside from one issue, described below) were detected along the way, rounding out what is very much an enjoyable and well-done audio presentation. Optional English (SDH) subtitles are included during the film, which are formatted perfectly and fit well within the film's 2.35:1 aspect ratio.NOTE: Two short scenes contain an anomaly where a few lines of dialogue sound slightly clipped, almost as if the ADR or on-set recordings play at a slightly faster speed. The lines in question occur right after the 78-minute mark and are spoken by Duquesne's manager Buzz Sheridan (Parley Baer) and reporter Joe Russell (Del Moore, uncredited). This issue was also present on WAC's 2010 DVD, so I will assume it is a part of the original source material.
6 M5 z4 |4 ]- p8 g9 F
游客,查看本帖隐藏内容请回复 | 加入VIP贵宾组可免积分免回复下载 了解详情 | 还不是会员:点击获取邀请码 Invitation Code

611

主题

2010

帖子

1万

积分

VIP advanced

金币
1774 枚
体力
4576 点

公主勋章卓越贡献勋章

21cn 发表于 2020-9-14 01:07:17 | 显示全部楼层
啥也不说了,楼主就是给力!
' Y; Q, Q9 D; a0 n: jBlu-ray Film Forum is now my home!, ?" y2 T/ f3 M+ o* @

64

主题

1506

帖子

5493

积分

Sponsor

金币
308 枚
体力
2082 点
lanpanshuma 发表于 2020-9-15 05:36:54 | 显示全部楼层
楼主发贴辛苦了,I*老*虎*U!- J! `) |0 g. G6 ?+ h  J0 x' a
Blu-ray Film Forum: I will always support you!
% y) B  P. }$ g' B
该会员没有 ...

本版积分规则

小黑屋|Archiver|蓝光电影资源网

GMT+8, 2020-10-29 03:53

快速回复 返回顶部 返回列表